osu file format v13

[General]
AudioFilename: Darling!!.mp3
AudioLeadIn: 0
PreviewTime: 0
Countdown: 0
SampleSet: None
StackLeniency: 0.7
Mode: 0
LetterboxInBreaks: 1
WidescreenStoryboard: 0

[Editor]
DistanceSpacing: 0.9
BeatDivisor: 4
GridSize: 4
TimelineZoom: 2

[Metadata]
Title:Daring!!
TitleUnicode:Daring!!
Artist:Pile
ArtistUnicode:Pile
Creator:[CSGA]Ar3sgice
Version:Maki
Source:Love Live!
Tags:ラブライブ! School idol project Nishikino Maki 西木野真姫 Darling!!
BeatmapID:546639
BeatmapSetID:235896

[Difficulty]
HPDrainRate:5
CircleSize:4
OverallDifficulty:8
ApproachRate:8
SliderMultiplier:2.4
SliderTickRate:2

[Events]
//Background and Video events
0,0,"Maki.jpg",0,0
//Break Periods
//Storyboard Layer 0 (Background)
//Storyboard Layer 1 (Fail)
//Storyboard Layer 2 (Pass)
//Storyboard Layer 3 (Foreground)
Sprite,Foreground,Centre,"2\4.png",320,240 F,0,140,640,0,1 M,0,140,4740,311,302,331,302 S,0,640,,0.55 F,0,640,4240,1 F,0,4240,4740,1,0
Sprite,Foreground,Centre,"2\5.png",320,240 F,0,3740,4240,0,1 M,0,3740,6720,312,366,292,366 S,0,4240,,0.55 F,0,4240,6220,1 F,0,6220,6720,1,0
Sprite,Foreground,Centre,"1\3.png",320,240 F,0,5720,6220,0,1 M,0,5720,8470,331,432,351,432 S,0,6220,,0.55 F,0,6220,7970,1 F,0,7970,8470,1,0
Sprite,Foreground,Centre,"2\5.png",320,240 F,0,7470,7970,0,1 M,0,7470,10510,312,366,292,366 S,0,7970,,0.55 F,0,7970,10010,1 F,0,10010,10510,1,0
Sprite,Foreground,Centre,"2\2.png",320,240 F,0,9510,10010,0,1 M,0,9510,12230,331,432,351,432 S,0,10010,,0.55 F,0,10010,11730,1 F,0,11730,12230,1,0
Sprite,Foreground,Centre,"2\5.png",320,240 F,0,11230,11730,0,1 M,0,11230,14120,312,366,292,366 S,0,11730,,0.55 F,0,11730,13620,1 F,0,13620,14120,1,0
Sprite,Foreground,Centre,"2\1.png",320,240 F,0,13120,13620,0,1 M,0,13120,15970,331,432,351,432 S,0,13620,,0.55 F,0,13620,15470,1 F,0,15470,15970,1,0
Sprite,Foreground,Centre,"2\5.png",320,240 F,0,14970,15470,0,1 M,0,14970,18000,312,366,292,366 S,0,15470,,0.55 F,0,15470,17500,1 F,0,17500,18000,1,0
Sprite,Foreground,Centre,"2\2.png",320,240 F,0,17000,17500,0,1 M,0,17000,19810,331,432,351,432 S,0,17500,,0.55 F,0,17500,19310,1 F,0,19310,19810,1,0
Sprite,Foreground,Centre,"7\1.png",320,240 F,0,20670,21170,0,1 M,0,20670,25390,312,366,292,366 S,0,21170,,0.55 F,0,21170,24890,1 F,0,24890,25390,1,0
Sprite,Foreground,Centre,"7\2.png",320,240 F,0,24390,24890,0,1 M,0,24390,29110,331,432,351,432 S,0,24890,,0.55 F,0,24890,28610,1 F,0,28610,29110,1,0
Sprite,Foreground,Centre,"6\1.png",320,240 F,0,28110,28610,0,1 M,0,28110,32830,312,366,292,366 S,0,28610,,0.55 F,0,28610,32330,1 F,0,32330,32830,1,0
Sprite,Foreground,Centre,"3\5.png",320,240 F,0,31830,32330,0,1 M,0,31830,36550,331,432,351,432 S,0,32330,,0.55 F,0,32330,36050,1 F,0,36050,36550,1,0
Sprite,Foreground,Centre,"5\1.png",320,240 F,0,35550,36050,0,1 M,0,35550,44170,312,366,292,366 S,0,36050,,0.55 F,0,36050,43670,1 F,0,43670,44170,1,0
Sprite,Foreground,Centre,"5\2.png",320,240 F,0,43170,43670,0,1 M,0,43170,51550,331,432,351,432 S,0,43670,,0.55 F,0,43670,51050,1 F,0,51050,51550,1,0
Sprite,Foreground,Centre,"3\1.png",320,240 F,0,50550,51050,0,1 M,0,50550,55550,311,302,331,302 S,0,51050,,0.55 F,0,51050,55050,1 F,0,55050,55550,1,0
Sprite,Foreground,Centre,"1\1.png",320,240 F,0,54550,55050,0,1 M,0,54550,56360,331,432,351,432 S,0,55050,,0.55 F,0,55050,55860,1 F,0,55860,56360,1,0
Sprite,Foreground,Centre,"2\5.png",320,240 F,0,55360,55860,0,1 M,0,55360,58280,312,366,292,366 S,0,55860,,0.55 F,0,55860,57780,1 F,0,57780,58280,1,0
Sprite,Foreground,Centre,"1\3.png",320,240 F,0,57280,57780,0,1 M,0,57280,60060,331,432,351,432 S,0,57780,,0.55 F,0,57780,59560,1 F,0,59560,60060,1,0
Sprite,Foreground,Centre,"2\5.png",320,240 F,0,59060,59560,0,1 M,0,59060,62160,312,366,292,366 S,0,59560,,0.55 F,0,59560,61660,1 F,0,61660,62160,1,0
Sprite,Foreground,Centre,"2\2.png",320,240 F,0,61160,61660,0,1 M,0,61160,63780,331,432,351,432 S,0,61660,,0.55 F,0,61660,63280,1 F,0,63280,63780,1,0
Sprite,Foreground,Centre,"2\5.png",320,240 F,0,62780,63280,0,1 M,0,62780,65730,312,366,292,366 S,0,63280,,0.55 F,0,63280,65230,1 F,0,65230,65730,1,0
Sprite,Foreground,Centre,"2\1.png",320,240 F,0,64730,65230,0,1 M,0,64730,67500,331,432,351,432 S,0,65230,,0.55 F,0,65230,67000,1 F,0,67000,67500,1,0
Sprite,Foreground,Centre,"2\5.png",320,240 F,0,66500,67000,0,1 M,0,66500,69650,312,366,292,366 S,0,67000,,0.55 F,0,67000,69150,1 F,0,69150,69650,1,0
Sprite,Foreground,Centre,"2\2.png",320,240 F,0,68650,69150,0,1 M,0,68650,71340,331,432,351,432 S,0,69150,,0.55 F,0,69150,70840,1 F,0,70840,71340,1,0
Sprite,Foreground,Centre,"5\4.png",320,240 F,0,70340,70840,0,1 M,0,70340,75070,311,302,331,302 S,0,70840,,0.55 F,0,70840,74570,1 F,0,74570,75070,1,0
Sprite,Foreground,Centre,"2\5.png",320,240 F,0,74070,74570,0,1 M,0,74070,77271,312,366,292,366 S,0,74570,,0.55 F,0,74570,76771,1 F,0,76771,77271,1,0
Sprite,Foreground,Centre,"3\3.png",320,240 F,0,76271,76771,0,1 M,0,76271,78870,331,432,351,432 S,0,76771,,0.55 F,0,76771,78370,1 F,0,78370,78870,1,0
Sprite,Foreground,Centre,"5\3.png",320,240 F,0,77870,78370,0,1 M,0,77870,82570,311,302,331,302 S,0,78370,,0.55 F,0,78370,82070,1 F,0,82070,82570,1,0
Sprite,Foreground,Centre,"2\5.png",320,240 F,0,81570,82070,0,1 M,0,81570,84771,312,366,292,366 S,0,82070,,0.55 F,0,82070,84271,1 F,0,84271,84771,1,0
Sprite,Foreground,Centre,"2\2.png",320,240 F,0,83771,84271,0,1 M,0,83771,86360,331,432,351,432 S,0,84271,,0.55 F,0,84271,85860,1 F,0,85860,86360,1,0
Sprite,Foreground,Centre,"6\3.png",320,240 F,0,87190,87690,0,1 M,0,87190,89458,312,366,292,366 S,0,87690,,0.55 F,0,87690,88958,1 F,0,88958,89458,1,0
Sprite,Foreground,Centre,"5\5.png",320,240 F,0,88458,88958,0,1 M,0,88458,91940,331,432,351,432 S,0,88958,,0.55 F,0,88958,91440,1 F,0,91440,91940,1,0
Sprite,Foreground,Centre,"6\4.png",320,240 F,0,90940,91440,0,1 M,0,90940,93208,312,366,292,366 S,0,91440,,0.55 F,0,91440,92708,1 F,0,92708,93208,1,0
Sprite,Foreground,Centre,"4\2.png",320,240 F,0,92208,92708,0,1 M,0,92208,95690,331,432,351,432 S,0,92708,,0.55 F,0,92708,95190,1 F,0,95190,95690,1,0
Sprite,Foreground,Centre,"6\5.png",320,240 F,0,94690,95190,0,1 M,0,94690,99440,312,366,292,366 S,0,95190,,0.55 F,0,95190,98940,1 F,0,98940,99440,1,0
Sprite,Foreground,Centre,"4\1.png",320,240 F,0,98440,98940,0,1 M,0,98440,103220,331,432,351,432 S,0,98940,,0.55 F,0,98940,102720,1 F,0,102720,103220,1,0
Sprite,Foreground,Centre,"4\3.png",320,240 F,0,102220,102720,0,1 M,0,102220,110740,312,366,292,366 S,0,102720,,0.55 F,0,102720,110240,1 F,0,110240,110740,1,0
Sprite,Foreground,Centre,"4\4.png",320,240 F,0,109740,110240,0,1 M,0,109740,118170,331,432,351,432 S,0,110240,,0.5113583 F,0,110240,117670,1 F,0,117670,118170,1,0
Sprite,Foreground,Centre,"3\2.png",320,240 F,0,117170,117670,0,1 M,0,117170,121980,311,302,331,302 S,0,117670,,0.55 F,0,117670,121480,1 F,0,121480,121980,1,0
Sprite,Foreground,Centre,"2\3.png",320,240 F,0,120980,121480,0,1 M,0,120980,123870,312,366,292,366 S,0,121480,,0.55 F,0,121480,123370,1 F,0,123370,123870,1,0
Sprite,Foreground,Centre,"1\4.png",320,240 F,0,122870,123370,0,1 M,0,122870,125670,331,432,351,432 S,0,123370,,0.55 F,0,123370,125170,1 F,0,125170,125670,1,0
Sprite,Foreground,Centre,"2\3.png",320,240 F,0,124670,125170,0,1 M,0,124670,127780,312,366,292,366 S,0,125170,,0.55 F,0,125170,127280,1 F,0,127280,127780,1,0
Sprite,Foreground,Centre,"1\5.png",320,240 F,0,126780,127280,0,1 M,0,126780,129470,331,432,351,432 S,0,127280,,0.55 F,0,127280,128970,1 F,0,128970,129470,1,0
Sprite,Foreground,Centre,"2\3.png",320,240 F,0,128470,128970,0,1 M,0,128470,131430,312,366,292,366 S,0,128970,,0.55 F,0,128970,130930,1 F,0,130930,131430,1,0
Sprite,Foreground,Centre,"1\2.png",320,240 F,0,130430,130930,0,1 M,0,130430,133160,331,432,351,432 S,0,130930,,0.55 F,0,130930,132660,1 F,0,132660,133160,1,0
Sprite,Foreground,Centre,"2\3.png",320,240 F,0,132160,132660,0,1 M,0,132160,135270,312,366,292,366 S,0,132660,,0.55 F,0,132660,134770,1 F,0,134770,135270,1,0
Sprite,Foreground,Centre,"1\5.png",320,240 F,0,134270,134770,0,1 M,0,134270,136960,331,432,351,432 S,0,134770,,0.55 F,0,134770,136460,1 F,0,136460,136960,1,0
Sprite,Foreground,Centre,"6\2.png",320,240 F,0,135960,136460,0,1 M,0,135960,140700,311,302,331,302 S,0,136460,,0.55 F,0,136460,140200,1 F,0,140200,140700,1,0
Sprite,Foreground,Centre,"2\3.png",320,240 F,0,139700,140200,0,1 M,0,139700,142896,312,366,292,366 S,0,140200,,0.55 F,0,140200,142396,1 F,0,142396,142896,1,0
Sprite,Foreground,Centre,"3\4.png",320,240 F,0,141896,142396,0,1 M,0,141896,144490,331,432,351,432 S,0,142396,,0.55 F,0,142396,143990,1 F,0,143990,144490,1,0
Sprite,Foreground,Centre,"4\5.png",320,240 F,0,143490,143990,0,1 M,0,143490,148190,311,302,331,302 S,0,143990,,0.55 F,0,143990,147690,1 F,0,147690,148190,1,0
Sprite,Foreground,Centre,"2\3.png",320,240 F,0,147190,147690,0,1 M,0,147190,150396,312,366,292,366 S,0,147690,,0.55 F,0,147690,149896,1 F,0,149896,150396,1,0
Sprite,Foreground,Centre,"1\5.png",320,240 F,0,149396,149896,0,1 M,0,149396,151970,331,432,351,432 S,0,149896,,0.55 F,0,149896,151470,1 F,0,151470,151970,1,0
Sprite,Foreground,Centre,"3\1.png",320,240 F,0,166040,166540,0,1 M,0,166040,170990,311,302,331,302 S,0,166540,,0.55 F,0,166540,170490,1 F,0,170490,170990,1,0
Sprite,Foreground,Centre,"1\1.png",320,240 F,0,169990,170490,0,1 M,0,169990,172660,331,432,351,432 S,0,170490,,0.55 F,0,170490,172160,1 F,0,172160,172660,1,0
Sprite,Foreground,Centre,"2\5.png",320,240 F,0,171660,172160,0,1 M,0,171660,174540,312,366,292,366 S,0,172160,,0.55 F,0,172160,174040,1 F,0,174040,174540,1,0
Sprite,Foreground,Centre,"1\3.png",320,240 F,0,173540,174040,0,1 M,0,173540,176310,331,432,351,432 S,0,174040,,0.55 F,0,174040,175810,1 F,0,175810,176310,1,0
Sprite,Foreground,Centre,"2\5.png",320,240 F,0,175310,175810,0,1 M,0,175310,178450,312,366,292,366 S,0,175810,,0.55 F,0,175810,177950,1 F,0,177950,178450,1,0
Sprite,Foreground,Centre,"2\2.png",320,240 F,0,177450,177950,0,1 M,0,177450,180110,331,432,351,432 S,0,177950,,0.55 F,0,177950,179610,1 F,0,179610,180110,1,0
Sprite,Foreground,Centre,"2\5.png",320,240 F,0,179110,179610,0,1 M,0,179110,182130,312,366,292,366 S,0,179610,,0.55 F,0,179610,181630,1 F,0,181630,182130,1,0
Sprite,Foreground,Centre,"2\1.png",320,240 F,0,181130,181630,0,1 M,0,181130,183830,331,432,351,432 S,0,181630,,0.55 F,0,181630,183330,1 F,0,183330,183830,1,0
Sprite,Foreground,Centre,"2\5.png",320,240 F,0,182830,183330,0,1 M,0,182830,185890,312,366,292,366 S,0,183330,,0.55 F,0,183330,185390,1 F,0,185390,185890,1,0
Sprite,Foreground,Centre,"2\2.png",320,240 F,0,184890,185390,0,1 M,0,184890,187610,331,432,351,432 S,0,185390,,0.55 F,0,185390,187110,1 F,0,187110,187610,1,0
Sprite,Foreground,Centre,"5\4.png",320,240 F,0,186610,187110,0,1 M,0,186610,191270,311,302,331,302 S,0,187110,,0.55 F,0,187110,190770,1 F,0,190770,191270,1,0
Sprite,Foreground,Centre,"2\5.png",320,240 F,0,190270,190770,0,1 M,0,190270,193521,312,366,292,366 S,0,190770,,0.55 F,0,190770,193021,1 F,0,193021,193521,1,0
Sprite,Foreground,Centre,"3\3.png",320,240 F,0,192521,193021,0,1 M,0,192521,195110,331,432,351,432 S,0,193021,,0.55 F,0,193021,194610,1 F,0,194610,195110,1,0
Sprite,Foreground,Centre,"5\3.png",320,240 F,0,194110,194610,0,1 M,0,194110,198820,311,302,331,302 S,0,194610,,0.55 F,0,194610,198320,1 F,0,198320,198820,1,0
Sprite,Foreground,Centre,"2\5.png",320,240 F,0,197820,198320,0,1 M,0,197820,201021,312,366,292,366 S,0,198320,,0.55 F,0,198320,200521,1 F,0,200521,201021,1,0
Sprite,Foreground,Centre,"2\2.png",320,240 F,0,200021,200521,0,1 M,0,200021,202590,331,432,351,432 S,0,200521,,0.55 F,0,200521,202090,1 F,0,202090,202590,1,0
Sprite,Foreground,Centre,"7\3.png",320,240 F,0,154708,155177,0,1 M,0,154708,162677,336,264,302,264 S,0,155177,,0.6329055 F,0,155177,162208,1 F,0,162208,162677,1,0
//Storyboard Sound Samples
//Background Colour Transformations
3,100,255,255,255

[TimingPoints]
490,468.75,4,2,1,80,1,0
4240,-100,4,1,1,80,0,1
19240,-100,4,1,0,60,0,0
21115,-100,4,1,1,60,0,0
35177,-133.333333333333,4,1,1,40,0,0
36115,-100,4,1,1,70,0,0
51115,-133.333333333333,4,2,1,70,0,0
52990,-133.333333333333,4,2,1,75,0,0
53927,-133.333333333333,4,2,1,80,0,0
55802,468.75,4,1,1,80,1,1
55802,-100,4,1,1,80,0,1
85802,-100,4,1,0,60,0,0
87677,-133.333333333333,4,2,1,70,0,0
90255,-100,4,1,1,60,0,0
97989,-133.333333333333,4,1,1,70,0,0
98458,-100,4,1,1,60,0,0
102677,-100,4,1,1,70,0,0
117677,-133.333333333333,4,2,1,70,0,0
119552,-133.333333333333,4,1,1,70,0,0
120489,-133.333333333333,4,1,1,50,0,0
121427,-100,4,1,1,80,0,1
151427,-100,4,1,1,70,0,0
166427,-133.333333333333,4,2,1,70,0,0
172052,-100,4,1,1,80,0,1
202052,-117.647058823529,4,1,1,60,0,0

[Colours]
Combo1 : 184,194,252
Combo2 : 207,245,254
Combo3 : 148,142,255
Combo4 : 167,235,254

[HitObjects]
448,124,841,5,0,0:0:0:0:
60,252,2365,1,0,0:0:0:0:
220,368,3302,1,0,0:0:0:0:
432,276,4240,6,0,P|464:240|504:104,2,180,0|8|0,0:0|0:0|0:0,0:0:0:0:
376,16,5177,2,0,P|344:52|304:188,2,180,0|8|0,0:0|0:0|0:0,0:0:0:0:
84,220,6115,5,0,0:0:0:0:
228,196,6349,1,0,0:0:0:0:
280,208,6466,1,0,0:0:0:0:
324,236,6583,1,8,0:0:0:0:
384,368,6818,1,0,0:0:0:0:
484,196,7052,1,0,0:0:0:0:
244,304,7286,1,0,0:0:0:0:
484,196,7521,2,0,L|496:72,1,120,8|0,0:0|0:0,0:0:0:0:
328,8,7990,6,0,P|308:72|316:192,2,180,0|8|0,0:0|0:0|0:0,0:0:0:0:
112,140,8927,2,0,P|112:204|164:324,2,180,0|8|0,0:0|0:0|0:0,0:0:0:0:
180,8,9865,5,0,0:0:0:0:
16,184,10099,1,8,0:0:0:0:
68,192,10216,1,8,0:0:0:0:
120,184,10333,1,8,0:0:0:0:
272,112,10568,1,0,0:0:0:0:
440,200,10802,2,0,L|424:328,1,120,6|0,0:0|0:0,0:0:0:0:
452,216,11271,2,0,L|436:344,1,120,6|0,0:0|0:0,0:0:0:0:
300,328,11740,6,0,B|240:344|188:312|188:312|132:364,2,180,0|8|0,0:0|0:0|0:0,0:0:0:0:
228,188,12677,2,0,B|168:172|116:204|116:204|60:152,2,180,0|8|0,0:0|0:0|0:0,0:0:0:0:
24,296,13615,5,0,0:0:0:0:
152,176,13849,1,0,0:0:0:0:
168,124,13966,1,0,0:0:0:0:
160,72,14083,1,8,0:0:0:0:
368,168,14318,1,0,0:0:0:0:
220,12,14552,1,0,0:0:0:0:
76,120,14786,1,0,0:0:0:0:
228,232,15021,2,0,P|224:292|196:356,1,120,8|0,0:0|0:0,0:0:0:0:
332,264,15490,6,0,P|400:256|512:296,2,180,0|8|0,0:0|0:0|0:0,0:0:0:0:
332,120,16427,2,0,P|400:128|512:88,2,180,0|8|0,0:0|0:0|0:0,0:0:0:0:
204,40,17365,5,0,0:0:0:0:
88,192,17599,1,8,0:0:0:0:
88,192,17716,1,8,0:0:0:0:
88,192,17833,1,8,0:0:0:0:
204,344,18068,1,0,0:0:0:0:
28,108,18302,2,0,P|92:96|152:108,1,120,6|0,0:0|0:0,0:0:0:0:
28,276,18771,2,0,P|92:288|152:276,1,120,6|0,0:0|0:0,0:0:0:0:
352,192,19240,5,0,0:0:0:0:
288,24,19474,1,8,0:0:0:0:
296,60,19591,1,8,0:0:0:0:
244,120,19708,5,0,0:0:0:0:
440,192,19943,37,8,0:0:0:0:
244,264,20177,5,0,0:0:0:0:
440,192,20412,37,8,0:0:0:0:
244,264,20646,5,0,0:0:0:0:
296,324,20763,37,8,0:0:0:0:
288,360,20880,1,8,0:0:0:0:
120,332,21115,6,0,P|88:272|80:160,2,180,4|0|0,0:0|0:0|0:0,0:0:0:0:
120,332,22052,1,0,0:0:0:0:
344,244,22286,1,0,0:0:0:0:
356,196,22404,1,0,0:0:0:0:
356,148,22521,2,0,P|344:88|312:32,1,120,8|0,0:0|0:0,0:0:0:0:
220,184,22990,5,0,0:0:0:0:
288,344,23224,1,0,0:0:0:0:
452,280,23458,1,8,0:0:0:0:
384,120,23692,1,0,0:0:0:0:
144,236,23927,1,8,0:0:0:0:
344,272,24161,1,0,0:0:0:0:
144,236,24396,2,0,L|128:364,1,120,8|0,0:0|0:0,0:0:0:0:
52,172,24865,6,0,P|52:112|104:4,2,180,4|8|0,0:0|0:0|0:0,0:0:0:0:
232,296,25802,1,0,0:0:0:0:
200,132,26036,1,0,0:0:0:0:
232,296,26271,1,8,0:0:0:0:
284,308,26388,1,0,0:0:0:0:
336,308,26505,1,8,0:0:0:0:
484,248,26740,5,0,0:0:0:0:
300,168,26974,1,0,0:0:0:0:
464,44,27208,1,8,0:0:0:0:
380,184,27443,1,0,0:0:0:0:
220,200,27677,2,0,P|152:188|104:160,1,120,4|0,0:0|0:0,0:0:0:0:
280,24,28146,2,0,P|348:36|396:64,1,120,12|0,0:0|0:0,0:0:0:0:
472,184,28615,6,0,L|484:368,1,180,4|0,0:0|0:0,0:0:0:0:
483,363,29083,2,0,P|420:380|364:364,1,120,8|0,0:0|0:0,0:0:0:0:
192,288,29552,1,0,0:0:0:0:
340,148,29786,2,0,L|352:80,1,60
324,232,30021,2,0,L|340:352,1,120,8|0,0:0|0:0,0:0:0:0:
432,184,30490,5,0,0:0:0:0:
216,184,30724,1,8,0:0:0:0:
312,20,30958,1,8,0:0:0:0:
364,36,31075,1,8,0:0:0:0:
400,76,31193,1,0,0:0:0:0:
216,276,31427,1,8,0:0:0:0:
68,168,31661,1,8,0:0:0:0:
216,276,31896,2,0,L|344:268,1,120,0|0,0:0|0:0,0:0:0:0:
488,256,32365,5,4,0:0:0:0:
392,340,32599,1,0,0:0:0:0:
480,264,32833,1,0,0:0:0:0:
400,336,33068,1,0,0:0:0:0:
288,164,33302,1,0,0:0:0:0:
408,180,33536,1,0,0:0:0:0:
408,180,33654,2,0,L|400:256,1,60,0|8,0:0|0:0,0:0:0:0:
160,140,34240,5,4,0:0:0:0:
288,36,34474,1,0,0:0:0:0:
288,36,34591,2,0,P|308:92|304:212,1,180
84,72,35177,1,0,0:0:0:0:
84,84,35411,1,0,0:0:0:0:
84,96,35646,2,0,L|76:236,1,135.000005149841,8|0,0:0|0:0,0:0:0:0:
72,284,36115,6,0,P|124:312|308:328,1,240,2|8,0:0|0:0,0:0:0:0:
496,192,36818,1,0,0:0:0:0:
496,192,36935,1,0,0:0:0:0:
496,192,37052,2,0,L|484:324,1,120,4|0,0:0|0:0,0:0:0:0:
444,344,37404,1,0,0:0:0:0:
392,360,37521,2,0,P|332:352|280:316,1,120,8|0,0:0|0:0,0:0:0:0:
224,196,37990,5,4,0:0:0:0:
408,80,38224,1,0,0:0:0:0:
272,112,38458,1,8,0:0:0:0:
272,112,38575,1,0,0:0:0:0:
272,112,38693,1,0,0:0:0:0:
484,164,38927,1,2,0:0:0:0:
320,16,39161,1,0,0:0:0:0:
484,164,39396,2,0,P|476:228|448:280,1,120,8|0,0:0|0:0,0:0:0:0:
320,356,39865,5,2,0:0:0:0:
128,288,40099,1,0,0:0:0:0:
216,352,40333,1,8,0:0:0:0:
96,184,40567,1,0,0:0:0:0:
272,104,40802,1,2,0:0:0:0:
275,163,41036,2,0,L|272:104,1,60
268,16,41271,1,8,0:0:0:0:
416,108,41505,1,0,0:0:0:0:
88,188,41740,5,2,0:0:0:0:
208,356,41974,1,0,0:0:0:0:
120,292,42208,1,8,0:0:0:0:
312,360,42442,1,0,0:0:0:0:
452,168,42677,2,0,L|436:232,1,60,0|8,0:0|0:0,0:0:0:0:
476,80,43029,1,0,0:0:0:0:
476,80,43146,2,0,P|412:72|292:100,1,180,8|0,0:0|0:0,0:0:0:0:
252,124,43615,6,0,P|192:136|16:64,1,240,2|8,0:0|0:0,0:0:0:0:
128,304,44318,2,0,L|116:364,1,60
28,220,44552,2,0,L|36:344,1,120
128,304,44904,1,0,0:0:0:0:
128,304,45021,2,0,P|192:316|240:344,1,120,8|0,0:0|0:0,0:0:0:0:
456,280,45490,5,2,0:0:0:0:
320,304,45724,1,0,0:0:0:0:
488,364,45958,1,8,0:0:0:0:
340,200,46193,1,0,0:0:0:0:
432,16,46427,1,2,0:0:0:0:
500,132,46661,1,0,0:0:0:0:
440,272,46896,2,0,P|392:308|320:320,1,120,8|0,0:0|0:0,0:0:0:0:
68,248,47365,5,4,0:0:0:0:
220,372,47599,1,0,0:0:0:0:
80,260,47833,1,8,0:0:0:0:
208,364,48068,1,0,0:0:0:0:
192,160,48302,1,4,0:0:0:0:
8,320,48536,2,0,L|44:368,1,60
44,368,48771,1,8,0:0:0:0:
252,40,49240,5,12,0:0:0:0:
104,120,49474,1,0,0:0:0:0:
256,52,49708,1,8,0:0:0:0:
184,196,49943,1,0,0:0:0:0:
264,64,50177,2,0,P|284:88|312:104,1,60,8|0,0:0|0:0,0:0:0:0:
360,124,50411,2,0,P|428:132|484:164,1,120,0|8,0:0|0:0,0:0:0:0:
388,244,50880,1,8,0:0:0:0:
484,40,51115,5,2,0:0:0:0:
144,144,51583,1,2,0:0:0:0:
300,368,52052,1,2,0:0:0:0:
300,368,52404,1,2,0:0:0:0:
368,240,52755,1,2,0:0:0:0:
240,28,52990,6,0,P|224:84|232:212,1,180.000006866455,2|2,0:0|0:0,0:0:0:0:
472,360,53927,2,0,P|488:312|468:84,1,270.000010299683,4|0,0:0|0:0,0:0:0:0:
473,96,55099,5,0,0:0:0:0:
473,96,55568,2,0,L|416:108,1,45.0000017166138
352,120,55802,6,0,P|288:116|192:52,2,180,0|8|0,0:0|0:0|0:0,0:0:0:0:
352,264,56739,2,0,P|288:268|192:332,2,180,0|8|0,0:0|0:0|0:0,0:0:0:0:
473,288,57677,5,0,0:0:0:0:
260,140,57911,1,0,0:0:0:0:
244,192,58028,1,0,0:0:0:0:
260,244,58145,1,8,0:0:0:0:
344,364,58380,1,0,0:0:0:0:
132,268,58614,1,0,0:0:0:0:
344,192,58848,1,0,0:0:0:0:
124,88,59083,2,0,P|60:100|12:132,1,120,8|0,0:0|0:0,0:0:0:0:
240,200,59552,6,0,P|248:132|220:20,2,180,0|8|0,0:0|0:0|0:0,0:0:0:0:
60,196,60489,2,0,P|52:264|80:376,2,180,0|8|0,0:0|0:0|0:0,0:0:0:0:
160,92,61427,5,0,0:0:0:0:
304,120,61661,1,8,0:0:0:0:
328,168,61778,1,8,0:0:0:0:
332,220,61895,1,8,0:0:0:0:
272,360,62130,1,0,0:0:0:0:
392,288,62364,2,0,L|512:264,1,120,6|0,0:0|0:0,0:0:0:0:
376,276,62833,2,0,L|496:252,1,120,6|0,0:0|0:0,0:0:0:0:
448,24,63302,6,0,P|428:88|432:216,2,180,0|8|0,0:0|0:0|0:0,0:0:0:0:
248,80,64239,2,0,P|268:144|264:272,2,180,0|8|0,0:0|0:0|0:0,0:0:0:0:
116,40,65177,5,2,0:0:0:0:
12,164,65411,1,0,0:0:0:0:
56,192,65528,1,0,0:0:0:0:
108,204,65645,2,0,L|172:192,2,60,8|0|0,0:0|0:0|0:0,0:0:0:0:
52,336,66114,1,0,0:0:0:0:
204,372,66348,1,8,0:0:0:0:
336,276,66583,2,8,P|344:212|320:92,1,180
323,99,67052,6,0,P|264:100|144:60,2,180,2|8|8,0:0|0:0|0:0,0:0:0:0:
208,244,67989,2,0,P|148:243|28:283,2,180,2|8|8,0:0|0:0|0:0,0:0:0:0:
352,332,68927,5,2,0:0:0:0:
476,252,69161,1,8,0:0:0:0:
492,200,69278,1,8,0:0:0:0:
484,148,69395,1,8,0:0:0:0:
440,12,69630,1,0,0:0:0:0:
320,104,69864,2,0,P|260:92|212:60,1,120,6|0,0:0|0:0,0:0:0:0:
300,108,70333,2,0,P|240:96|192:64,1,120,6|0,0:0|0:0,0:0:0:0:
48,356,70802,5,6,0:0:0:0:
264,208,71036,1,0,0:0:0:0:
60,336,71270,1,8,0:0:0:0:
252,228,71505,1,0,0:0:0:0:
80,316,71739,1,0,0:0:0:0:
236,244,71973,1,0,0:0:0:0:
100,304,72208,1,8,0:0:0:0:
216,256,72442,1,0,0:0:0:0:
68,208,72677,5,2,0:0:0:0:
216,340,72911,1,8,0:0:0:0:
84,192,73145,1,0,0:0:0:0:
192,348,73380,1,8,0:0:0:0:
208,120,73614,1,0,0:0:0:0:
144,268,73848,1,8,0:0:0:0:
208,120,74083,2,0,L|336:128,1,120,8|0,0:0|0:0,0:0:0:0:
476,40,74552,6,0,P|492:104|488:224,2,180,0|8|8,0:0|0:0|0:0,0:0:0:0:
356,200,75489,2,0,P|352:276|380:380,2,180,0|8|8,0:0|0:0|0:0,0:0:0:0:
248,72,76427,5,0,0:0:0:0:
88,124,76661,1,0,0:0:0:0:
88,124,76778,1,0,0:0:0:0:
88,124,76895,1,8,0:0:0:0:
188,164,77130,1,0,0:0:0:0:
8,220,77364,1,0,0:0:0:0:
128,24,77598,1,8,0:0:0:0:
296,180,77833,1,8,0:0:0:0:
304,232,77950,1,8,0:0:0:0:
288,284,78067,2,0,L|272:328,3,30,0|0|0|0,0:0|0:0|0:0|0:0,0:0:0:0:
256,328,78302,5,6,0:0:0:0:
448,360,78536,1,0,0:0:0:0:
356,320,78770,1,8,0:0:0:0:
504,248,79005,1,0,0:0:0:0:
424,264,79239,1,2,0:0:0:0:
440,96,79473,1,0,0:0:0:0:
448,184,79708,1,8,0:0:0:0:
384,32,79942,1,0,0:0:0:0:
508,56,80177,5,2,0:0:0:0:
328,100,80411,1,8,0:0:0:0:
396,44,80645,1,0,0:0:0:0:
352,192,80880,1,8,0:0:0:0:
224,88,81114,1,0,0:0:0:0:
448,220,81348,1,8,0:0:0:0:
280,360,81583,2,0,P|220:372|156:364,1,120,8|0,0:0|0:0,0:0:0:0:
112,348,81934,5,0,0:0:0:0:
76,308,82052,2,0,P|52:244|44:128,2,180,0|8|8,0:0|0:0|0:0,0:0:0:0:
256,240,82989,2,0,P|276:176|276:56,2,180,0|8|8,0:0|0:0|0:0,0:0:0:0:
164,32,83927,5,0,0:0:0:0:
384,88,84161,1,8,0:0:0:0:
404,140,84278,1,8,0:0:0:0:
400,192,84395,1,8,0:0:0:0:
328,344,84630,1,0,0:0:0:0:
496,296,84864,2,0,P|432:280|368:276,1,120,6|0,0:0|0:0,0:0:0:0:
212,308,85333,2,0,P|152:332|108:368,1,120,6|0,0:0|0:0,0:0:0:0:
16,192,85802,37,0,0:0:0:0:
184,32,86036,21,8,0:0:0:0:
180,68,86153,1,8,0:0:0:0:
132,128,86270,37,0,0:0:0:0:
256,240,86505,5,8,0:0:0:0:
380,128,86739,37,0,0:0:0:0:
496,192,86973,37,8,0:0:0:0:
380,128,87208,5,0,0:0:0:0:
332,68,87325,5,8,0:0:0:0:
328,32,87442,1,8,0:0:0:0:
168,212,87677,6,0,P|160:276|180:356,2,135.000005149841,4|0|0,0:0|0:0|0:0,0:0:0:0:
344,212,88848,1,2,0:0:0:0:
352,244,88966,1,0,0:0:0:0:
356,276,89083,1,2,0:0:0:0:
352,308,89200,1,0,0:0:0:0:
344,340,89317,1,0,0:0:0:0:
488,128,89786,5,2,0:0:0:0:
488,128,90255,1,0,0:0:0:0:
488,128,90372,2,0,L|496:168,2,30,0|0|4,0:0|0:0|0:0,0:0:0:0:
216,236,90841,1,12,0:0:0:0:
420,368,91192,1,12,0:0:0:0:
316,136,91427,6,0,P|328:200|308:316,1,180,4|0,0:0|0:0,0:0:0:0:
252,352,91895,2,0,P|190:360|128:348,1,120,8|0,0:0|0:0,0:0:0:0:
20,228,92364,1,0,0:0:0:0:
116,32,92598,2,0,L|136:168,1,120,0|8,0:0|0:0,0:0:0:0:
172,200,92950,2,0,L|232:212,1,60
472,240,93302,5,0,0:0:0:0:
316,176,93536,1,0,0:0:0:0:
472,240,93770,2,0,L|460:108,1,120,8|0,0:0|0:0,0:0:0:0:
184,124,94239,2,0,P|172:196|188:312,1,180,4|0,0:0|0:0,0:0:0:0:
216,352,94708,1,8,0:0:0:0:
372,264,94942,1,0,0:0:0:0:
216,352,95177,6,0,L|36:324,1,180,4|0,0:0|0:0,0:0:0:0:
38,324,95645,2,0,P|16:264|16:204,1,120,8|0,0:0|0:0,0:0:0:0:
92,40,96114,1,0,0:0:0:0:
296,148,96348,1,8,0:0:0:0:
92,40,96583,1,8,0:0:0:0:
88,100,96700,1,8,0:0:0:0:
108,152,96817,1,8,0:0:0:0:
280,264,97052,5,0,0:0:0:0:
280,264,97520,1,0,0:0:0:0:
280,264,97989,1,8,0:0:0:0:
416,208,98223,1,0,0:0:0:0:
280,264,98458,2,0,L|92:232,1,180,8|0,0:0|0:0,0:0:0:0:
44,220,98927,5,2,0:0:0:0:
204,364,99161,1,0,0:0:0:0:
80,104,99395,1,8,0:0:0:0:
100,328,99630,1,0,0:0:0:0:
324,184,99864,1,0,0:0:0:0:
224,72,100098,2,0,L|236:12,2,60,0|0|8,0:0|0:0|0:0,0:0:0:0:
224,72,100802,6,0,L|348:60,1,120,2|0,0:0|0:0,0:0:0:0:
404,56,101153,2,0,P|424:116|416:240,1,180,8|0,0:0|0:0,0:0:0:0:
356,332,101739,1,0,0:0:0:0:
356,332,101973,1,8,0:0:0:0:
356,332,102208,2,0,L|172:332,1,180,8|0,0:0|0:0,0:0:0:0:
120,356,102677,6,0,P|92:300|88:120,1,240,2|0,0:0|0:0,0:0:0:0:
308,24,103380,1,0,0:0:0:0:
308,24,103497,1,0,0:0:0:0:
308,24,103614,2,0,L|312:152,1,120,2|0,0:0|0:0,0:0:0:0:
336,192,103966,1,0,0:0:0:0:
380,220,104083,2,0,P|452:228|504:216,1,120,8|0,0:0|0:0,0:0:0:0:
224,220,104552,5,0,0:0:0:0:
440,116,104786,1,0,0:0:0:0:
284,308,105020,1,8,0:0:0:0:
488,352,105255,1,0,0:0:0:0:
352,76,105489,1,2,0:0:0:0:
400,248,105723,1,0,0:0:0:0:
224,364,105958,2,0,P|152:356|104:324,1,120,8|0,0:0|0:0,0:0:0:0:
64,128,106427,5,4,0:0:0:0:
0,304,106661,1,0,0:0:0:0:
192,88,106895,1,8,0:0:0:0:
64,220,107130,1,0,0:0:0:0:
364,264,107364,1,2,0:0:0:0:
192,88,107598,2,0,L|232:136,1,60
230,134,107833,1,8,0:0:0:0:
368,84,108067,1,0,0:0:0:0:
484,200,108302,5,4,0:0:0:0:
216,292,108536,1,0,0:0:0:0:
392,184,108770,1,8,0:0:0:0:
296,364,109005,1,0,0:0:0:0:
136,232,109239,1,0,0:0:0:0:
164,180,109356,1,2,0:0:0:0:
292,20,109591,1,0,0:0:0:0:
316,76,109708,2,0,P|320:144|308:200,1,120,8|0,0:0|0:0,0:0:0:0:
60,360,110177,6,0,P|32:304|28:232,1,120,6|0,0:0|0:0,0:0:0:0:
44,196,110528,1,0,0:0:0:0:
84,160,110645,2,0,L|208:144,1,120,8|0,0:0|0:0,0:0:0:0:
444,116,111114,2,0,P|384:92|264:100,1,180,4|0,0:0|0:0,0:0:0:0:
208,148,111583,2,0,L|197:276,1,120,8|8,0:0|0:0,0:0:0:0:
312,368,112052,5,0,0:0:0:0:
96,232,112286,1,0,0:0:0:0:
332,64,112520,1,8,0:0:0:0:
264,240,112755,1,0,0:0:0:0:
480,180,112989,1,8,0:0:0:0:
320,144,113223,1,8,0:0:0:0:
480,180,113458,2,0,L|464:316,1,120,4|0,0:0|0:0,0:0:0:0:
180,328,113927,5,2,0:0:0:0:
372,248,114161,1,0,0:0:0:0:
152,160,114395,1,8,0:0:0:0:
372,248,114630,1,0,0:0:0:0:
256,364,114864,2,0,L|256:228,1,120,2|0,0:0|0:0,0:0:0:0:
256,188,115216,1,0,0:0:0:0:
256,136,115333,1,8,0:0:0:0:
452,16,115802,5,4,0:0:0:0:
512,144,116036,1,0,0:0:0:0:
320,64,116270,1,8,0:0:0:0:
448,92,116505,1,0,0:0:0:0:
320,64,116739,2,0,L|196:76,1,120,2|0,0:0|0:0,0:0:0:0:
152,96,117091,1,0,0:0:0:0:
120,140,117208,2,0,P|104:208|108:268,1,120,8|0,0:0|0:0,0:0:0:0:
244,368,117677,5,2,0:0:0:0:
352,136,118145,1,2,0:0:0:0:
428,280,118614,2,0,P|376:296|284:288,2,135.000005149841,2|2|2,0:0|0:0|0:0,0:0:0:0:
500,80,119552,5,2,0:0:0:0:
468,52,119669,1,0,0:0:0:0:
428,40,119786,1,0,0:0:0:0:
388,40,119903,1,0,0:0:0:0:
348,52,120020,1,2,0:0:0:0:
312,72,120137,1,0,0:0:0:0:
272,84,120255,1,0,0:0:0:0:
232,84,120372,1,0,0:0:0:0:
192,72,120489,2,0,L|164:52,7,22.5000008583069,2|0|0|0|0|0|0|0,0:0|0:0|0:0|0:0|0:0|0:0|0:0|0:0,0:0:0:0:
160,44,120958,2,0,L|68:80,1,90.0000034332277,2|0,0:0|0:0,0:0:0:0:
8,224,121427,6,0,P|72:240|192:220,1,180,6|0,0:0|0:0,0:0:0:0:
252,204,121895,2,0,P|320:204|376:224,1,120,8|0,0:0|0:0,0:0:0:0:
472,372,122364,2,0,P|488:312|472:188,1,180,2|0,0:0|0:0,0:0:0:0:
456,128,122833,2,0,P|456:64|476:8,1,120,8|0,0:0|0:0,0:0:0:0:
312,128,123302,5,0,0:0:0:0:
156,68,123536,1,8,0:0:0:0:
116,100,123653,1,0,0:0:0:0:
96,152,123770,1,8,0:0:0:0:
140,296,124005,1,0,0:0:0:0:
332,252,124239,1,2,0:0:0:0:
184,212,124473,1,0,0:0:0:0:
328,356,124708,2,0,P|384:340|428:292,1,120,8|0,0:0|0:0,0:0:0:0:
500,108,125177,6,0,P|440:92|320:100,1,180,2|0,0:0|0:0,0:0:0:0:
256,140,125645,2,0,P|192:136|136:104,1,120,8|0,0:0|0:0,0:0:0:0:
232,12,126114,2,0,P|248:76|236:204,1,180,2|0,0:0|0:0,0:0:0:0:
212,264,126583,2,0,P|220:324|248:376,1,120,8|0,0:0|0:0,0:0:0:0:
364,200,127052,5,2,0:0:0:0:
128,288,127286,1,8,0:0:0:0:
76,268,127403,1,8,0:0:0:0:
44,224,127520,1,8,0:0:0:0:
120,52,127755,1,0,0:0:0:0:
268,140,127989,2,0,L|248:264,1,120,6|0,0:0|0:0,0:0:0:0:
276,152,128458,2,0,L|256:276,1,120,6|0,0:0|0:0,0:0:0:0:
456,364,128927,6,0,P|480:304|480:184,1,180,2|0,0:0|0:0,0:0:0:0:
420,144,129395,2,0,P|360:140|300:160,1,120,8|0,0:0|0:0,0:0:0:0:
24,256,129864,2,0,P|76:288|196:296,1,180,2|0,0:0|0:0,0:0:0:0:
264,264,130333,2,0,P|276:200|268:136,1,120,8|0,0:0|0:0,0:0:0:0:
92,16,130802,5,2,0:0:0:0:
220,96,131036,1,0,0:0:0:0:
272,84,131153,1,0,0:0:0:0:
324,72,131270,2,0,L|384:56,2,60,8|0|0,0:0|0:0|0:0,0:0:0:0:
148,164,131739,1,2,0:0:0:0:
364,280,131973,1,8,0:0:0:0:
148,164,132208,2,0,L|128:296,1,120,8|0,0:0|0:0,0:0:0:0:
464,368,132677,6,0,P|484:308|472:192,1,180,2|0,0:0|0:0,0:0:0:0:
424,132,133145,2,0,P|360:120|296:132,1,120,8|0,0:0|0:0,0:0:0:0:
8,312,133614,2,0,P|72:328|192:312,1,180,2|0,0:0|0:0,0:0:0:0:
244,264,134083,2,0,P|260:200|252:140,1,120,8|0,0:0|0:0,0:0:0:0:
168,16,134552,5,0,0:0:0:0:
60,136,134786,1,8,0:0:0:0:
60,188,134903,1,8,0:0:0:0:
84,236,135020,1,8,0:0:0:0:
324,320,135255,1,0,0:0:0:0:
160,368,135489,2,0,P|156:304|172:240,1,120,6|0,0:0|0:0,0:0:0:0:
172,360,135958,2,0,P|168:296|184:232,1,120,6|0,0:0|0:0,0:0:0:0:
312,44,136427,5,2,0:0:0:0:
464,200,136661,1,0,0:0:0:0:
316,56,136895,1,8,0:0:0:0:
460,188,137130,1,0,0:0:0:0:
324,68,137364,1,0,0:0:0:0:
452,172,137598,1,0,0:0:0:0:
332,84,137833,1,8,0:0:0:0:
444,160,138067,1,0,0:0:0:0:
256,144,138302,5,2,0:0:0:0:
416,84,138536,1,8,0:0:0:0:
244,152,138770,1,0,0:0:0:0:
420,192,139005,1,8,0:0:0:0:
168,64,139239,1,0,0:0:0:0:
284,248,139473,1,8,0:0:0:0:
68,364,139708,2,0,P|36:304|32:236,1,120,8|0,0:0|0:0,0:0:0:0:
168,64,140177,6,0,P|184:128|180:244,1,180,2|0,0:0|0:0,0:0:0:0:
208,312,140645,2,0,P|264:340|324:336,1,120,8|0,0:0|0:0,0:0:0:0:
504,152,141114,2,0,P|440:140|320:156,1,180,2|0,0:0|0:0,0:0:0:0:
256,184,141583,2,0,P|192:192|136:180,1,120,8|0,0:0|0:0,0:0:0:0:
20,96,142052,5,0,0:0:0:0:
204,32,142286,1,8,0:0:0:0:
204,32,142403,1,0,0:0:0:0:
204,32,142520,1,0,0:0:0:0:
272,204,142755,1,8,0:0:0:0:
64,252,142989,1,0,0:0:0:0:
228,328,143223,1,8,0:0:0:0:
356,184,143458,1,8,0:0:0:0:
328,140,143575,1,8,0:0:0:0:
276,120,143692,2,0,L|228:120,3,30,0|0|0|0,0:0|0:0|0:0|0:0,0:0:0:0:
216,108,143927,5,2,0:0:0:0:
424,64,144161,1,0,0:0:0:0:
264,40,144395,1,8,0:0:0:0:
456,136,144630,1,0,0:0:0:0:
220,216,144864,1,2,0:0:0:0:
452,304,145098,1,0,0:0:0:0:
312,184,145333,1,8,0:0:0:0:
272,364,145567,1,0,0:0:0:0:
408,212,145802,5,2,0:0:0:0:
224,128,146036,1,8,0:0:0:0:
408,212,146270,1,0,0:0:0:0:
272,280,146505,1,8,0:0:0:0:
492,224,146739,1,0,0:0:0:0:
364,96,146973,1,8,0:0:0:0:
192,224,147208,2,0,P|180:296|200:356,1,120,8|0,0:0|0:0,0:0:0:0:
376,368,147677,6,0,P|392:304|380:184,1,180,2|0,0:0|0:0,0:0:0:0:
336,128,148145,2,0,P|276:116|212:124,1,120,8|0,0:0|0:0,0:0:0:0:
4,256,148614,2,0,P|68:272|192:264,1,180,2|0,0:0|0:0,0:0:0:0:
248,224,149083,2,0,P|260:160|256:100,1,120,8|0,0:0|0:0,0:0:0:0:
136,20,149552,5,2,0:0:0:0:
360,92,149786,1,8,0:0:0:0:
376,144,149903,1,8,0:0:0:0:
372,196,150020,1,8,0:0:0:0:
312,332,150255,1,0,0:0:0:0:
504,248,150489,2,0,P|440:268|384:268,1,120,6|0,0:0|0:0,0:0:0:0:
236,256,150958,2,0,P|172:232|132:196,1,120,6|0,0:0|0:0,0:0:0:0:
72,60,151427,5,4,0:0:0:0:
256,16,151661,2,0,L|264:88,1,60
262,75,151895,1,8,0:0:0:0:
440,176,152130,1,0,0:0:0:0:
440,176,152247,2,0,L|448:128,4,30,8|0|0|0|0,0:0|0:0|0:0|0:0|0:0,0:0:0:0:
432,228,152598,1,0,0:0:0:0:
356,344,152833,2,0,P|308:352|232:344,1,120,8|0,0:0|0:0,0:0:0:0:
192,316,153184,1,0,0:0:0:0:
164,272,153302,5,0,0:0:0:0:
168,220,153419,2,0,L|180:188,2,30,8|0|0,0:0|0:0|0:0,0:0:0:0:
116,236,153653,1,0,0:0:0:0:
64,216,153770,2,0,P|48:172|48:92,1,120,0|8,0:0|0:0,0:0:0:0:
72,52,154122,2,0,P|112:28|192:24,1,120,0|0,0:0|0:0,0:0:0:0:
232,44,154473,1,8,0:0:0:0:
432,96,154708,1,0,0:0:0:0:
248,168,154942,1,8,0:0:0:0:
388,204,155177,5,0,0:0:0:0:
388,204,155294,2,0,L|392:240,2,30,8|0|0,0:0|0:0|0:0,0:0:0:0:
440,188,155528,1,0,0:0:0:0:
488,212,155645,2,0,P|488:276|460:340,1,120
420,356,155997,1,8,0:0:0:0:
288,312,156231,1,0,0:0:0:0:
240,340,156348,2,0,L|116:340,1,120,0|8,0:0|0:0,0:0:0:0:
0,228,156817,1,0,0:0:0:0:
56,68,157052,5,0,0:0:0:0:
232,128,157286,1,8,0:0:0:0:
72,176,157520,1,8,0:0:0:0:
292,48,157755,1,8,0:0:0:0:
292,48,157872,2,0,P|324:104|324:164,1,120,0|8,0:0|0:0,0:0:0:0:
296,204,158223,1,0,0:0:0:0:
400,360,158458,1,8,0:0:0:0:
448,140,158692,1,0,0:0:0:0:
336,284,158927,5,0,0:0:0:0:
492,320,159161,2,0,L|448:272,1,60
451,275,159395,1,8,0:0:0:0:
268,360,159630,1,0,0:0:0:0:
268,360,159747,2,0,P|200:360|148:336,1,120,8|0,0:0|0:0,0:0:0:0:
116,300,160098,1,0,0:0:0:0:
276,96,160333,1,8,0:0:0:0:
324,272,160567,1,0,0:0:0:0:
176,160,160802,5,0,0:0:0:0:
360,24,161036,2,0,L|372:96,1,60
369,83,161270,1,8,0:0:0:0:
476,232,161505,1,0,0:0:0:0:
476,232,161622,2,0,P|476:300|460:352,1,120,8|0,0:0|0:0,0:0:0:0:
416,376,161973,1,0,0:0:0:0:
236,240,162208,1,8,0:0:0:0:
400,168,162442,1,8,0:0:0:0:
232,144,162677,6,0,L|104:124,1,120,0|8,0:0|0:0,0:0:0:0:
308,44,163145,1,0,0:0:0:0:
164,216,163380,1,8,0:0:0:0:
164,216,163497,2,0,L|40:192,1,120
4,228,163848,1,8,0:0:0:0:
196,48,164083,1,8,0:0:0:0:
4,228,164317,1,0,0:0:0:0:
132,360,164552,5,0,0:0:0:0:
252,252,164786,1,8,0:0:0:0:
256,200,164903,1,0,0:0:0:0:
236,152,165020,1,8,0:0:0:0:
368,20,165255,1,8,0:0:0:0:
332,60,165372,1,0,0:0:0:0:
432,176,165606,1,8,0:0:0:0:
380,184,165723,1,0,0:0:0:0:
440,344,165958,5,8,0:0:0:0:
392,324,166075,1,8,0:0:0:0:
340,316,166192,1,0,0:0:0:0:
288,320,166309,1,0,0:0:0:0:
240,348,166427,6,0,P|192:356|52:336,1,180.000006866455,2|2,0:0|0:0,0:0:0:0:
128,112,167364,1,2,0:0:0:0:
128,112,167716,1,2,0:0:0:0:
20,256,168067,1,2,0:0:0:0:
184,176,168302,5,2,0:0:0:0:
224,176,168419,1,0,0:0:0:0:
264,188,168536,1,0,0:0:0:0:
296,212,168653,1,0,0:0:0:0:
320,244,168770,1,2,0:0:0:0:
356,260,168887,1,0,0:0:0:0:
396,264,169005,1,0,0:0:0:0:
436,252,169122,1,0,0:0:0:0:
468,228,169239,2,0,L|484:192,7,22.5000008583069,2|0|0|0|0|0|0|0,0:0|0:0|0:0|0:0|0:0|0:0|0:0|0:0,0:0:0:0:
484,180,169708,2,0,L|464:60,1,112.500004291535,2|0,0:0|0:0,0:0:0:0:
240,28,170411,5,0,0:0:0:0:
240,28,172052,6,0,P|224:88|232:208,2,180,4|8|8,0:0|0:0|0:0,0:0:0:0:
416,40,172989,2,0,P|425:129|407:216,2,180,4|8|8,0:0|0:0|0:0,0:0:0:0:
244,124,173927,5,2,0:0:0:0:
280,268,174161,1,8,0:0:0:0:
320,308,174278,1,8,0:0:0:0:
372,328,174395,1,8,0:0:0:0:
512,268,174630,1,8,0:0:0:0:
392,28,174864,1,2,0:0:0:0:
340,212,175098,1,8,0:0:0:0:
508,116,175333,2,0,P|448:108|388:112,1,120,8|0,0:0|0:0,0:0:0:0:
224,136,175802,6,0,P|156:140|48:100,2,180,4|8|8,0:0|0:0|0:0,0:0:0:0:
336,16,176739,2,0,P|404:12|512:52,2,180,4|8|8,0:0|0:0|0:0,0:0:0:0:
388,180,177677,5,2,0:0:0:0:
268,300,177911,1,8,0:0:0:0:
216,284,178028,1,0,0:0:0:0:
180,244,178145,1,8,0:0:0:0:
128,92,178380,1,0,0:0:0:0:
300,12,178614,2,0,L|316:136,1,120,6|0,0:0|0:0,0:0:0:0:
312,24,179083,2,0,L|328:148,1,120,6|0,0:0|0:0,0:0:0:0:
448,356,179552,6,0,P|488:304|504:188,2,180,4|8|8,0:0|0:0|0:0,0:0:0:0:
184,280,180489,2,0,P|244:260|364:268,2,180,4|8|8,0:0|0:0|0:0,0:0:0:0:
60,368,181427,5,2,0:0:0:0:
4,224,181661,1,0,0:0:0:0:
16,172,181778,1,0,0:0:0:0:
48,128,181895,2,0,P|72:112|108:100,2,60,8|0|0,0:0|0:0|0:0,0:0:0:0:
272,144,182364,1,2,0:0:0:0:
120,16,182598,1,8,0:0:0:0:
272,144,182833,2,0,L|264:328,1,180,8|0,0:0|0:0,0:0:0:0:
308,356,183302,6,0,P|368:356|476:304,2,180,2|8|8,0:0|0:0|0:0,0:0:0:0:
168,284,184239,2,0,P|108:284|0:232,2,180,2|8|8,0:0|0:0|0:0,0:0:0:0:
344,220,185177,5,4,0:0:0:0:
292,44,185411,1,8,0:0:0:0:
240,52,185528,1,8,0:0:0:0:
196,84,185645,1,8,0:0:0:0:
128,224,185880,1,0,0:0:0:0:
380,364,186114,2,0,P|412:304|420:244,1,120,6|0,0:0|0:0,0:0:0:0:
408,104,186583,2,0,P|368:44|324:16,1,120,6|0,0:0|0:0,0:0:0:0:
68,112,187052,5,2,0:0:0:0:
296,164,187286,1,0,0:0:0:0:
84,116,187520,1,8,0:0:0:0:
284,162,187755,1,0,0:0:0:0:
96,120,187989,1,0,0:0:0:0:
271,159,188223,1,0,0:0:0:0:
108,124,188458,1,8,0:0:0:0:
258,156,188692,1,0,0:0:0:0:
56,204,188927,5,2,0:0:0:0:
184,60,189161,1,8,0:0:0:0:
48,212,189395,1,0,0:0:0:0:
176,68,189629,1,8,0:0:0:0:
116,296,189864,1,0,0:0:0:0:
8,136,190098,1,8,0:0:0:0:
248,4,190333,2,0,P|300:44|324:92,1,120,8|0,0:0|0:0,0:0:0:0:
472,152,190802,6,0,P|460:216|472:336,2,180,0|8|8,0:0|0:0|0:0,0:0:0:0:
284,188,191739,2,0,P|296:252|284:372,2,180,0|8|8,0:0|0:0|0:0,0:0:0:0:
172,44,192677,5,0,0:0:0:0:
16,128,192911,1,0,0:0:0:0:
16,128,193028,1,0,0:0:0:0:
16,128,193145,1,8,0:0:0:0:
164,224,193380,1,0,0:0:0:0:
88,40,193614,1,0,0:0:0:0:
256,160,193848,1,8,0:0:0:0:
64,264,194083,1,8,0:0:0:0:
68,316,194200,1,8,0:0:0:0:
104,356,194317,2,0,L|152:368,3,30,0|0|0|0,0:0|0:0|0:0|0:0,0:0:0:0:
164,352,194552,5,2,0:0:0:0:
380,260,194786,1,0,0:0:0:0:
224,288,195020,1,8,0:0:0:0:
448,312,195255,1,0,0:0:0:0:
200,204,195489,1,2,0:0:0:0:
372,344,195723,1,0,0:0:0:0:
256,128,195958,1,8,0:0:0:0:
304,296,196192,1,0,0:0:0:0:
116,208,196427,5,2,0:0:0:0:
368,224,196661,1,8,0:0:0:0:
216,56,196895,1,0,0:0:0:0:
176,292,197130,1,8,0:0:0:0:
292,192,197364,1,0,0:0:0:0:
120,120,197598,1,8,0:0:0:0:
292,192,197833,2,0,L|304:64,1,120,8|0,0:0|0:0,0:0:0:0:
464,4,198302,6,0,P|492:64|496:180,2,180,0|8|8,0:0|0:0|0:0,0:0:0:0:
288,124,199239,2,0,P|287:213|320:296,2,180,0|8|8,0:0|0:0|0:0,0:0:0:0:
448,280,200177,5,0,0:0:0:0:
252,364,200411,1,8,0:0:0:0:
200,356,200528,1,8,0:0:0:0:
156,328,200645,1,8,0:0:0:0:
64,128,200880,1,0,0:0:0:0:
4,252,201114,2,0,P|68:260|124:252,1,120,6|0,0:0|0:0,0:0:0:0:
272,176,201583,2,0,P|308:124|324:60,1,120,6|0,0:0|0:0,0:0:0:0:
200,76,202052,6,0,L|363:90,1,153.000002918243,4|0,0:0|0:0,0:0:0:0:
400,92,202520,1,8,0:0:0:0:
492,264,202989,2,0,L|329:278,1,153.000002918243,4|0,0:0|0:0,0:0:0:0:
292,280,203457,1,8,0:0:0:0:
88,368,203927,6,0,P|56:312|44:220,1,153.000002918243,4|0,0:0|0:0,0:0:0:0:
60,184,204395,1,8,0:0:0:0:
184,20,204864,2,0,P|216:76|228:168,1,153.000002918243,4|0,0:0|0:0,0:0:0:0:
212,204,205332,1,8,0:0:0:0:
156,328,205567,6,0,L|192:372,1,51.0000009727478,4|4,0:0|0:0,0:0:0:0:
