osu file format v12

[General]
AudioFilename: Aishiteru Bonzai.mp3
AudioLeadIn: 0
PreviewTime: 74716
Countdown: 0
SampleSet: Soft
StackLeniency: 0.7
Mode: 0
LetterboxInBreaks: 1
WidescreenStoryboard: 0

[Editor]
DistanceSpacing: 1
BeatDivisor: 4
GridSize: 8

[Metadata]
Title:Aishiteru Banzai! (Prepro Piano Mix)
TitleUnicode:愛してるばんざーい!(Prepro Piano Mix)
Artist:Pile
ArtistUnicode:Pile
Creator:blissfulyoshi
Version:Normal
Source:Love Live! School idol project
Tags:Maki Nishikino
BeatmapID:317950
BeatmapSetID:124806

[Difficulty]
HPDrainRate:3
CircleSize:3
OverallDifficulty:3
ApproachRate:3
SliderMultiplier:1.7
SliderTickRate:4

[Events]
//Background and Video events
0,0,"34826263.jpg",0,0
Video,56950,"piano.avi"
//Break Periods
//Storyboard Layer 0 (Background)
//Storyboard Layer 1 (Fail)
//Storyboard Layer 2 (Pass)
//Storyboard Layer 3 (Foreground)
//Storyboard Sound Samples
//Background Colour Transformations
3,100,163,162,255

[TimingPoints]
708,666.666666666667,4,2,1,30,1,0
42541,-100,4,2,1,20,0,0
42874,-100,4,2,1,30,0,0
75374,-100,4,2,1,30,0,0
96708,-100,4,2,1,30,0,0
107374,-100,4,2,1,10,0,0

[Colours]
Combo1 : 255,244,244
Combo2 : 250,88,88
Combo3 : 249,128,245

[HitObjects]
128,80,708,2,0,P|90:152|128:224,1,170,2|0,0:0|0:0,0:0:0:0:
272,320,2041,2,0,P|310:248|272:176,1,170,2|0,0:0|0:0,0:0:0:0:
128,80,3374,6,0,P|204:49|299:81,1,170,2|0,0:0|0:0,0:0:0:0:
432,160,4708,2,0,P|472:192|528:192,2,85,2|0|0,0:0|0:0|0:0,0:0:0:0:
264,152,6041,5,2,0:0:0:0:
152,272,6708,2,0,P|112:304|88:352,1,85
16,304,7374,2,0,P|76:218|150:183,1,170,2|0,0:0|0:0,0:0:0:0:
296,144,8708,6,0,P|352:152|376:200,1,85,2|0,0:0|0:0,0:0:0:0:
368,256,9374,2,0,B|310:332|217:310|217:310|160:386|67:365,1,340,0|2,0:0|0:0,0:0:0:0:
0,184,11374,6,0,B|88:199|207:174|237:91|156:11|42:20|12:103|88:199|165:244,1,510,2|0,0:0|0:0,0:0:0:0:
224,184,13708,1,0,0:0:0:0:
248,104,14041,6,0,B|235:-4|106:-17,2,170,2|0|2,0:0|0:0|0:0,0:0:0:0:
224,184,15708,1,2,0:0:0:0:
264,256,16041,1,2,0:0:0:0:
424,304,16708,5,2,0:0:0:0:
488,144,17374,1,0,0:0:0:0:
328,80,18041,2,0,P|204:91|160:63,1,170,2|0,0:0|0:0,0:0:0:0:
104,128,19041,6,0,B|197:196|266:203|304:160|384:159|440:224,1,340,2|0,0:0|0:0,0:0:0:0:
448,288,20708,1,2,0:0:0:0:
336,344,21208,6,0,P|256:360|144:296,1,212.5,0|2,0:0|0:0,0:0:0:0:
64,152,22708,1,2,0:0:0:0:
208,64,23374,1,2,0:0:0:0:
312,208,24041,1,2,0:0:0:0:
176,312,24708,5,2,0:0:0:0:
344,344,25374,2,0,L|448:344,1,85,2|0,0:0|0:0,0:0:0:0:
480,272,26041,2,0,L|440:168,1,85,2|0,0:0|0:0,0:0:0:0:
384,136,26708,2,0,L|288:136,1,85,2|0,0:0|0:0,0:0:0:0:
216,136,27374,6,0,P|176:120|160:72,1,85,2|0,0:0|0:0,0:0:0:0:
74,83,28041,2,0,P|57:119|17:135,1,85,2|0,0:0|0:0,0:0:0:0:
17,220,28708,2,0,P|57:236|73:272,1,85,2|0,0:0|0:0,0:0:0:0:
158,272,29374,2,0,P|174:235|214:219,2,85,2|0|4,0:0|0:0|0:0,0:0:0:0:
264,72,32041,5,2,0:0:0:0:
432,72,32708,1,2,0:0:0:0:
480,144,33041,2,0,P|374:136|346:73,1,170
264,72,34041,2,0,L|152:72,1,85,2|0,0:0|0:0,0:0:0:0:
96,72,34708,1,8,0:0:0:0:
48,232,35374,5,2,0:0:0:0:
136,240,35708,2,0,P|192:272|208:304,2,85,0|8|0,0:0|0:0|0:0,0:0:0:0:
96,160,36708,2,0,P|195:174|275:247,1,170,2|8,0:0|0:0,0:0:0:0:
392,336,38041,5,2,0:0:0:0:
440,264,38374,2,0,P|464:256|480:240,2,42.5,0|0|8,0:0|0:0|0:0,0:0:0:0:
392,192,39041,2,0,P|414:154|416:80,2,85,0|2|0,0:0|0:0|0:0,0:0:0:0:
336,256,40041,1,8,0:0:0:0:
304,336,40374,6,0,P|240:312|224:288,1,85,0|2,0:0|0:0,0:0:0:0:
176,232,41041,2,0,P|160:208|152:128,2,85,0|8|0,0:0|0:0|0:0,0:0:0:0:
104,272,42041,2,0,P|79:226|67:147,1,127.5,2|0,0:0|0:0,0:0:0:0:
64,64,42874,6,0,L|112:48,1,42.5
192,40,43374,6,0,P|216:120|328:152,1,170,2|8,0:0|0:0,0:0:0:0:
349,96,44374,1,0,0:0:0:0:
376,176,44708,2,0,P|451:212|475:295,1,170,2|8,0:0|0:0,0:0:0:0:
377,277,45708,5,2,0:0:0:0:
304,320,46041,2,0,P|208:352|128:336,2,170,2|8|2,0:0|0:0|0:0,0:0:0:0:
400,176,48041,1,8,0:0:0:0:
224,200,48708,6,0,P|136:184|78:126,1,170,2|8,0:0|0:0,0:0:0:0:
144,72,49708,2,0,P|174:107|240:113,1,85,0|2,0:0|0:0,0:0:0:0:
288,80,50374,2,0,P|258:45|192:39,2,85,0|8|0,0:0|0:0|0:0,0:0:0:0:
336,160,51374,6,0,B|344:136|360:104|400:128|412:140|430:154|444:265|372:236|368:300|368:300|324:254|287:322|226:228|224:200|232:176|264:136|297:155|312:176,1,510,4|2,0:0|0:0,0:0:0:0:
200,304,54041,5,4,0:0:0:0:
120,272,54374,1,0,0:0:0:0:
56,216,54708,2,0,P|19:161|55:72,1,170
104,144,55708,2,0,P|192:176|264:120,1,170
304,72,56708,2,0,P|424:56|472:176,1,255,2|0,0:0|0:0,0:0:0:0:
448,328,58374,6,0,P|368:352|288:328,1,170
216,280,59374,1,2,0:0:0:0:
72,192,60041,1,0,0:0:0:0:
216,104,60708,1,0,0:0:0:0:
288,56,61041,5,0,0:0:0:0:
288,144,61374,2,0,P|247:182|208:184,1,85
136,192,62041,2,0,P|157:242|191:265,1,85
256,304,62708,2,0,P|352:276|424:136,1,255
424,64,64041,6,0,P|456:24|512:8,2,85,0|0|2,0:0|0:0|0:0,0:0:0:0:
424,149,65041,2,0,L|512:197,1,85
488,277,65708,2,0,L|384:221,1,85
272,136,66708,6,0,P|201:164|182:255,1,170,0|2,0:0|0:0,0:0:0:0:
264,224,67708,2,0,P|320:248|336:280,1,85
328,352,68374,2,0,P|272:328|256:296,1,85
264,224,69041,2,0,P|280:128|320:64,1,170
400,48,70041,5,2,0:0:0:0:
480,72,70374,1,2,0:0:0:0:
416,128,70708,5,2,0:0:0:0:
488,176,71041,1,2,0:0:0:0:
408,208,71374,5,2,0:0:0:0:
456,280,71708,1,2,0:0:0:0:
368,280,72041,5,2,0:0:0:0:
384,360,72374,1,2,0:0:0:0:
304,336,72708,5,4,0:0:0:0:
78,172,74374,5,0,0:0:0:0:
78,172,74541,1,0,0:0:0:0:
78,172,74708,2,0,P|98:136|132:112,1,85
206,69,75374,6,0,P|294:85|382:29,1,170,2|8,0:0|0:0,0:0:0:0:
398,221,76708,2,0,P|310:205|222:261,1,170,2|8,0:0|0:0,0:0:0:0:
110,349,78041,2,0,P|62:365|-2:357,2,85,2|0|8,0:0|0:0|0:0,0:0:0:0:
240,240,79374,2,0,P|264:168|248:56,1,170,2|8,0:0|0:0,0:0:0:0:
336,56,80374,6,0,P|361:100|413:123,2,85,0|2|0,0:0|0:0|0:0,0:0:0:0:
416,40,81374,1,8,0:0:0:0:
472,104,81708,2,0,B|476:186|408:209|376:200|376:200|360:248|304:264,1,255,0|8,0:0|0:0,0:0:0:0:
232,296,83041,1,0,0:0:0:0:
160,256,83374,2,0,B|80:232|32:176|-16:80|81:122|81:122|176:80|128:176|80:232|0:256,1,510,2|4,0:0|0:0,0:0:0:0:
224,160,86041,6,0,B|272:72|200:0|142:22,1,170,2|8,0:0|0:0,0:0:0:0:
64,144,87374,2,0,B|16:232|88:304|146:282,1,170,2|8,0:0|0:0,0:0:0:0:
280,304,88708,2,0,P|312:304|376:280,2,85,2|0|8,0:0|0:0|0:0,0:0:0:0:
216,248,89708,1,0,0:0:0:0:
152,192,90041,2,0,P|232:164|296:224,1,170,2|8,0:0|0:0,0:0:0:0:
408,336,91374,6,0,P|456:272|456:232,1,85,2|0,0:0|0:0,0:0:0:0:
464,184,92041,2,0,P|440:120|400:96,1,85,8|0,0:0|0:0,0:0:0:0:
352,80,92708,2,0,B|280:88|272:64|264:40|184:48,1,170,2|8,0:0|0:0,0:0:0:0:
104,64,93708,1,0,0:0:0:0:
112,152,94041,2,0,B|228:136|236:168|244:200|360:184,1,255,2|0,0:0|0:0,0:0:0:0:
440,176,95374,5,4,0:0:0:0:
440,176,95541,1,4,0:0:0:0:
124,148,96708,6,0,B|204:105|277:80|301:115|331:189|302:264|203:296|178:264|135:300|135:300|116:248|79:263|9:186|22:106|85:57|123:38|173:97|224:176,1,850,2|0,0:0|0:0,0:0:0:0:
296,336,100708,6,0,P|328:288|392:272,1,85,2|0,0:0|0:0,0:0:0:0:
424,232,101374,2,0,P|440:168|400:136,1,85,2|0,0:0|0:0,0:0:0:0:
376,88,102041,2,0,P|312:104|280:144,1,85,2|0,0:0|0:0,0:0:0:0:
214,115,102708,2,0,P|178:92|136:88,1,85,2|0,0:0|0:0,0:0:0:0:
80,155,103374,2,0,P|68:195|88:232,1,85,2|0,0:0|0:0,0:0:0:0:
160,280,104041,1,2,0:0:0:0:
232,320,104374,6,0,B|240:344|240:344|240:368,2,42.5,0|0|4,0:0|0:0|0:0,0:0:0:0:
256,192,104874,12,0,107374,0:0:0:0:
