osu file format v12

[General]
AudioFilename: Aishiteru Bonzai.mp3
AudioLeadIn: 0
PreviewTime: 74716
Countdown: 0
SampleSet: Soft
StackLeniency: 0.5
Mode: 0
LetterboxInBreaks: 1
WidescreenStoryboard: 1

[Editor]
DistanceSpacing: 1
BeatDivisor: 4
GridSize: 4

[Metadata]
Title:Aishiteru Banzai! (Prepro Piano Mix)
TitleUnicode:愛してるばんざーい!(Prepro Piano Mix)
Artist:Pile
ArtistUnicode:Pile
Creator:blissfulyoshi
Version:Hard
Source:Love Live! School idol project
Tags:Maki Nishikino
BeatmapID:317949
BeatmapSetID:124806

[Difficulty]
HPDrainRate:5
CircleSize:4
OverallDifficulty:6
ApproachRate:7
SliderMultiplier:3.29999990463257
SliderTickRate:4

[Events]
//Background and Video events
0,0,"34826263.jpg",0,0
Video,56950,"piano.avi"
//Break Periods
//Storyboard Layer 0 (Background)
//Storyboard Layer 1 (Fail)
//Storyboard Layer 2 (Pass)
//Storyboard Layer 3 (Foreground)
//Storyboard Sound Samples
//Background Colour Transformations
3,100,163,162,255

[TimingPoints]
708,666.666666666667,4,2,1,30,1,0
42541,-100,4,2,1,20,0,0
42874,-100,4,2,1,30,0,0
54041,-111.111111111111,4,2,1,30,0,0
75374,-83.3333333333333,4,2,1,30,0,0
96708,-86.9565217391304,4,2,1,30,0,0
107374,-86.9565217391304,4,2,1,10,0,0

[Colours]
Combo1 : 255,244,244
Combo2 : 250,88,88
Combo3 : 249,128,245

[HitObjects]
328,280,708,6,0,P|368:304|376:352,1,82.4999976158143,2|0,0:0|0:0,0:0:0:0:
456,360,1041,2,0,P|442:272|378:214,1,164.999995231629
312,192,1541,2,0,P|272:199|232:192,1,82.4999976158143
152,152,1874,2,0,B|16:48|16:16|96:-35|176:16|176:48|40:152,1,412.499988079071,2|0,0:0|0:0,0:0:0:0:
16,344,3041,6,0,P|56:344|104:336,1,82.4999976158143
184,312,3374,2,0,P|256:280|312:200,1,164.999995231629,2|2,0:0|0:0,0:0:0:0:
232,168,3874,2,0,P|194:219|168:228,1,82.4999976158143,0|0,0:0|0:0,0:0:0:0:
152,144,4208,2,0,P|96:120|80:88,1,82.4999976158143
160,56,4541,2,0,P|272:24|384:104,1,247.499992847443,2|2,0:0|0:0,0:0:0:0:
456,256,5374,1,4,0:0:0:0:
336,352,5708,5,0,0:0:0:0:
256,320,5874,1,0,0:0:0:0:
176,288,6041,2,0,L|80:240,1,82.4999976158143,2|0,0:0|0:0,0:0:0:0:
112,168,6374,2,0,L|208:216,1,82.4999976158143,0|0,0:0|0:0,0:0:0:0:
248,144,6708,2,0,L|152:96,1,82.4999976158143,2|0,0:0|0:0,0:0:0:0:
208,32,7041,1,0,0:0:0:0:
288,72,7208,2,0,L|328:0,2,82.4999976158143,0|2|0,0:0|0:0|0:0,0:0:0:0:
368,120,7708,2,0,B|440:160|440:160|368:200|368:200,1,164.999995231629
260,364,8374,6,0,P|298:377|336:364,1,82.4999976158143
376,280,8708,2,0,P|338:267|300:280,1,82.4999976158143,2|0,0:0|0:0,0:0:0:0:
252,204,9041,2,0,P|265:166|252:128,1,82.4999976158143,0|0,0:0|0:0,0:0:0:0:
164,88,9374,2,0,P|151:126|164:164,1,82.4999976158143
96,244,9708,2,0,B|88:220|72:188|32:212|20:224|2:238|-12:349|60:320|66:379|66:379|108:338|146:405|206:312|208:284|200:248|168:220|136:248|120:260,1,494.999985694885,0|4,0:0|0:0,0:0:0:0:
376,176,11374,6,0,L|312:108,1,82.4999976158143,2|0,0:0|0:0,0:0:0:0:
256,48,11708,1,0,0:0:0:0:
192,115,11874,2,0,L|136:176,1,82.4999976158143,0|2,0:0|0:0,0:0:0:0:
180,248,12208,2,0,B|208:276|256:248|256:248|304:276|332:248,1,164.999995231629
376,176,12708,1,2,0:0:0:0:
312,32,13041,1,2,0:0:0:0:
232,176,13374,1,2,0:0:0:0:
168,24,13708,6,0,P|84:27|14:68,2,164.999995231629,0|2|0,0:0|0:0|0:0,0:0:0:0:
143,105,14541,2,0,P|103:106|70:130,1,82.4999976158143,0|2,0:0|0:0,0:0:0:0:
24,216,14874,2,0,P|32:256|72:296,1,82.4999976158143
152,296,15208,2,0,B|104:320|152:360|232:344|216:320|216:280|216:160|216:160|256:200|272:176|312:216|296:272,1,412.499988079071,0|2,0:0|0:0,0:0:0:0:
488,336,16374,5,0,0:0:0:0:
432,264,16541,1,0,0:0:0:0:
472,168,16708,2,0,P|440:48|320:72,1,247.499992847443,2|0,0:0|0:0,0:0:0:0:
272,120,17374,2,0,P|160:144|120:112,1,164.999995231629,2|0,0:0|0:0,0:0:0:0:
200,64,17874,2,0,P|153:33|88:40,1,82.4999976158143,0|2,0:0|0:0,0:0:0:0:
48,72,18208,2,0,P|-8:192|64:288,1,247.499992847443,0|2,0:0|0:0,0:0:0:0:
192,360,19041,5,0,0:0:0:0:
248,304,19208,2,0,B|300:268|348:196|388:260|412:116|356:104|308:128|300:136|300:136|292:128|244:104|188:116|212:260|252:196|300:268|352:304,1,577.4999833107
496,232,20708,5,4,0:0:0:0:
512,152,20874,1,4,0:0:0:0:
408,24,21208,2,0,P|256:80|104:24,1,329.999990463257
80,104,22041,6,0,B|8:256|120:376|160:360|224:360|296:288|400:344|440:112|304:120|264:160|256:181|256:181|248:160|208:120|72:112|112:344|216:288|288:360|352:360|392:376|504:256|432:104,1,1319.99996185303,0|2,0:0|0:0,0:0:0:0:
80,104,25374,6,0,P|144:32|248:32,1,164.999995231629,2|0,0:0|0:0,0:0:0:0:
432,104,26041,2,0,P|368:32|264:32,1,164.999995231629,2|0,0:0|0:0,0:0:0:0:
184,192,26708,2,0,P|256:226|328:192,1,164.999995231629,2|0,0:0|0:0,0:0:0:0:
312,368,27374,6,0,L|464:256,1,164.999995231629,2|0,0:0|0:0,0:0:0:0:
200,368,28041,2,0,L|48:256,1,164.999995231629,2|0,0:0|0:0,0:0:0:0:
184,192,28708,2,0,P|256:158|328:192,1,164.999995231629,2|0,0:0|0:0,0:0:0:0:
256,64,29374,1,2,0:0:0:0:
256,248,29708,2,0,L|256:328,3,54.9999984105428,2|2|2|4,0:0|0:0|0:0|0:0,0:0:0:0:
8,216,32041,6,0,B|72:192|92:216|112:240|168:216,1,164.999995231629,2|0,0:0|0:0,0:0:0:0:
288,80,32708,6,0,P|352:36|416:80,1,164.999995231629,2|0,0:0|0:0,0:0:0:0:
472,248,33374,2,0,P|424:336|272:328,1,247.499992847443,8|0,0:0|0:0,0:0:0:0:
351,241,34041,2,0,P|279:149|168:184,1,247.499992847443,2|0,0:0|0:0,0:0:0:0:
248,248,34708,2,0,P|187:287|128:280,1,82.4999976158143,8|0,0:0|0:0,0:0:0:0:
56,275,35041,6,0,P|81:213|183:187,1,164.999995231629,0|2,0:0|0:0,0:0:0:0:
336,168,35708,2,0,P|376:160|400:112,1,82.4999976158143
408,48,36041,2,0,P|447:60|476:106,1,82.4999976158143
472,176,36374,2,0,P|439:223|387:244,1,82.4999976158143
336,256,36708,1,2,0:0:0:0:
176,344,37041,1,0,0:0:0:0:
224,168,37374,1,8,0:0:0:0:
56,24,38041,6,0,P|40:64|-8:96,1,82.4999976158143,2|0,0:0|0:0,0:0:0:0:
96,112,38374,2,0,P|112:152|160:184,1,82.4999976158143
56,200,38708,2,0,P|40:240|-8:272,1,82.4999976158143,8|0,0:0|0:0,0:0:0:0:
96,288,39041,2,0,P|112:328|160:360,1,82.4999976158143
184,272,39374,2,0,B|272:120|272:120|208:144|160:112|160:80|176:64|208:80|192:96,1,329.999990463257,2|8,0:0|0:0,0:0:0:0:
360,160,40374,6,0,L|288:280,1,82.4999976158143
368,312,40708,2,0,B|408:242|408:242|480:192,1,164.999995231629,2|0,0:0|0:0,0:0:0:0:
440,112,41208,2,0,L|368:64,1,82.4999976158143,0|8,0:0|0:0,0:0:0:0:
288,32,41541,2,0,L|216:152,1,82.4999976158143
104,280,42041,6,0,B|92:229|28:221|-3:165|84:85|116:149|116:149|164:85|236:181|156:229,1,412.499988079071,2|4,0:0|0:0,0:0:0:0:
360,152,43374,5,2,0:0:0:0:
440,296,43708,2,0,P|514:223|500:65,1,247.499992847443,0|0,0:0|0:0,0:0:0:0:
456,144,44374,2,0,P|440:204|415:225,1,82.4999976158143
360,272,44708,1,2,0:0:0:0:
288,304,44874,2,0,P|200:328|80:224,1,247.499992847443,0|8,0:0|0:0,0:0:0:0:
72,72,45708,6,0,P|168:96|216:152,1,164.999995231629,0|2,0:0|0:0,0:0:0:0:
288,304,46374,1,0,0:0:0:0:
360,344,46541,2,0,P|400:360|472:352,1,82.4999976158143,0|2,0:0|0:0,0:0:0:0:
512,264,46874,2,0,P|472:248|400:256,1,82.4999976158143
208,328,47374,6,0,P|88:289|208:248,1,329.999990463257,2|8,0:0|0:0,0:0:0:0:
448,304,48374,5,0,0:0:0:0:
496,232,48541,1,0,0:0:0:0:
496,152,48708,2,0,B|528:112|448:56|392:129|392:129|336:56|256:112|288:152,1,329.999990463257,2|2,0:0|0:0,0:0:0:0:
384,344,49708,2,0,P|352:272|400:192,1,164.999995231629,0|2,0:0|0:0,0:0:0:0:
392,16,50374,6,0,P|296:8|209:80,1,164.999995231629,0|8,0:0|0:0,0:0:0:0:
128,160,51041,2,0,P|112:200|120:248,1,82.4999976158143
176,328,51374,2,0,B|304:280|320:192|264:112|96:192|192:280|288:344|304:344|304:344|320:344|416:280|512:192|344:112|288:192|304:280|432:328,1,824.999976158143,4|0,0:0|0:0,0:0:0:0:
248,32,54041,5,4,0:0:0:0:
160,152,54374,1,0,0:0:0:0:
248,272,54708,2,0,P|320:304|408:280,2,148.499991176606,2|0|2,0:0|0:0|0:0,0:0:0:0:
272,128,55708,5,0,0:0:0:0:
400,56,56041,1,2,0:0:0:0:
488,176,56374,1,0,0:0:0:0:
352,240,56708,2,0,P|296:320|224:352,1,148.499991176606,2|0,0:0|0:0,0:0:0:0:
112,296,57374,2,0,P|168:216|240:184,1,148.499991176606,2|0,0:0|0:0,0:0:0:0:
464,144,58374,5,0,0:0:0:0:
376,312,58708,1,0,0:0:0:0:
300,188,59041,2,0,B|240:120|168:80|104:168|128:232|192:296|224:272|256:318|256:318|288:272|320:296|384:232|408:168|344:80|272:120|212:188,1,742.499955883028,2|0,0:0|0:0,0:0:0:0:
120,312,61041,5,0,0:0:0:0:
32,192,61374,1,2,0:0:0:0:
120,72,61708,1,0,0:0:0:0:
264,32,62041,2,0,P|352:32|439:81,1,148.499991176606,2|0,0:0|0:0,0:0:0:0:
472,192,62708,2,0,B|368:104|328:88|296:96|240:104|184:152,1,296.999982353211,0|0,0:0|0:0,0:0:0:0:
400,16,64041,6,0,B|400:152|387:193|360:212|318:250|245:262,1,296.999982353211,0|2,0:0|0:0,0:0:0:0:
128,256,65041,2,0,P|40:208|16:136,1,148.499991176606,0|2,0:0|0:0,0:0:0:0:
120,56,65708,2,0,P|208:104|232:176,1,148.499991176606,0|2,0:0|0:0,0:0:0:0:
288,360,66708,6,0,B|373:307|360:235|346:162|432:110,1,296.999982353211,0|2,0:0|0:0,0:0:0:0:
312,24,67708,1,0,0:0:0:0:
312,96,67874,2,0,P|272:168|200:184,1,148.499991176606
144,224,68374,2,0,B|192:296|272:256|344:224|432:304,1,296.999982353211
504,168,69374,5,0,0:0:0:0:
408,56,69708,1,0,0:0:0:0:
264,40,70041,5,2,0:0:0:0:
88,40,70374,1,2,0:0:0:0:
264,112,70708,1,2,0:0:0:0:
56,112,71041,1,2,0:0:0:0:
264,184,71374,1,2,0:0:0:0:
24,184,71708,1,2,0:0:0:0:
264,256,72041,1,2,0:0:0:0:
0,256,72374,1,2,0:0:0:0:
264,328,72708,5,4,0:0:0:0:
140,336,74374,5,4,0:0:0:0:
140,336,74541,1,4,0:0:0:0:
140,336,74708,2,0,P|224:328|292:272,1,148.499991176606
396,160,75374,6,0,P|276:32|60:40,1,395.999976470948,2|8,0:0|0:0,0:0:0:0:
204,192,76374,1,0,0:0:0:0:
4,224,76708,2,0,P|124:352|340:344,1,395.999976470948,2|8,0:0|0:0,0:0:0:0:
432,176,77708,6,0,P|448:136|456:72,2,98.999994117737,0|0|2,0:0|0:0|0:0,0:0:0:0:
272,292,78374,2,0,P|182:294|95:235,1,197.999988235474,0|8,0:0|0:0,0:0:0:0:
120,140,78874,2,0,P|140:180|184:216,1,98.999994117737
376,260,79374,2,0,B|384:212|451:201|480:148|400:76|360:124|360:124|312:76|248:164|323:209,1,395.999976470948,2|8,0:0|0:0,0:0:0:0:
436,48,80374,6,0,P|498:106|468:248,2,197.999988235474
236,40,81374,2,0,P|180:56|140:120,1,98.999994117737,8|0,0:0|0:0,0:0:0:0:
112,176,81708,2,0,B|120:160|112:128|64:128|8:160|0:208|64:320|120:288|144:328|144:328|168:288|224:320|288:208|280:160|224:128|176:128|168:160|176:176,1,593.999964706422,0|8,0:0|0:0,0:0:0:0:
232,360,83041,6,0,L|336:360,1,98.999994117737
504,360,83374,2,0,L|376:360,1,98.999994117737,2|0,0:0|0:0,0:0:0:0:
296,288,83708,2,0,L|408:288,1,98.999994117737
504,216,84041,2,0,B|408:216|408:216|384:176|456:200|496:152|512:32|456:0|392:32|368:56|368:56|344:32|280:0|224:32|240:152|280:200|352:176|328:216|328:216|232:216,1,791.999952941896,8|4,0:0|0:0,0:0:0:0:
152,288,86041,6,0,B|72:240|-8:200|-40:24|96:0|152:24|184:104,1,395.999976470948,2|8,0:0|0:0,0:0:0:0:
192,216,87041,1,0,0:0:0:0:
224,56,87374,2,0,B|239:38|289:6|404:30|385:198|305:238|224:288,1,395.999976470948,2|8,0:0|0:0,0:0:0:0:
72,360,88374,6,0,P|46:328|44:272,1,98.999994117737
96,200,88708,2,0,P|56:92|24:200,1,296.999982353211,2|0,0:0|0:0,0:0:0:0:
112,296,89374,2,0,P|197:215|160:40,1,296.999982353211,8|0,0:0|0:0,0:0:0:0:
272,40,90041,2,0,B|320:142|284:246|284:246|368:176|496:208,1,395.999976470948,2|8,0:0|0:0,0:0:0:0:
288,360,91041,6,0,P|232:352|200:312,1,98.999994117737
200,224,91374,2,0,B|200:144|152:120|152:120|200:88|200:56,1,197.999988235474,2|0,0:0|0:0,0:0:0:0:
16,136,92041,2,0,B|16:216|64:240|64:240|16:272|16:304,1,197.999988235474,8|0,0:0|0:0,0:0:0:0:
208,376,92708,2,0,B|170:327|180:241|224:192|224:192|180:143|170:57|208:8,1,395.999976470948,2|8,0:0|0:0,0:0:0:0:
400,144,93708,6,0,B|440:120|456:16|368:16|344:40|344:40|320:8|216:8|216:128|264:176|320:144|344:192|368:240|424:208|472:256|472:376|368:376|344:344|344:344|320:368|232:368|248:264|288:240,1,890.999947059633
192,192,95374,5,4,0:0:0:0:
192,192,95541,1,4,0:0:0:0:
16,360,96708,6,0,B|144:208|208:192|256:208|264:0|200:16|144:16|120:56|120:56|96:16|40:16|-24:8|-40:208|32:192|96:208|256:370|256:370|416:208|480:192|552:208|536:8|472:16|416:16|392:56|392:56|368:16|312:16|248:0|256:208|304:192|368:208|496:360,1,2087.24997949123,2|0,0:0|0:0,0:0:0:0:
256,240,100708,6,0,L|400:376,1,189.749998135567,2|0,0:0|0:0,0:0:0:0:
256,240,101374,2,0,L|112:376,1,189.749998135567,2|0,0:0|0:0,0:0:0:0:
368,250,102041,6,0,B|448:172|403:53,1,189.749998135567,2|0,0:0|0:0,0:0:0:0:
256,80,102708,2,0,P|320:32|416:88,1,189.749998135567,2|0,0:0|0:0,0:0:0:0:
256,80,103374,2,0,P|192:32|96:88,1,189.749998135567,2|0,0:0|0:0,0:0:0:0:
144,248,104041,1,2,0:0:0:0:
256,368,104374,2,0,L|256:296,3,63.2499993785223,2|2|2|4,0:0|0:0|0:0|0:0,0:0:0:0:
256,192,104874,12,0,107374,0:0:0:0:
