osu file format v14

[General]
AudioFilename: (11).mp3
AudioLeadIn: 0
PreviewTime: 74700
Countdown: 0
SampleSet: Soft
StackLeniency: 0.7
Mode: 3
LetterboxInBreaks: 0
SpecialStyle: 0
WidescreenStoryboard: 0

[Editor]
DistanceSpacing: 0.9
BeatDivisor: 4
GridSize: 8
TimelineZoom: 1.4

[Metadata]
Title:Aishiteru Banzai! (Prepro Piano Mix)
TitleUnicode:愛してるばんざーい! (Prepro Piano Mix)
Artist:Pile
ArtistUnicode:Pile
Creator:Julie
Version:Hard
Source:Love Live! School idol project
Tags:KawaEE Kawa 西木野 真姫 Maki Nishikino 愛してるばんざーい! μ's festival piano Solo ラブライブ! Valentine
BeatmapID:548049
BeatmapSetID:198160

[Difficulty]
HPDrainRate:8
CircleSize:7
OverallDifficulty:8
ApproachRate:5
SliderMultiplier:1.4
SliderTickRate:1

[Events]
//Background and Video events
0,0,"BG.png",0,0
//Break Periods
//Storyboard Layer 0 (Background)
//Storyboard Layer 1 (Fail)
//Storyboard Layer 2 (Pass)
//Storyboard Layer 3 (Foreground)
//Storyboard Sound Samples

[TimingPoints]
700,666.666666666667,4,2,0,10,1,0
75366,-100,4,2,0,10,0,1
95700,-100,4,2,0,10,0,0

[HitObjects]
475,192,700,128,0,1700:0:0:0:70:G_6S_Ab6S.wav
402,192,700,128,0,1700:0:0:0:70:E6S.wav
109,192,700,128,0,1700:0:0:0:70:E4S.wav
182,192,700,128,0,1700:0:0:0:70:B5S.wav
109,192,2033,128,0,3033:0:0:0:70:B5S.wav
329,192,2033,128,0,3033:0:0:0:70:D_6S_Eb6S.wav
402,192,2033,128,0,3033:0:0:0:70:F_6S_Gb6S.wav
36,192,2033,128,0,3033:0:0:0:70:B4S.wav
475,192,3366,128,0,3700:0:0:0:70:D_6S_Eb6S.wav
329,192,3366,128,0,3700:0:0:0:70:B5S.wav
36,192,3366,128,0,4366:0:0:0:70:G_4S_Ab4S.wav
109,192,3700,1,0,0:0:0:70:D_5S_Eb5S_s.wav
256,192,4033,1,0,0:0:0:70:G_5S_Ab5S_s.wav
402,192,4366,1,0,0:0:0:70:B5S_s.wav
256,192,4700,1,0,0:0:0:70:C_6S_Db6S_s.wav
475,192,4700,1,0,0:0:0:70:E6S_s.wav
109,192,4700,128,0,5033:0:0:0:70:C_5S_Db5S.wav
329,192,5033,1,0,0:0:0:70:G_5S_Ab5S_s.wav
36,192,5366,128,0,5700:0:0:0:70:B4S.wav
329,192,5366,128,0,5700:0:0:0:70:B5S.wav
475,192,5366,128,0,5700:0:0:0:70:D_6S_Eb6S.wav
182,192,5366,128,0,5700:0:0:0:70:G_5S_Ab5S.wav
36,192,6033,128,0,7033:0:0:0:70:A4S.wav
475,192,6033,128,0,7033:0:0:0:70:E6S.wav
402,192,6033,128,0,7033:0:0:0:70:C_6S_Db6S.wav
182,192,6366,1,0,0:0:0:70:E5S_s.wav
329,192,6700,128,0,7033:0:0:0:70:A5S.wav
329,192,7366,128,0,8366:0:0:0:70:B5S.wav
475,192,7366,128,0,8366:0:0:0:70:E6S.wav
109,192,7366,128,0,8366:0:0:0:70:G_4S_Ab4S.wav
182,192,7700,1,0,0:0:0:70:E5S_s.wav
256,192,8033,128,0,8366:0:0:0:70:G_5S_Ab5S.wav
475,192,8700,128,0,9700:0:0:0:70:E6S.wav
402,192,8700,128,0,9700:0:0:0:70:C_6S_Db6S.wav
36,192,8700,128,0,9700:0:0:0:70:F_4S_Gb4S.wav
256,192,9033,1,0,0:0:0:70:C_5S_Db5S_s.wav
329,192,9366,128,0,9700:0:0:0:70:A5S.wav
36,192,10033,128,0,11033:0:0:0:70:B4S.wav
402,192,10033,128,0,10366:0:0:0:70:E6S.wav
109,192,10033,128,0,10366:0:0:0:70:A5S.wav
256,192,10033,128,0,10366:0:0:0:70:C_6S_Db6S.wav
182,192,10700,128,0,11033:0:0:0:70:B5S.wav
329,192,10700,128,0,11033:0:0:0:70:D_6S_Eb6S.wav
475,192,10700,128,0,11033:0:0:0:70:F_6S_Gb6S.wav
182,192,11366,128,0,12366:0:0:0:70:E5S.wav
402,192,11366,1,0,0:0:0:70:G_6S_Ab6S_s.wav
329,192,11366,1,0,0:0:0:70:E6S_s.wav
256,192,11700,1,0,0:0:0:70:B5S_s.wav
475,192,12033,1,0,0:0:0:70:B6S_s.wav
256,192,12366,1,0,0:0:0:70:B5S_s.wav
109,192,12700,128,0,13700:0:0:0:70:B4S.wav
329,192,12700,1,0,0:0:0:70:D_6S_Eb6S_s.wav
475,192,12700,1,0,0:0:0:70:F_6S_Gb6S_s.wav
182,192,13033,1,0,0:0:0:70:F_5S_Gb5S_s.wav
329,192,13366,1,0,0:0:0:70:B5S_s.wav
475,192,13700,1,0,0:0:0:70:F_6S_Gb6S_s.wav
329,192,14033,1,0,0:0:0:70:D_6S_Eb6S_s.wav
256,192,14033,1,0,0:0:0:70:C6S_s.wav
36,192,14033,128,0,15033:0:0:0:70:G_4S_Ab4S.wav
182,192,14366,1,0,0:0:0:70:G_5S_Ab5S_s.wav
475,192,14700,1,0,0:0:0:70:F_6S_Gb6S_s.wav
329,192,14700,1,0,0:0:0:70:D_6S_Eb6S_s.wav
182,192,15033,1,0,0:0:0:70:G_5S_Ab5S_s.wav
256,192,15366,1,0,0:0:0:70:C_6S_Db6S_s.wav
402,192,15366,1,0,0:0:0:70:E6S_s.wav
109,192,15366,128,0,15700:0:0:0:70:C_5S_Db5S.wav
182,192,15700,1,0,0:0:0:70:G_5S_Ab5S_s.wav
36,192,16033,128,0,16366:0:0:0:70:B4S.wav
475,192,16033,128,0,16366:0:0:0:70:D_6S_Eb6S.wav
402,192,16033,128,0,16366:0:0:0:70:B5S.wav
109,192,16033,128,0,16366:0:0:0:70:F_5S_Gb5S.wav
36,192,16700,128,0,17700:0:0:0:70:A4S.wav
182,192,16700,128,0,17033:0:0:0:70:A5S.wav
329,192,16700,128,0,17033:0:0:0:70:C_6S_Db6S.wav
475,192,16700,128,0,17033:0:0:0:70:E6S.wav
256,192,17033,1,0,0:0:0:70:E5S_s.wav
182,192,17366,1,0,0:0:0:70:A5S_s.wav
402,192,17700,1,0,0:0:0:70:E6S_s.wav
182,192,18033,128,0,18366:0:0:0:70:B5S.wav
329,192,18033,128,0,18366:0:0:0:70:E6S.wav
475,192,18033,128,0,19033:0:0:0:70:G_4S_Ab4S.wav
36,192,18033,128,0,18366:0:0:0:70:G_5S_Ab5S.wav
256,192,18366,1,0,0:0:0:70:E5S_s.wav
109,192,18700,1,0,0:0:0:70:G_5S_Ab5S_s.wav
329,192,19033,1,0,0:0:0:70:E6S_s.wav
475,192,19366,128,0,19700:0:0:0:70:E6S.wav
36,192,19366,128,0,20366:0:0:0:70:F_4S_Gb4S.wav
182,192,19366,128,0,19700:0:0:0:70:A5S.wav
329,192,19366,128,0,19700:0:0:0:70:C_6S_Db6S.wav
402,192,19700,1,0,0:0:0:70:C_5S_Db5S_s.wav
256,192,20033,1,0,0:0:0:70:A5S_s.wav
109,192,20366,1,0,0:0:0:70:C_6S_Db6S_s.wav
329,192,20700,1,0,0:0:0:70:C_6S_Db6S_s.wav
182,192,20700,1,0,0:0:0:70:A5S_s.wav
475,192,20700,1,0,0:0:0:70:E6S_s.wav
36,192,20700,1,0,0:0:0:70:B4S_s.wav
329,192,20866,1,0,0:0:0:70:C_6S_Db6S_s.wav
182,192,20866,1,0,0:0:0:70:A5S_s.wav
36,192,20866,1,0,0:0:0:70:B4S_s.wav
475,192,20866,1,0,0:0:0:70:E6S_s.wav
329,192,22033,1,0,0:0:0:70:E6S_s.wav
475,192,22033,1,0,0:0:0:70:A6S_s.wav
36,192,22033,128,0,24366:0:0:0:70:E5S.wav
182,192,22366,1,0,0:0:0:70:B5S_s.wav
475,192,22700,1,0,0:0:0:70:A6S_s.wav
329,192,22700,1,0,0:0:0:70:E6S_s.wav
182,192,23033,1,0,0:0:0:70:B5S_s.wav
329,192,23366,1,0,0:0:0:70:E6S_s.wav
475,192,23366,1,0,0:0:0:70:A6S_s.wav
182,192,23700,1,0,0:0:0:70:B5S_s.wav
475,192,24033,1,0,0:0:0:70:A6S_s.wav
329,192,24033,1,0,0:0:0:70:E6S_s.wav
182,192,24366,1,0,0:0:0:70:B5S_s.wav
329,192,24700,1,0,0:0:0:70:E6S_s.wav
402,192,24700,1,0,0:0:0:70:G_6S_Ab6S_s.wav
36,192,24700,128,0,27033:0:0:0:70:E5S.wav
182,192,25033,1,0,0:0:0:70:B5S_s.wav
329,192,25366,1,0,0:0:0:70:E6S_s.wav
402,192,25366,1,0,0:0:0:70:G_6S_Ab6S_s.wav
182,192,25700,1,0,0:0:0:70:B5S_s.wav
402,192,26033,1,0,0:0:0:70:G_6S_Ab6S_s.wav
329,192,26033,1,0,0:0:0:70:E6S_s.wav
182,192,26366,1,0,0:0:0:70:B5S_s.wav
329,192,26700,1,0,0:0:0:70:E6S_s.wav
402,192,26700,1,0,0:0:0:70:G_6S_Ab6S_s.wav
182,192,27033,1,0,0:0:0:70:B5S_s.wav
329,192,27366,1,0,0:0:0:70:E6S_s.wav
475,192,27366,1,0,0:0:0:70:A6S_s.wav
36,192,27366,128,0,29700:0:0:0:70:E5S.wav
182,192,27700,1,0,0:0:0:70:B5S_s.wav
475,192,28033,1,0,0:0:0:70:A6S_s.wav
329,192,28033,1,0,0:0:0:70:E6S_s.wav
182,192,28366,1,0,0:0:0:70:B5S_s.wav
329,192,28700,1,0,0:0:0:70:E6S_s.wav
475,192,28700,1,0,0:0:0:70:A6S_s.wav
182,192,29033,1,0,0:0:0:70:B5S_s.wav
475,192,29366,1,0,0:0:0:70:A6S_s.wav
329,192,29366,1,0,0:0:0:70:E6S_s.wav
475,192,29700,1,0,0:0:0:70:G_6S_Ab6S_s.wav
402,192,29811,1,0,0:0:0:70:F_6S_Gb6S_s.wav
329,192,29922,1,0,0:0:0:70:E6S_s.wav
36,192,30033,128,0,31700:0:0:0:70:E4S.wav
256,192,30033,128,0,31700:0:0:0:70:E6S.wav
182,192,30033,128,0,31700:0:0:0:70:B5S.wav
475,192,30033,128,0,31700:0:0:0:70:G_6S_Ab6S.wav
109,192,32033,128,0,32366:0:0:0:70:B4S.wav
36,192,32033,128,0,32366:0:0:0:70:G_3S_Ab3S.wav
475,192,32033,128,0,32366:0:0:0:70:F_5S_Gb5S.wav
402,192,32033,128,0,32366:0:0:0:70:D5S.wav
36,192,32700,1,0,0:0:0:70:A3S_s.wav
475,192,32700,128,0,33033:0:0:0:70:E5S.wav
256,192,32700,128,0,33033:0:0:0:70:A4S.wav
329,192,32700,128,0,33033:0:0:0:70:C_5S_Db5S.wav
109,192,33033,1,0,0:0:0:70:E4S_s.wav
182,192,33366,1,0,0:0:0:70:A4S_s.wav
256,192,33700,1,0,0:0:0:70:C_5S_Db5S_s.wav
36,192,34033,1,0,0:0:0:70:B3S_s.wav
329,192,34033,128,0,34366:0:0:0:70:B4S.wav
475,192,34033,128,0,34366:0:0:0:70:E5S.wav
182,192,34366,1,0,0:0:0:70:F_4S_Gb4S_s.wav
329,192,34700,128,0,35033:0:0:0:70:B4S.wav
402,192,34700,128,0,35033:0:0:0:70:D_5S_Eb5S.wav
36,192,35366,1,0,0:0:0:70:G_3S_Ab3S_s.wav
329,192,35366,128,0,35700:0:0:0:70:B4S.wav
402,192,35366,128,0,35700:0:0:0:70:D_5S_Eb5S.wav
182,192,35700,1,0,0:0:0:70:D_4S_Eb4S_s.wav
329,192,36033,1,0,0:0:0:70:F_4S_Gb4S_s.wav
402,192,36366,1,0,0:0:0:70:B4S_s.wav
36,192,36700,1,0,0:0:0:70:C_4S_Db4S_s.wav
475,192,36700,128,0,37033:0:0:0:70:E5S.wav
256,192,36700,128,0,37033:0:0:0:70:C_5S_Db5S.wav
109,192,37033,128,0,37700:0:0:0:70:G_4S_Ab4S.wav
402,192,37366,128,0,37700:0:0:0:70:C_5S_Db5S.wav
36,192,38033,1,0,0:0:0:70:A3S_s.wav
475,192,38033,128,0,38366:0:0:0:70:E5S.wav
256,192,38033,128,0,38366:0:0:0:70:A4S.wav
402,192,38033,128,0,38366:0:0:0:70:C_5S_Db5S.wav
182,192,38366,1,0,0:0:0:70:E4S_s.wav
329,192,38700,1,0,0:0:0:70:A4S_s.wav
402,192,39033,1,0,0:0:0:70:C_5S_Db5S_s.wav
36,192,39366,1,0,0:0:0:70:B3S_s.wav
329,192,39366,128,0,39700:0:0:0:70:B4S.wav
475,192,39366,128,0,39700:0:0:0:70:E5S.wav
109,192,39700,128,0,40366:0:0:0:70:F_4S_Gb4S.wav
329,192,40033,128,0,40366:0:0:0:70:B4S.wav
402,192,40033,128,0,40366:0:0:0:70:D_5S_Eb5S.wav
36,192,40700,1,0,0:0:0:70:G_3S_Ab3S_s.wav
182,192,40700,1,0,0:0:0:70:G_4S_Ab4S_s.wav
329,192,40700,1,0,0:0:0:70:B4S_s.wav
402,192,40700,1,0,0:0:0:70:D_5S_Eb5S_s.wav
475,192,41366,1,0,0:0:0:70:D_5S_Eb5S_s.wav
182,192,41366,1,0,0:0:0:70:G_4S_Ab4S_s.wav
402,192,41366,1,0,0:0:0:70:C5S_s.wav
109,192,41366,1,0,0:0:0:70:C4S_s.wav
475,192,42033,128,0,42700:0:0:0:70:E5S.wav
36,192,42033,128,0,42700:0:0:0:70:C_4S_Db4S.wav
182,192,42033,128,0,42700:0:0:0:70:G_4S_Ab4S.wav
329,192,42033,128,0,42700:0:0:0:70:C_5S_Db5S.wav
329,192,42866,128,0,43200:0:0:0:70:B4S.wav
182,192,42866,128,0,43200:0:0:0:70:G_4S_Ab4S.wav
109,192,42866,128,0,43200:0:0:0:70:G_3S_Ab3S.wav
402,192,42866,128,0,43200:0:0:0:70:D5S.wav
475,192,43366,128,0,43700:0:0:0:70:E5S.wav
182,192,43366,128,0,43700:0:0:0:70:A4S.wav
329,192,43366,128,0,43700:0:0:0:70:C_5S_Db5S.wav
36,192,43366,128,0,44366:0:0:0:70:A3S.wav
109,192,43700,1,0,0:0:0:70:E4S_s.wav
256,192,44033,1,0,0:0:0:70:A4S_s.wav
402,192,44366,1,0,0:0:0:70:C_5S_Db5S_s.wav
36,192,44700,128,0,45700:0:0:0:70:B3S.wav
329,192,44700,128,0,45033:0:0:0:70:D_5S_Eb5S.wav
475,192,44700,128,0,45033:0:0:0:70:F_5S_Gb5S.wav
182,192,45033,1,0,0:0:0:70:B4S_s.wav
402,192,45366,128,0,45700:0:0:0:70:D_5S_Eb5S.wav
182,192,46033,128,0,46366:0:0:0:70:B4S.wav
329,192,46033,128,0,46366:0:0:0:70:D_5S_Eb5S.wav
475,192,46033,128,0,46366:0:0:0:70:F_5S_Gb5S.wav
36,192,46033,128,0,47033:0:0:0:70:G_3S_Ab3S.wav
109,192,46366,1,0,0:0:0:70:D_4S_Eb4S_s.wav
256,192,46700,1,0,0:0:0:70:B4S_s.wav
402,192,47033,1,0,0:0:0:70:D_5S_Eb5S_s.wav
329,192,47366,1,0,0:0:0:70:E5S_s.wav
475,192,47366,1,0,0:0:0:70:G_5S_Ab5S_s.wav
109,192,47366,128,0,48366:0:0:0:70:C_4S_Db4S.wav
256,192,47700,1,0,0:0:0:70:B4S_s.wav
475,192,48033,128,0,48366:0:0:0:70:E5S.wav
329,192,48700,128,0,49033:0:0:0:70:A4S.wav
475,192,48700,128,0,49033:0:0:0:70:C_5S_Db5S.wav
36,192,48700,128,0,49700:0:0:0:70:F_3S_Gb3S.wav
182,192,49033,1,0,0:0:0:70:C_4S_Db4S_s.wav
329,192,49366,1,0,0:0:0:70:A4S_s.wav
402,192,49700,1,0,0:0:0:70:C_5S_Db5S_s.wav
329,192,50033,128,0,50366:0:0:0:70:B4S.wav
475,192,50033,128,0,50366:0:0:0:70:E5S.wav
109,192,50033,128,0,50366:0:0:0:70:F_4S_Gb4S.wav
36,192,50033,128,0,51033:0:0:0:70:B3S.wav
109,192,50700,128,0,51033:0:0:0:70:F_4S_Gb4S.wav
329,192,50700,128,0,51033:0:0:0:70:B4S.wav
402,192,50700,128,0,51033:0:0:0:70:D_5S_Eb5S.wav
475,192,51366,1,0,0:0:0:70:A5S_s.wav
329,192,51366,1,0,0:0:0:70:E5S_s.wav
182,192,51366,1,0,0:0:0:70:B4S_s.wav
36,192,51366,128,0,52366:0:0:0:70:E4S.wav
182,192,51700,1,0,0:0:0:70:B4S_s.wav
329,192,52033,1,0,0:0:0:70:E5S_s.wav
475,192,52366,1,0,0:0:0:70:A5S_s.wav
182,192,52700,128,0,53700:0:0:0:70:B4S.wav
36,192,52700,128,0,53700:0:0:0:70:E4S.wav
329,192,52700,128,0,53700:0:0:0:70:E5S.wav
402,192,52700,128,0,53700:0:0:0:70:G_5S_Ab5S.wav
182,192,54033,128,0,54366:0:0:0:70:B4S.wav
329,192,54033,128,0,54366:0:0:0:70:E5S.wav
402,192,54033,128,0,54366:0:0:0:70:G_5S_Ab5S.wav
109,192,54033,128,0,54366:0:0:0:70:A3S.wav
36,192,54366,128,0,56366:0:0:0:70:E4S.wav
182,192,54700,1,0,0:0:0:70:B4S_s.wav
475,192,55033,128,0,55366:0:0:0:70:B5S.wav
109,192,55700,1,0,0:0:0:70:A4S_s.wav
256,192,56033,1,0,0:0:0:70:C_5S_Db5S_s.wav
402,192,56366,1,0,0:0:0:70:E5S_s.wav
36,192,56700,1,0,0:0:0:70:B3S_s.wav
182,192,56700,128,0,57033:0:0:0:70:B4S.wav
329,192,56700,128,0,57033:0:0:0:70:D_5S_Eb5S.wav
475,192,56700,128,0,57033:0:0:0:70:F_5S_Gb5S.wav
109,192,57033,128,0,59033:0:0:0:70:F_4S_Gb4S.wav
329,192,57366,1,0,0:0:0:70:B4S_s.wav
475,192,57700,128,0,58033:0:0:0:70:B5S.wav
182,192,58366,1,0,0:0:0:70:B4S_s.wav
256,192,58700,1,0,0:0:0:70:D_5S_Eb5S_s.wav
402,192,59033,1,0,0:0:0:70:F_5S_Gb5S_s.wav
402,192,59366,128,0,59700:0:0:0:70:F_5S_Gb5S.wav
329,192,59366,128,0,60366:0:0:0:70:D_5S_Eb5S.wav
182,192,59366,128,0,60366:0:0:0:70:B4S.wav
36,192,59366,128,0,60366:0:0:0:70:G_3S_Ab3S.wav
475,192,60033,128,0,60366:0:0:0:70:A5S.wav
182,192,60700,128,0,61700:0:0:0:70:C5S.wav
402,192,60700,128,0,61033:0:0:0:70:G_5S_Ab5S.wav
36,192,60700,128,0,61700:0:0:0:70:C4S.wav
329,192,60700,128,0,61033:0:0:0:70:D_5S_Eb5S.wav
329,192,61366,128,0,61700:0:0:0:70:D_5S_Eb5S.wav
256,192,62033,1,0,0:0:0:70:C_5S_Db5S_s.wav
475,192,62033,1,0,0:0:0:70:E5S_s.wav
36,192,62033,128,0,63700:0:0:0:70:C_4S_Db4S.wav
109,192,62366,1,0,0:0:0:70:G_4S_Ab4S_s.wav
256,192,62700,1,0,0:0:0:70:C_5S_Db5S_s.wav
402,192,63033,1,0,0:0:0:70:D_5S_Eb5S_s.wav
475,192,63366,128,0,63700:0:0:0:70:E5S.wav
402,192,64200,128,0,64533:0:0:0:70:A5S.wav
329,192,64200,128,0,64533:0:0:0:70:F_5S_Gb5S.wav
182,192,64200,128,0,64533:0:0:0:70:D5S.wav
109,192,64200,128,0,64533:0:0:0:70:B3S.wav
182,192,64700,128,0,65033:0:0:0:70:C_5S_Db5S.wav
329,192,64700,128,0,65033:0:0:0:70:E5S.wav
475,192,64700,128,0,65033:0:0:0:70:G_5S_Ab5S.wav
36,192,64700,1,0,0:0:0:70:A_3S_Bb3S_s.wav
109,192,65033,1,0,0:0:0:70:E4S_s.wav
256,192,65366,1,0,0:0:0:70:A_4S_Bb4S_s.wav
475,192,65700,128,0,66366:0:0:0:70:G_5S_Ab5S.wav
182,192,65700,128,0,66366:0:0:0:70:C_5S_Db5S.wav
329,192,65700,128,0,66366:0:0:0:70:E5S.wav
36,192,66366,1,0,0:0:0:70:A_3S_Bb3S_s.wav
182,192,66700,128,0,67033:0:0:0:70:C_5S_Db5S.wav
329,192,66700,128,0,67033:0:0:0:70:E5S.wav
475,192,66700,128,0,67033:0:0:0:70:G_5S_Ab5S.wav
36,192,67033,1,0,0:0:0:70:A_3S_Bb3S_s.wav
36,192,67366,1,0,0:0:0:70:A_3S_Bb3S_s.wav
475,192,67366,128,0,67700:0:0:0:70:G_5S_Ab5S.wav
329,192,67366,128,0,67700:0:0:0:70:E5S.wav
182,192,67366,128,0,67700:0:0:0:70:C_5S_Db5S.wav
109,192,67700,1,0,0:0:0:70:E4S_s.wav
256,192,68033,1,0,0:0:0:70:B4S_s.wav
182,192,68366,128,0,69033:0:0:0:70:C_5S_Db5S.wav
329,192,68366,128,0,69033:0:0:0:70:E5S.wav
475,192,68366,128,0,69033:0:0:0:70:G_5S_Ab5S.wav
36,192,69033,1,0,0:0:0:70:A3S_s.wav
182,192,69366,128,0,69700:0:0:0:70:C_5S_Db5S.wav
475,192,69366,128,0,69700:0:0:0:70:G_5S_Ab5S.wav
329,192,69366,128,0,69700:0:0:0:70:E5S.wav
36,192,69700,1,0,0:0:0:70:A3S_s.wav
182,192,70033,1,0,0:0:0:70:B4S_s.wav
36,192,70033,128,0,71033:0:0:0:70:B3S.wav
256,192,70366,1,0,0:0:0:70:C_5S_Db5S_s.wav
329,192,70700,1,0,0:0:0:70:D_5S_Eb5S_s.wav
402,192,71033,1,0,0:0:0:70:E5S_s.wav
475,192,71366,1,0,0:0:0:70:F_5S_Gb5S_s.wav
36,192,71366,128,0,72366:0:0:0:70:B3S.wav
109,192,71700,1,0,0:0:0:70:D_5S_Eb5S_s.wav
256,192,72033,1,0,0:0:0:70:E5S_s.wav
402,192,72366,1,0,0:0:0:70:F_5S_Gb5S_s.wav
36,192,72700,128,0,74033:0:0:0:70:B3S.wav
109,192,72700,128,0,74033:0:0:0:70:D_5S_Eb5S.wav
402,192,72700,128,0,74033:0:0:0:70:F_5S_Gb5S.wav
475,192,72700,128,0,74033:0:0:0:70:B5S.wav
109,192,74366,1,0,0:0:0:70:D_5S_Eb5S_s.wav
402,192,74366,1,0,0:0:0:70:F_5S_Gb5S_s.wav
36,192,74366,1,0,0:0:0:70:B3S_s.wav
475,192,74366,1,0,0:0:0:70:B5S_s.wav
475,192,74533,1,0,0:0:0:70:B5S_s.wav
109,192,74533,1,0,0:0:0:70:D_5S_Eb5S_s.wav
36,192,74533,1,0,0:0:0:70:B3S_s.wav
402,192,74533,1,0,0:0:0:70:F_5S_Gb5S_s.wav
475,192,75366,128,0,75700:0:0:0:70:B5S.wav
182,192,75366,128,0,76033:0:0:0:70:E4S.wav
36,192,75366,128,0,75700:0:0:0:70:E5S.wav
402,192,75366,128,0,75700:0:0:0:70:G_5S_Ab5S.wav
402,192,76033,128,0,76366:0:0:0:70:G_5S_Ab5S.wav
36,192,76033,128,0,76366:0:0:0:70:E5S.wav
475,192,76033,128,0,76366:0:0:0:70:B5S.wav
182,192,76366,1,0,0:0:0:70:E4S_s.wav
329,192,76700,128,0,77366:0:0:0:70:B3S.wav
109,192,76700,128,0,77033:0:0:0:70:D_5S_Eb5S.wav
182,192,76700,128,0,77033:0:0:0:70:F_5S_Gb5S.wav
475,192,76700,128,0,77033:0:0:0:70:B5S.wav
109,192,77366,128,0,77700:0:0:0:70:D_5S_Eb5S.wav
182,192,77366,128,0,77700:0:0:0:70:F_5S_Gb5S.wav
475,192,77366,128,0,77700:0:0:0:70:B5S.wav
329,192,77700,1,0,0:0:0:70:B3S_s.wav
475,192,78033,128,0,78366:0:0:0:70:B5S.wav
402,192,78033,128,0,78366:0:0:0:70:F_5S_Gb5S.wav
109,192,78033,128,0,78366:0:0:0:70:D_5S_Eb5S.wav
36,192,78033,128,0,78700:0:0:0:70:G_3S_Ab3S.wav
109,192,78700,128,0,79033:0:0:0:70:D_5S_Eb5S.wav
402,192,78700,128,0,79033:0:0:0:70:F_5S_Gb5S.wav
475,192,78700,128,0,79033:0:0:0:70:B5S.wav
36,192,79033,1,0,0:0:0:70:G_3S_Ab3S_s.wav
329,192,79366,128,0,79700:0:0:0:70:E5S.wav
402,192,79366,128,0,79700:0:0:0:70:G_5S_Ab5S.wav
109,192,79366,128,0,79700:0:0:0:70:C_4S_Db4S.wav
182,192,79366,128,0,79700:0:0:0:70:C_5S_Db5S.wav
329,192,80033,128,0,80366:0:0:0:70:D_5S_Eb5S.wav
475,192,80033,128,0,80366:0:0:0:70:F_5S_Gb5S.wav
182,192,80033,128,0,80366:0:0:0:70:B4S.wav
36,192,80033,128,0,80366:0:0:0:70:B3S.wav
109,192,80700,128,0,81033:0:0:0:70:C_5S_Db5S.wav
329,192,80700,128,0,81033:0:0:0:70:E5S.wav
36,192,80700,128,0,81033:0:0:0:70:A4S.wav
475,192,80700,128,0,81366:0:0:0:70:A3S.wav
36,192,81366,128,0,81700:0:0:0:70:A4S.wav
109,192,81366,128,0,81700:0:0:0:70:C_5S_Db5S.wav
329,192,81366,128,0,81700:0:0:0:70:E5S.wav
475,192,81700,1,0,0:0:0:70:A3S_s.wav
402,192,82033,128,0,82366:0:0:0:70:E5S.wav
329,192,82033,128,0,82366:0:0:0:70:B4S.wav
182,192,82033,128,0,82700:0:0:0:70:G_3S_Ab3S.wav
36,192,82033,128,0,82366:0:0:0:70:G_4S_Ab4S.wav
36,192,82700,128,0,83033:0:0:0:70:G_4S_Ab4S.wav
402,192,82700,128,0,83033:0:0:0:70:E5S.wav
329,192,82700,128,0,83033:0:0:0:70:B4S.wav
182,192,83033,1,0,0:0:0:70:G_3S_Ab3S_s.wav
475,192,83366,128,0,84033:0:0:0:70:F_3S_Gb3S.wav
36,192,83366,128,0,83700:0:0:0:70:A4S.wav
329,192,83366,128,0,83700:0:0:0:70:E5S.wav
109,192,83366,128,0,83700:0:0:0:70:C_5S_Db5S.wav
109,192,84033,128,0,84366:0:0:0:70:C_5S_Db5S.wav
329,192,84033,128,0,84366:0:0:0:70:E5S.wav
36,192,84033,128,0,84366:0:0:0:70:A4S.wav
475,192,84366,1,0,0:0:0:70:F_3S_Gb3S_s.wav
402,192,84700,128,0,85033:0:0:0:70:E5S.wav
109,192,84700,128,0,85033:0:0:0:70:A4S.wav
256,192,84700,128,0,85033:0:0:0:70:B4S.wav
36,192,84700,128,0,85366:0:0:0:70:B3S.wav
182,192,85366,128,0,85700:0:0:0:70:B4S.wav
329,192,85366,128,0,85700:0:0:0:70:D_5S_Eb5S.wav
475,192,85366,128,0,85700:0:0:0:70:F_5S_Gb5S.wav
36,192,85700,1,0,0:0:0:70:B3S_s.wav
109,192,86033,128,0,86366:0:0:0:70:E5S.wav
256,192,86033,128,0,86366:0:0:0:70:G_5S_Ab5S.wav
402,192,86033,128,0,86366:0:0:0:70:B5S.wav
475,192,86033,128,0,86700:0:0:0:70:E4S.wav
109,192,86700,128,0,87033:0:0:0:70:E5S.wav
402,192,86700,128,0,87033:0:0:0:70:B5S.wav
256,192,86700,128,0,87033:0:0:0:70:G_5S_Ab5S.wav
475,192,87033,1,0,0:0:0:70:E4S_s.wav
182,192,87366,128,0,87700:0:0:0:70:D_5S_Eb5S.wav
329,192,87366,128,0,87700:0:0:0:70:F_5S_Gb5S.wav
402,192,87366,128,0,87700:0:0:0:70:B5S.wav
36,192,87366,128,0,88033:0:0:0:70:B3S.wav
402,192,88033,128,0,88366:0:0:0:70:B5S.wav
182,192,88033,128,0,88366:0:0:0:70:D_5S_Eb5S.wav
329,192,88033,128,0,88366:0:0:0:70:F_5S_Gb5S.wav
36,192,88366,1,0,0:0:0:70:B3S_s.wav
182,192,88700,128,0,89033:0:0:0:70:D_5S_Eb5S.wav
402,192,88700,128,0,89033:0:0:0:70:B5S.wav
256,192,88700,128,0,89033:0:0:0:70:G_5S_Ab5S.wav
36,192,88700,128,0,89033:0:0:0:70:G_3S_Ab3S.wav
256,192,89366,128,0,89700:0:0:0:70:D_5S_Eb5S.wav
475,192,89366,128,0,89700:0:0:0:70:C6S.wav
402,192,89366,128,0,89700:0:0:0:70:G_5S_Ab5S.wav
109,192,89366,128,0,89700:0:0:0:70:C4S.wav
402,192,90033,128,0,90366:0:0:0:70:G_5S_Ab5S.wav
329,192,90033,128,0,90366:0:0:0:70:E5S.wav
109,192,90033,128,0,90366:0:0:0:70:C_4S_Db4S.wav
182,192,90033,128,0,90366:0:0:0:70:B4S.wav
402,192,90700,128,0,91033:0:0:0:70:G_5S_Ab5S.wav
329,192,90700,128,0,91033:0:0:0:70:E5S.wav
182,192,90700,128,0,91033:0:0:0:70:B4S.wav
36,192,90700,128,0,91033:0:0:0:70:B3S.wav
329,192,91366,128,0,91700:0:0:0:70:G_5S_Ab5S.wav
109,192,91366,128,0,91700:0:0:0:70:E5S.wav
475,192,91366,128,0,92033:0:0:0:70:A3S.wav
36,192,91366,128,0,91700:0:0:0:70:C_5S_Db5S.wav
109,192,92033,128,0,92366:0:0:0:70:E5S.wav
329,192,92033,128,0,92366:0:0:0:70:G_5S_Ab5S.wav
36,192,92033,128,0,92366:0:0:0:70:C_5S_Db5S.wav
475,192,92366,1,0,0:0:0:70:A3S_s.wav
329,192,92700,128,0,93033:0:0:0:70:E5S.wav
402,192,92700,128,0,93033:0:0:0:70:G_5S_Ab5S.wav
36,192,92700,128,0,93033:0:0:0:70:B4S.wav
182,192,92700,128,0,93366:0:0:0:70:G_3S_Ab3S.wav
36,192,93366,128,0,93700:0:0:0:70:B4S.wav
329,192,93366,128,0,93700:0:0:0:70:E5S.wav
402,192,93366,128,0,93700:0:0:0:70:G_5S_Ab5S.wav
182,192,93700,1,0,0:0:0:70:G_3S_Ab3S_s.wav
182,192,94033,128,0,94366:0:0:0:70:C_5S_Db5S.wav
329,192,94033,128,0,94366:0:0:0:70:E5S.wav
36,192,94033,128,0,94366:0:0:0:70:A4S.wav
475,192,94033,128,0,94700:0:0:0:70:F_3S_Gb3S.wav
182,192,94700,128,0,95033:0:0:0:70:C_5S_Db5S.wav
36,192,94700,128,0,95033:0:0:0:70:A4S.wav
329,192,94700,128,0,95033:0:0:0:70:E5S.wav
475,192,95033,1,0,0:0:0:70:F_3S_Gb3S_s.wav
182,192,95366,1,0,0:0:0:70:C_5S_Db5S_s.wav
109,192,95366,1,0,0:0:0:70:B3S_s.wav
329,192,95366,1,0,0:0:0:70:E5S_s.wav
402,192,95366,1,0,0:0:0:70:F_5S_Gb5S_s.wav
329,192,95533,1,0,0:0:0:70:E5S_s.wav
402,192,95533,1,0,0:0:0:70:F_5S_Gb5S_s.wav
182,192,95533,1,0,0:0:0:70:C_5S_Db5S_s.wav
109,192,95533,1,0,0:0:0:70:B3S_s.wav
36,192,96700,128,0,97366:0:0:0:70:E3S.wav
475,192,96700,1,0,0:0:0:70:A5S_s.wav
329,192,96700,1,0,0:0:0:70:E5S_s.wav
182,192,97033,1,0,0:0:0:70:B4S_s.wav
329,192,97366,1,0,0:0:0:70:E5S_s.wav
475,192,97366,1,0,0:0:0:70:A5S_s.wav
182,192,97700,1,0,0:0:0:70:B4S_s.wav
36,192,97700,1,0,0:0:0:70:E3S_s.wav
329,192,98033,1,0,0:0:0:70:E5S_s.wav
475,192,98033,1,0,0:0:0:70:A5S_s.wav
36,192,98033,128,0,98700:0:0:0:70:E3S.wav
182,192,98366,1,0,0:0:0:70:B4S_s.wav
329,192,98700,1,0,0:0:0:70:E5S_s.wav
475,192,98700,1,0,0:0:0:70:A5S_s.wav
182,192,99033,1,0,0:0:0:70:B4S_s.wav
36,192,99033,1,0,0:0:0:70:E3S_s.wav
329,192,99366,1,0,0:0:0:70:E5S_s.wav
402,192,99366,1,0,0:0:0:70:G_5S_Ab5S_s.wav
36,192,99366,128,0,100033:0:0:0:70:E3S.wav
182,192,99700,1,0,0:0:0:70:B4S_s.wav
329,192,100033,1,0,0:0:0:70:E5S_s.wav
402,192,100033,1,0,0:0:0:70:G_5S_Ab5S_s.wav
36,192,100366,1,0,0:0:0:70:E3S_s.wav
182,192,100366,1,0,0:0:0:70:B4S_s.wav
329,192,100700,1,0,0:0:0:70:E5S_s.wav
402,192,100700,1,0,0:0:0:70:G_5S_Ab5S_s.wav
36,192,100700,128,0,101366:0:0:0:70:E3S.wav
182,192,101033,1,0,0:0:0:70:B4S_s.wav
402,192,101366,1,0,0:0:0:70:G_5S_Ab5S_s.wav
329,192,101366,1,0,0:0:0:70:E5S_s.wav
182,192,101700,1,0,0:0:0:70:B4S_s.wav
36,192,101700,1,0,0:0:0:70:E3S_s.wav
475,192,102033,1,0,0:0:0:70:A5S_s.wav
36,192,102033,128,0,102700:0:0:0:70:E3S.wav
329,192,102033,1,0,0:0:0:70:E5S_s.wav
182,192,102366,1,0,0:0:0:70:B4S_s.wav
329,192,102700,1,0,0:0:0:70:E5S_s.wav
475,192,102700,1,0,0:0:0:70:A5S_s.wav
182,192,103033,1,0,0:0:0:70:B4S_s.wav
36,192,103033,1,0,0:0:0:70:E3S_s.wav
329,192,103366,1,0,0:0:0:70:E5S_s.wav
36,192,103366,128,0,104033:0:0:0:70:E3S.wav
475,192,103366,1,0,0:0:0:70:A5S_s.wav
182,192,103700,1,0,0:0:0:70:B4S_s.wav
475,192,104033,1,0,0:0:0:70:A5S_s.wav
329,192,104033,1,0,0:0:0:70:E5S_s.wav
36,192,104366,1,0,0:0:0:70:E3S_s.wav
402,192,104366,1,0,0:0:0:70:G_5S_Ab5S_s.wav
329,192,104477,1,0,0:0:0:70:F_5S_Gb5S_s.wav
256,192,104588,1,0,0:0:0:70:E5S_s.wav
109,192,104700,128,0,110033:0:0:0:70:E4S.wav
475,192,104700,128,0,110033:0:0:0:70:G_5S_Ab5S.wav
182,192,104700,128,0,110033:0:0:0:70:E5S.wav
