osu file format v14

[General]
AudioFilename: Magnetic today.mp3
AudioLeadIn: 1500
PreviewTime: 70516
Countdown: 0
SampleSet: Soft
StackLeniency: 0.3
Mode: 0
LetterboxInBreaks: 0
WidescreenStoryboard: 1

[Editor]
Bookmarks: 124849,127516,130183,131349,132683,138183,140349,141849,143349,147349,166016,192683,202683,203349,213183,234183,252016,253183
DistanceSpacing: 0.9
BeatDivisor: 4
GridSize: 4
TimelineZoom: 1.5

[Metadata]
Title:Zurui yo Magnetic today
TitleUnicode:ずるいよMagnetic today
Artist:Pile & Tokui Sora
ArtistUnicode:Pile & 德井青空
Creator:happy623
Version:prpr
Source:Love Live! School idol project
Tags:西木野真姫 矢澤にこ yazawa nico nishikino maki nicomaki Fast
BeatmapID:697489
BeatmapSetID:312450

[Difficulty]
HPDrainRate:5
CircleSize:4
OverallDifficulty:7
ApproachRate:9
SliderMultiplier:1.9
SliderTickRate:1

[Events]
//Background and Video events
0,0,"bg.jpg",0,0
//Break Periods
2,27716,37583
2,103716,113583
//Storyboard Layer 0 (Background)
//Storyboard Layer 1 (Fail)
//Storyboard Layer 2 (Pass)
//Storyboard Layer 3 (Foreground)
//Storyboard Sound Samples

[TimingPoints]
850,333.333333333333,4,2,0,60,1,0
850,-200,4,2,0,60,0,0
10183,-200,4,2,0,60,0,0
10683,-100,4,2,0,60,0,0
11516,-100,4,1,0,40,0,0
20683,-200,4,1,0,40,0,0
21683,-100,4,1,0,40,0,0
26016,-200,4,1,0,40,0,0
27016,-100,4,1,0,40,0,0
38183,-125,4,2,0,60,0,0
48849,-125,4,2,0,60,0,0
49516,-100,4,2,0,60,0,0
51516,-125,4,2,0,60,0,0
52183,-100,4,2,0,60,0,0
59516,-125,4,2,0,60,0,0
63516,-200,4,2,0,60,0,0
64183,-125,4,2,0,60,0,0
64849,-100,4,2,0,60,0,0
68183,-83.3333333333333,4,2,0,60,0,0
68683,-100,4,2,0,60,0,0
70516,-200,4,2,0,60,0,0
70849,-83.3333333333333,4,2,0,60,0,0
71349,-100,4,2,0,60,0,1
81516,-200,4,2,0,60,0,0
81683,-100,4,2,0,60,0,0
82016,-100,4,2,0,60,0,1
86016,-200,4,2,0,60,0,1
87349,-125,4,2,0,60,0,1
87849,-100,4,2,0,60,0,1
88849,-200,4,2,0,60,0,1
89516,-133.333333333333,4,2,0,60,0,1
90016,-200,4,2,0,60,0,1
92766,-100,4,2,0,60,0,0
92849,-100,4,2,0,60,0,1
92933,-100,4,2,0,60,0,0
102016,-200,4,2,0,60,0,0
103016,-83.3333333333333,4,2,0,60,0,0
114183,-100,4,2,0,60,0,0
115349,-200,4,2,0,60,0,0
115849,-125,4,2,0,60,0,0
116516,-100,4,2,0,60,0,0
123349,-83.3333333333333,4,2,0,60,0,0
124016,-133.333333333333,4,2,0,60,0,0
124516,-125,4,2,0,60,0,0
125516,-100,4,2,0,60,0,0
135516,-125,4,2,0,60,0,0
140349,-100,4,2,0,60,0,0
146516,-200,4,2,0,60,0,0
146849,-83.3333333333333,4,2,0,60,0,0
147349,-100,4,2,0,60,0,1
157516,-200,4,2,0,60,0,0
158016,-100,4,2,0,60,0,1
162016,-133.333333333333,4,2,0,60,0,1
163516,-100,4,2,0,60,0,1
166016,-200,4,2,0,60,0,1
168766,-100,4,2,0,60,0,0
168849,-100,4,2,0,60,0,1
168933,-100,4,2,0,60,0,0

[Colours]
Combo1 : 201,20,24
Combo2 : 238,100,103
Combo3 : 243,154,213
Combo4 : 201,128,225

[HitObjects]
456,288,850,6,0,L|512:276,2,47.5
312,320,1349,1,0,0:0:0:0:
376,264,1683,5,0,0:0:0:0:
328,196,1849,1,0,0:0:0:0:
352,112,2016,1,0,0:0:0:0:
352,112,2349,5,0,0:0:0:0:
276,72,2515,1,0,0:0:0:0:
196,100,2682,1,0,0:0:0:0:
112,84,2849,6,0,P|88:88|64:84,1,47.5
140,204,3183,2,0,P|164:200|200:204,1,47.5
355,328,3516,6,0,L|308:328,2,47.5
500,280,4016,1,0,0:0:0:0:
416,272,4349,5,0,0:0:0:0:
500,280,4516,1,0,0:0:0:0:
356,328,4683,1,0,0:0:0:0:
372,196,5016,5,0,0:0:0:0:
416,272,5183,1,0,0:0:0:0:
408,116,5349,1,0,0:0:0:0:
288,204,5516,6,0,L|232:216,1,47.5
68,92,5849,2,0,L|114:82,1,47.5
256,192,6183,12,0,8183,0:0:0:0:
256,192,8849,12,0,10016,0:0:0:0:
264,72,10183,6,0,P|236:140|240:172,1,95
413,318,10683,6,0,P|366:265|300:243,1,142.5
60,344,11016,1,0,0:0:0:0:
204,280,11183,5,0,0:0:0:0:
68,188,11349,1,0,0:0:0:0:
264,72,11516,5,0,0:0:0:0:
320,160,11683,1,0,0:0:0:0:
424,160,11849,1,0,0:0:0:0:
221,129,12016,5,0,0:0:0:0:
320,160,12183,1,0,0:0:0:0:
400,93,12349,1,0,0:0:0:0:
225,200,12516,5,0,0:0:0:0:
320,160,12683,1,0,0:0:0:0:
338,57,12849,6,0,B|288:72|288:72|132:32,1,190
338,356,13349,2,0,B|375:224|375:224|413:188,1,190
338,57,13849,5,0,0:0:0:0:
413,188,14016,1,0,0:0:0:0:
98,188,14183,6,0,L|92:283,1,95
36,136,14516,1,0,0:0:0:0:
180,224,14683,6,0,L|174:318,1,95
40,112,15016,1,0,0:0:0:0:
285,335,15183,6,0,B|264:344|264:344|268:272,1,95
136,79,15516,6,0,B|248:40|248:40|244:112,1,190
375,304,16016,2,0,B|264:344|264:344|268:272,1,190
244,111,16516,5,0,0:0:0:0:
268,272,16683,1,0,0:0:0:0:
52,49,16849,6,0,B|84:84|84:84|140:64,1,95
236,72,17183,1,0,0:0:0:0:
336,104,17516,1,0,0:0:0:0:
436,136,17849,1,0,0:0:0:0:
476,288,18016,6,0,P|396:332|292:300,1,190
251,220,18516,2,0,P|248:172|228:130,1,95
106,332,18849,2,0,P|153:328|196:308,1,95
352,188,19183,2,0,P|394:167|441:163,1,95
480,316,19516,5,0,0:0:0:0:
384,272,19683,1,0,0:0:0:0:
480,316,19849,5,0,0:0:0:0:
280,292,20016,1,0,0:0:0:0:
480,316,20183,5,0,0:0:0:0:
460,212,20349,1,0,0:0:0:0:
440,108,20683,6,0,L|380:96,1,47.5
72,108,21016,2,0,L|128:92,1,47.5
340,148,21349,2,0,L|284:168,1,47.5
248,344,21683,5,0,0:0:0:0:
200,192,21849,1,0,0:0:0:0:
160,288,22016,1,0,0:0:0:0:
340,244,22183,6,0,B|409:244|409:244|386:274,1,95
228,370,22516,2,0,P|215:307|235:259,1,95
344,140,22849,1,0,0:0:0:0:
198,259,23016,2,0,L|374:240,1,142.5
432,300,23349,6,0,B|448:204|436:108,1,190
244,92,23849,1,0,0:0:0:0:
344,64,24016,1,0,0:0:0:0:
140,80,24183,2,0,P|92:80|36:100,1,95
47,290,24516,2,0,P|92:304|140:304,1,95
452,340,24849,5,0,0:0:0:0:
244,308,25016,1,0,0:0:0:0:
452,340,25183,5,0,0:0:0:0:
472,240,25349,1,0,0:0:0:0:
396,168,25516,5,0,0:0:0:0:
452,340,25683,1,0,0:0:0:0:
452,340,26016,6,0,L|384:348,1,47.5,0|2,0:0|2:0,0:0:0:0:
256,196,26349,2,0,L|324:204,1,47.5,0|2,0:0|2:0,0:0:0:0:
452,44,26683,2,0,L|384:36,1,47.5,0|2,0:0|2:0,0:0:0:0:
216,128,27016,5,0,0:0:0:0:
216,128,27183,2,0,B|176:144|176:144|20:112,1,190,0|6,0:0|2:0,0:0:0:0:
423,171,38183,6,0,P|372:167|327:83,1,152
381,12,38683,1,0,0:0:0:0:
241,80,38849,2,0,L|251:161,1,76
308,245,39183,1,0,0:0:0:0:
155,191,39349,6,0,L|-6:203,1,152
59,341,39849,2,0,P|78:300|77:265,1,76
43,99,40183,2,0,P|25:132|24:170,1,76
155,191,40516,2,0,L|230:185,1,76
330,105,40849,5,0,0:0:0:0:
335,102,41183,2,0,L|326:184,1,76
233,265,41516,1,0,0:0:0:0:
384,276,41683,2,0,L|232:264,1,152
448,330,42183,6,0,P|467:259|424:200,1,152
326,347,42683,1,0,0:0:0:0:
224,243,42849,2,0,L|318:250,1,76
161,314,43183,2,0,P|134:271|129:230,1,76
168,109,43516,5,0,0:0:0:0:
171,104,43849,2,0,L|166:180,1,76
86,330,44183,2,0,P|123:277|214:288,1,152
277,347,44683,1,0,0:0:0:0:
390,267,44849,6,0,B|400:218|400:218|381:100,1,152
364,27,45349,1,0,0:0:0:0:
221,104,45516,2,0,L|311:123,1,76
478,157,45849,2,0,L|388:176,1,76
241,236,46183,5,0,0:0:0:0:
241,236,46349,1,0,0:0:0:0:
136,97,46516,2,0,P|149:54|261:29,1,152
373,129,47016,2,0,P|335:118|306:95,1,76
462,58,47349,5,0,0:0:0:0:
57,151,47683,1,0,0:0:0:0:
494,325,48016,2,0,P|436:296|333:314,1,152
317,321,48432,1,0,0:0:0:0:
280,329,48515,1,0,0:0:0:0:
242,325,48599,1,0,0:0:0:0:
207,311,48682,1,0,0:0:0:0:
178,287,48765,1,0,0:0:0:0:
156,256,48849,6,0,B|148:216|148:216|156:168,1,76
430,125,49183,2,0,B|390:133|390:133|356:128,1,76
81,125,49516,6,0,B|123:87|123:87|195:75|255:107,1,190
320,290,50016,2,0,P|316:232|344:196,1,95
430,125,50349,1,0,0:0:0:0:
332,68,50516,2,0,P|284:60|228:76,1,95
164,156,50849,2,0,L|136:248,1,95
132,324,51183,1,0,0:0:0:0:
144,132,51349,1,0,0:0:0:0:
300,256,51516,6,0,L|388:248,1,76
433,344,51849,2,0,L|358:351,1,76
226,348,52183,6,0,L|415:330,1,190
510,316,52683,1,0,0:0:0:0:
358,249,52849,2,0,P|358:197|393:137,1,95
481,99,53183,1,0,0:0:0:0:
450,220,53349,1,0,0:0:0:0:
293,125,53516,2,0,L|103:142,1,190
16,272,54016,1,0,0:0:0:0:
16,272,54099,1,0,0:0:0:0:
16,272,54183,6,0,P|56:308|80:344,1,95
16,184,54516,1,0,0:0:0:0:
200,196,54683,1,0,0:0:0:0:
112,144,54849,1,0,0:0:0:0:
152,48,55016,2,0,L|52:56,1,95
161,316,55349,6,0,L|365:297,1,190
477,263,55849,2,0,L|487:358,1,95
403,95,56183,1,0,0:0:0:0:
323,162,56349,2,0,P|393:200|498:135,1,190
303,63,56849,6,0,L|113:80,1,190
184,156,57349,1,0,0:0:0:0:
28,20,57516,2,0,P|8:64|16:116,1,95
53,289,57849,2,0,P|72:246|68:200,1,95
228,347,58183,6,0,L|418:330,1,190
292,243,58683,1,0,0:0:0:0:
292,243,58766,1,0,0:0:0:0:
292,243,58849,2,0,L|196:266,1,95
133,207,59099,2,0,P|133:160|161:112,1,95
240,93,59349,1,0,0:0:0:0:
323,265,59516,6,0,L|146:248,1,152
86,158,60016,2,0,P|91:111|103:83,1,76
102,84,60349,1,0,0:0:0:0:
17,214,60516,2,0,P|3:178|1:140,1,76
97,248,60849,6,0,L|274:231,1,152
318,139,61349,2,0,L|242:130,1,76
242,130,61683,1,0,0:0:0:0:
306,243,61849,2,0,L|382:235,1,76
472,168,62183,6,0,L|488:88,1,76
404,108,62516,2,0,L|404:32,1,76
468,260,62849,1,0,0:0:0:0:
468,260,63349,1,0,0:0:0:0:
388,244,63516,6,0,L|336:264,1,47.5
247,149,63849,2,0,L|295:132,1,47.5
146,343,64183,6,0,P|195:330|238:296,1,76
247,149,64516,1,0,0:0:0:0:
209,144,64599,1,0,0:0:0:0:
171,140,64682,1,0,0:0:0:0:
133,136,64766,1,0,0:0:0:0:
95,132,64849,6,0,L|-5:141,2,95
220,61,65349,1,0,0:0:0:0:
317,108,65516,2,0,P|326:65|314:12,1,95
209,144,65849,5,0,0:0:0:0:
236,233,66016,1,0,0:0:0:0:
268,321,66183,1,0,0:0:0:0:
360,341,66349,5,0,0:0:0:0:
236,233,66516,1,0,0:0:0:0:
320,89,66683,1,0,0:0:0:0:
220,61,66849,2,0,P|176:61|125:81,1,95
69,151,67183,1,0,0:0:0:0:
324,69,67349,1,0,0:0:0:0:
414,188,67516,6,0,P|386:245|265:239,1,190
176,160,68016,1,0,0:0:0:0:
176,160,68183,6,0,L|190:43,1,113.999996520996
180,26,68683,6,0,L|192:231,1,190
191,215,69099,1,0,0:0:0:0:
191,215,69183,1,0,0:0:0:0:
272,100,69349,2,0,L|266:147,1,47.5
370,274,69516,2,0,L|362:179,1,95
440,139,69849,1,0,0:0:0:0:
284,243,70016,1,0,0:0:0:0:
453,327,70183,5,0,0:0:0:0:
366,92,70349,1,0,0:0:0:0:
160,68,70516,6,0,B|196:64|196:64|240:72,1,71.25
84,40,70849,6,0,L|52:44,13,18.999999420166,2|2|2|2|2|2|2|2|2|2|2|2|2|2,0:0|0:0|0:0|0:0|0:0|0:0|0:0|0:0|0:0|0:0|0:0|0:0|0:0|0:0,0:0:0:0:
366,92,71349,6,0,P|452:120|536:184,1,190
496,279,71849,2,0,P|451:295|404:295,1,95
216,263,72183,2,0,P|260:247|308:248,1,95
476,372,72516,1,0,0:0:0:0:
216,263,72683,6,0,P|188:184|212:72,1,190
300,36,73183,2,0,P|308:84|292:140,1,95
100,76,73516,1,0,0:0:0:0:
200,164,73683,1,0,0:0:0:0:
297,128,73849,1,0,0:0:0:0:
447,359,74016,6,0,P|428:260|436:152,1,190
488,84,74516,1,0,0:0:0:0:
408,152,74683,1,0,0:0:0:0:
297,128,74849,1,0,0:0:0:0:
200,164,75016,2,0,L|76:156,1,95
12,344,75349,6,0,L|216:352,1,190
309,344,75849,1,0,0:0:0:0:
401,330,76016,1,0,0:0:0:0:
35,254,76183,2,0,P|80:241|128:240,1,95
401,330,76516,2,0,P|348:344|308:344,1,95
64,160,76849,6,0,P|176:160|264:192,1,190
312,268,77349,1,0,0:0:0:0:
408,232,77516,2,0,P|420:184|416:136,1,95
224,224,77849,1,0,0:0:0:0:
320,180,78016,1,0,0:0:0:0:
193,37,78183,6,0,P|207:82|236:120,1,95
408,232,78516,2,0,P|360:229|315:244,1,95
128,336,78849,2,0,P|99:298|85:253,1,95
193,37,79183,2,0,P|221:74|235:119,1,95
384,336,79516,6,0,P|412:298|426:253,1,95
332,144,79849,1,0,0:0:0:0:
324,248,80016,1,0,0:0:0:0:
340,40,80183,5,0,0:0:0:0:
332,144,80349,1,0,0:0:0:0:
324,248,80516,1,0,0:0:0:0:
316,352,80683,1,0,0:0:0:0:
236,288,80849,5,0,0:0:0:0:
316,352,81016,1,0,0:0:0:0:
52,188,81183,5,0,0:0:0:0:
88,284,81349,1,0,0:0:0:0:
141,66,81516,6,0,L|112:68,1,23.75
112,144,81683,2,0,L|216:132,1,95
467,199,82016,6,0,L|272:228,1,190
114,319,82516,2,0,L|208:304,1,95
333,162,82849,2,0,P|326:208|291:240,1,95
114,319,83183,1,0,0:0:0:0:
116,116,83349,6,0,P|196:80|296:68,1,190
372,140,83849,2,0,L|392:240,1,95
464,160,84183,1,0,0:0:0:0:
316,308,84349,1,0,0:0:0:0:
228,248,84516,1,0,0:0:0:0:
45,295,84683,6,0,L|140:308,1,95
228,360,85016,1,0,0:0:0:0:
228,248,85183,2,0,P|228:208|220:148,1,95
136,92,85516,1,0,0:0:0:0:
224,32,85683,1,0,0:0:0:0:
224,32,86016,6,0,L|232:72,1,23.75
288,352,86349,2,0,L|280:312,1,23.75
439,155,86683,6,0,L|416:160,1,23.75
72,228,87016,2,0,P|89:210|100:172,1,47.5
16,276,87349,6,0,L|176:240,1,152
260,284,87849,1,0,0:0:0:0:
344,220,88016,1,0,0:0:0:0:
400,308,88183,2,0,L|504:312,1,95
494,72,88516,2,0,L|400:76,1,95
324,124,88849,6,0,L|288:148,1,23.75
148,224,89099,2,0,L|152:188,1,23.75
168,20,89349,6,0,L|184:52,1,23.75
216,116,89516,1,0,0:0:0:0:
496,72,89849,5,0,0:0:0:0:
148,224,90016,2,0,B|168:20|168:20|324:124|324:124|284:156,1,427.5
228,188,91849,1,0,0:0:0:0:
232,200,92183,1,0,0:0:0:0:
236,212,92516,1,0,0:0:0:0:
80,72,92849,5,4,1:2:0:0:
8,231,93016,2,0,P|61:232|122:204,1,95
115,204,93516,1,0,0:0:0:0:
121,192,93849,1,0,0:0:0:0:
21,350,94016,6,0,P|44:276|16:198,1,142.5
98,114,94349,2,0,P|98:175|123:212,1,95
251,292,94683,2,0,L|364:279,2,95
405,190,95183,1,0,0:0:0:0:
442,363,95349,1,0,0:0:0:0:
273,308,95516,6,0,P|272:261|293:210,1,95
477,202,95849,2,0,P|436:226|390:234,1,95
255,129,96183,2,0,P|263:175|288:216,1,95
338,65,96516,1,0,0:0:0:0:
477,202,96683,6,0,L|288:216,1,190
173,112,97183,1,0,0:0:0:0:
173,112,97349,2,0,P|201:63|306:67,1,142.5
255,129,97683,2,0,L|65:115,1,190
65,115,98099,1,0,0:0:0:0:
65,115,98183,5,0,0:0:0:0:
96,216,98349,1,0,0:0:0:0:
56,312,98516,5,0,0:0:0:0:
200,212,98683,1,0,0:0:0:0:
238,49,98849,2,0,P|196:71|173:112,1,95
156,308,99183,1,0,0:0:0:0:
346,295,99349,6,0,B|375:253|367:184|336:163|336:163|261:173,1,190
150,226,99849,1,0,0:0:0:0:
190,129,100016,1,0,0:0:0:0:
339,301,100183,2,0,L|245:311,1,95
103,155,100516,2,0,P|111:88|148:48,1,95
330,31,100849,5,0,0:0:0:0:
264,196,101016,1,0,0:0:0:0:
237,94,101183,5,0,0:0:0:0:
365,223,101349,1,0,0:0:0:0:
189,270,101516,5,0,0:0:0:0:
330,31,101683,1,0,0:0:0:0:
330,31,102016,6,0,L|325:91,1,47.5
318,172,102349,2,0,L|313:232,1,47.5
306,313,102683,1,0,0:0:0:0:
42,152,103016,5,0,0:0:0:0:
93,214,103183,2,0,P|111:110|12:75,1,227.999993041992
324,228,114183,5,0,0:0:0:0:
468,76,114349,1,0,0:0:0:0:
376,124,114849,1,0,0:0:0:0:
376,124,115016,2,0,L|256:104,1,95
220,192,115349,6,0,L|92:172,1,118.75
92,253,115849,6,0,B|60:240|12:264|12:264|96:184|60:100,1,266
148,44,116516,2,0,L|244:32,1,95
442,33,116849,6,0,L|348:44,1,95
268,112,117183,1,0,0:0:0:0:
292,212,117349,1,0,0:0:0:0:
200,260,117516,2,0,P|152:260|96:272,1,95
0,280,117849,1,0,0:0:0:0:
36,180,118016,6,0,P|120:132|184:48,1,190
268,112,118516,2,0,L|364:104,1,95
486,207,118849,2,0,P|432:192|392:196,1,95
320,268,119183,1,0,0:0:0:0:
468,104,119349,1,0,0:0:0:0:
216,276,119516,6,0,L|104:288,1,95
28,328,119849,1,0,0:0:0:0:
28,328,120016,1,0,0:0:0:0:
44,224,120183,2,0,P|48:176|24:112,1,95
104,52,120516,2,0,P|152:56|216:32,1,95
408,52,120849,6,0,P|324:64|256:144,1,190
264,244,121349,1,0,0:0:0:0:
172,296,121516,2,0,L|68:280,1,95
172,296,121849,1,0,0:0:0:0:
16,196,122016,1,0,0:0:0:0:
264,244,122183,6,0,L|368:232,1,95
376,128,122516,2,0,P|424:120|484:136,1,95
464,336,122849,5,0,0:0:0:0:
364,312,123016,1,0,0:0:0:0:
376,128,123183,1,0,0:0:0:0:
428,216,123349,6,0,L|484:208,1,56.9999982604981
247,243,123683,2,0,L|304:236,1,56.9999982604981
59,267,124016,6,0,P|108:256|100:168,1,142.500005435944
44,96,124516,5,0,0:0:0:0:
80,60,124599,1,0,0:0:0:0:
132,56,124683,1,0,0:0:0:0:
172,92,124766,1,0,0:0:0:0:
180,144,124849,6,0,L|270:130,1,76
80,236,125183,2,0,L|4:247,1,76
264,310,125516,6,0,P|212:264|135:290,1,142.5
109,345,125849,1,0,0:0:0:0:
192,192,126016,1,0,0:0:0:0:
109,345,126183,6,0,P|50:343|17:331,1,95
264,310,126516,1,0,0:0:0:0:
80,236,126683,1,0,0:0:0:0:
264,310,126849,6,0,L|437:291,1,142.5
475,351,127183,2,0,L|485:256,1,95
376,152,127516,5,0,0:0:0:0:
460,88,127683,1,0,0:0:0:0:
332,248,127849,6,0,L|204:240,1,95
41,202,128183,2,0,P|128:200|172:108,1,190
68,100,128683,6,0,P|168:100|268:84,1,190
450,119,129183,2,0,P|403:119|356:124,1,95
280,195,129516,2,0,P|232:199|185:197,1,95
80,184,129849,1,0,0:0:0:0:
140,96,130016,1,0,0:0:0:0:
64,288,130183,5,0,0:0:0:0:
64,288,130516,2,0,L|58:183,1,95
234,78,130849,1,0,0:0:0:0:
189,195,131016,1,0,0:0:0:0:
357,103,131183,1,0,0:0:0:0:
440,288,131349,6,0,P|392:288|344:280,1,95
252,232,131683,1,0,0:0:0:0:
163,176,131849,2,0,P|160:128|150:82,1,95
25,275,132183,2,0,P|72:268|120:272,1,95
208,332,132516,1,0,0:0:0:0:
440,288,132683,5,0,0:0:0:0:
332,148,132849,2,0,L|343:291,1,142.5
349,371,133183,1,0,0:0:0:0:
440,288,133349,1,0,0:0:0:0:
230,269,133516,2,0,L|120:286,1,95
332,148,133849,2,0,P|379:144|425:162,1,95
230,269,134183,6,0,L|219:126,1,142.5
212,48,134516,1,0,0:0:0:0:
332,148,134683,1,0,0:0:0:0:
332,148,134766,1,0,0:0:0:0:
332,148,134849,6,0,P|356:196|344:248,1,95
260,292,135099,2,0,P|206:288|167:252,1,95
156,160,135349,1,0,0:0:0:0:
256,192,135516,5,0,0:0:0:0:
256,192,136016,1,0,0:0:0:0:
235,36,136183,2,0,L|228:112,1,76,0|2,0:0|0:0,0:0:0:0:
156,160,136516,2,0,P|140:120|148:80,1,76,2|2,0:0|0:0,0:0:0:0:
367,88,136849,6,0,P|371:125|356:160,1,76
367,88,137349,1,2,0:0:0:0:
400,164,137516,2,0,P|403:201|388:235,1,76,2|2,0:0|0:0,0:0:0:0:
324,288,137849,1,2,0:0:0:0:
244,268,138016,1,2,0:0:0:0:
84,320,138183,6,0,L|0:304,1,76,4|0,0:0|0:0,0:0:0:0:
9,305,138516,1,0,0:0:0:0:
140,246,138683,2,0,L|56:230,1,76
231,286,139016,2,0,P|225:223|211:200,1,76
123,147,139349,1,0,0:0:0:0:
232,72,139516,6,0,P|195:136|123:147,1,152
148,63,140016,1,0,0:0:0:0:
292,152,140183,1,0,0:0:0:0:
456,64,140349,5,0,0:0:0:0:
396,152,140516,1,0,0:0:0:0:
344,144,140599,1,0,0:0:0:0:
292,152,140683,1,0,0:0:0:0:
252,184,140766,1,0,0:0:0:0:
224,228,140849,6,0,L|129:224,1,95
390,311,141183,2,0,L|296:308,1,95
37,116,141516,2,0,L|132:120,1,95
292,152,141849,1,0,0:0:0:0:
231,42,142016,1,0,0:0:0:0:
182,217,142183,6,0,L|196:329,1,95
238,29,142516,2,0,L|252:141,1,95
327,267,142849,1,0,0:0:0:0:
162,198,143016,1,0,0:0:0:0:
354,76,143183,2,0,L|340:188,1,95
320,360,143516,5,0,0:0:0:0:
320,360,144183,5,0,0:0:0:0:
342,170,144349,1,0,0:0:0:0:
342,170,144683,6,0,L|192:152,1,142.5
104,116,145016,1,0,0:0:0:0:
128,220,145183,1,0,0:0:0:0:
232,144,145349,5,0,0:0:0:0:
80,88,145516,1,0,0:0:0:0:
116,256,145683,1,0,0:0:0:0:
264,136,145849,5,0,0:0:0:0:
56,60,146016,1,0,0:0:0:0:
108,288,146183,5,0,0:0:0:0:
148,160,146349,1,0,0:0:0:0:
217,285,146516,6,0,P|215:249|204:216,1,71.25
148,160,146849,6,0,L|112:164,13,18.999999420166,2|2|2|2|2|2|2|2|2|2|2|2|2|2,0:0|0:0|0:0|0:0|0:0|0:0|0:0|0:0|0:0|0:0|0:0|0:0|0:0|0:0,0:0:0:0:
27,304,147349,6,0,L|242:282,1,190
451,218,147849,2,0,P|429:267|436:320,1,95
266,369,148183,2,0,P|303:330|314:278,1,95
206,87,148516,1,0,0:0:0:0:
311,209,148683,6,0,L|96:187,1,190
4,44,149183,2,0,L|139:30,1,95
206,87,149516,1,0,0:0:0:0:
46,177,149683,1,0,0:0:0:0:
250,272,149849,1,0,0:0:0:0:
126,106,150016,6,0,L|109:298,1,190
257,366,150516,2,0,L|248:254,1,95
109,295,150849,1,0,0:0:0:0:
241,176,151016,1,0,0:0:0:0:
278,351,151183,1,0,0:0:0:0:
278,351,151349,6,0,P|343:338|405:263,1,142.5
325,159,151683,2,0,L|313:253,1,95
424,130,152016,1,0,0:0:0:0:
477,208,152183,1,0,0:0:0:0:
443,39,152349,1,0,0:0:0:0:
230,147,152516,2,0,L|325:159,1,95
154,55,152849,6,0,B|174:81|174:81|172:102|172:102|203:121|221:156|218:198|186:240,1,190
10,303,153349,1,0,0:0:0:0:
36,161,153516,2,0,L|131:173,1,95
159,336,153849,2,0,P|126:295|129:235,1,95
243,119,154183,6,0,L|223:235,1,95
344,194,154516,2,0,L|304:304,1,95
106,362,154849,2,0,P|162:342|197:279,1,95
36,161,155183,2,0,P|25:219|62:281,1,95
225,143,155516,6,0,L|36:161,1,190
229,236,156016,2,0,P|277:197|344:192,1,95
311,283,156349,1,0,0:0:0:0:
131,210,156516,2,0,L|146:85,1,95
156,12,156849,5,0,0:0:0:0:
32,352,157183,1,0,0:0:0:0:
442,116,157516,1,0,0:0:0:0:
308,189,157683,2,0,P|344:193|379:184,1,71.25
252,105,158016,6,0,L|269:302,1,190
81,141,158516,2,0,P|139:124|176:67,1,95
85,45,158849,1,0,0:0:0:0:
211,192,159016,2,0,L|200:289,1,95
11,306,159349,6,0,L|220:284,1,190
366,324,159849,1,0,0:0:0:0:
283,130,160016,2,0,L|294:227,1,95
366,324,160349,1,0,0:0:0:0:
439,202,160516,1,0,0:0:0:0:
259,308,160683,6,0,P|210:260|210:191,1,142.5
283,130,161016,2,0,L|408:138,1,95
202,68,161349,1,0,0:0:0:0:
293,224,161516,1,0,0:0:0:0:
86,136,161683,1,0,0:0:0:0:
86,136,162016,6,0,L|54:139,1,17.812500679493
192,189,162349,2,0,L|210:191,1,17.812500679493
334,139,162683,6,0,L|316:140,1,17.812500679493
440,189,163016,2,0,L|458:191,1,17.812500679493
329,285,163183,1,0,0:0:0:0:
329,285,163349,1,0,0:0:0:0:
238,171,163516,6,0,P|235:116|347:39,1,190
331,38,164016,1,0,0:0:0:0:
440,189,164183,2,0,L|457:15,1,142.5
346,138,164516,2,0,L|354:236,1,95
354,232,164766,1,0,0:0:0:0:
354,232,164849,5,0,0:0:0:0:
96,308,165099,1,0,0:0:0:0:
159,46,165349,1,0,0:0:0:0:
202,195,165516,5,0,0:0:0:0:
202,195,165849,5,0,0:0:0:0:
17,111,166016,2,0,B|28:59|84:54|84:54|88:91|116:114|146:120|146:120|156:124|176:94|203:95|203:95|245:126|296:96|296:96|323:95|338:128|285:124,1,427.5
250,28,167683,5,0,0:0:0:0:
202,195,168016,1,0,0:0:0:0:
250,28,168349,1,0,0:0:0:0:
286,124,168683,1,0,0:0:0:0:
96,73,168849,5,0,0:0:0:0:
