osu file format v9

[General]
AudioFilename: Sakuraon.mp3
AudioLeadIn: 0
PreviewTime: 34779
Countdown: 0
SampleSet: Soft
StackLeniency: 0.7
Mode: 0
LetterboxInBreaks: 1

[Editor]
DistanceSpacing: 0.9
BeatDivisor: 4
GridSize: 8

[Metadata]
Title:Sakurane (TV Size)
Artist:Piko
Creator:Sallad4ever
Version:Normal
Source:Yorinuki Gintama-san
Tags:arien666 arken1015 jericho2442

[Difficulty]
HPDrainRate:4
CircleSize:4
OverallDifficulty:3
ApproachRate:4
SliderMultiplier:0.8
SliderTickRate:1

[Events]
//Background and Video events
Video,0,"Yorinuki Gintama-san ED4.AVI"
0,0,"BG.jpg"
//Break Periods
//Storyboard Layer 0 (Background)
//Storyboard Layer 1 (Fail)
//Storyboard Layer 2 (Pass)
//Storyboard Layer 3 (Foreground)
//Storyboard Sound Samples
//Background Colour Transformations
3,100,255,179,102

[TimingPoints]
952,333.333333333333,4,2,0,100,1,0
3451,-100,4,2,0,70,0,0
3785,-100,4,2,1,100,0,0
8785,-100,4,2,0,70,0,0
9118,-100,4,2,1,100,0,0
14118,-100,4,2,0,70,0,0
14451,-100,4,2,1,100,0,0
19451,-100,4,2,1,70,0,0
19785,-100,4,2,1,100,0,0
22118,-100,4,2,0,70,0,0
22457,-100,4,2,1,100,0,0
27451,-100,4,2,1,100,0,0
35618,-100,4,2,0,100,0,0
59618,-100,4,2,1,100,0,1
80951,-100,4,2,1,100,0,0
90701,-100,4,2,0,80,0,0
91035,-100,4,2,0,60,0,0
91368,-100,4,2,0,40,0,0
91701,-100,4,2,0,20,0,0
92035,-100,4,2,0,0,0,0

[Colours]
Combo1 : 255,6,6
Combo2 : 255,154,53
Combo3 : 255,88,9
SliderBorder : 106,85,0

[HitObjects]
192,192,2951,2,0,B|360:192,2,160,0|4|0
120,192,4618,1,0
48,192,4951,6,0,B|51:248|88:273|144:275|168:244,2,160,2|0|0
48,120,6618,1,0
96,64,6951,2,0,B|136:40|168:64|200:88|256:56,1,160,0|2
392,56,8285,5,0
459,183,8951,2,0,B|411:123|411:123|368:137|328:94,2,160,4|0|2
464,256,10618,1,0
416,304,10951,2,0,B|336:336|256:304,1,160,0|0
192,200,12285,6,0,B|208:160|256:147|304:160|320:200,2,160,0|2|0
256,232,13952,1,0
256,304,14285,6,0,B|176:336|96:304,1,160,4|0
48,256,15285,1,0
48,184,15618,6,0,B|88:184|112:143|112:143|136:184|176:184,2,160,2|0|0
176,112,17618,2,0,B|256:80|336:112,1,160,0|2
256,312,19285,5,0
192,280,19618,2,0,B|208:240|256:227|304:240|320:280,1,160,4|2
352,344,20618,2,0,B|432:344|432:344|416:304|440:264,1,160
408,128,21951,5,0
440,64,22285,2,0,B|480:80|493:128|480:176|440:192,1,160,4|2
368,192,23285,2,0,B|288:192|288:192|288:232|240:248,1,160
216,176,24285,1,2
40,40,25285,5,0
40,112,25618,2,0,B|40:152|81:176|81:176|40:200|40:240,2,160,0|2|0
112,112,27285,1,0
184,112,27618,6,0,B|344:112,2,160,4|8|0
168,184,29285,1,0
192,256,29618,2,0,B|208:296|256:309|304:296|320:256,2,160,8|0|8
72,344,31618,5,0
104,280,31951,2,0,B|144:296|144:352,2,80,0|8|0
32,280,32951,2,0,B|32:224|72:208|112:192|112:136,1,160,4|8
80,80,33951,1,0
152,64,34285,1,4
296,64,34951,5,2
440,64,35618,2,0,B|440:184,1,120,4|0
440,256,36451,1,2
496,304,36785,2,0,B|456:344|401:329|383:301,1,120,0|2
360,240,37618,6,0,B|320:260|312:304|312:304|232:304,1,160,0|4
128,304,38785,1,0
56,296,39118,1,2
0,256,39451,2,0,B|0:128,1,120,0|2
72,136,40285,6,0,B|104:136|128:112|128:80,1,80,0|2
56,64,40952,2,0,B|72:24|112:0|168:8|192:56,1,160,4|0
224,104,41952,1,2
224,104,42118,2,0,B|392:104,1,160,0|0
424,168,43118,1,2
464,232,43452,6,0,B|432:272|376:232|320:200|272:240,1,200,0|0
216,280,44618,1,2
216,280,44785,1,0
144,296,45118,5,0
144,296,45285,2,0,B|112:264|144:224|144:224|96:192|144:160|144:160|112:120|144:88|144:88,1,240,2|4
240,48,46785,2,0,B|328:48,2,80,4|0|4
256,152,47952,5,2
221,215,48285,1,0
293,215,48618,1,0
256,280,48952,5,4
344,344,49452,2,0,B|264:368,2,80,4|0|4
448,304,50618,2,0,B|462:297|462:297|491:283|503:251|486:215|486:215|465:172,1,160,2|0
432,104,51618,6,0,B|384:128|384:184|408:216,1,120,4|0
336,232,52452,1,2
272,272,52785,2,0,B|224:312|160:296,1,120,2|0
128,288,53452,1,0
280,120,54285,6,0,B|224:176|128:152,1,160,4|0
64,128,55285,1,2
256,192,55452,12,4,56952
168,192,58952,6,0,B|336:192,1,160,0|4
400,192,59952,1,0
464,152,60285,2,0,B|432:112|376:120,1,80,0|8
320,112,60952,6,0,B|304:72|256:59|208:72|192:112,1,160,0|0
120,120,61952,1,8
64,160,62285,1,0
56,232,62618,2,0,B|48:320,3,80,8|0|8|4
184,312,64285,6,0,B|184:328|184:328|184:360|208:384|248:384|248:384|296:384,1,160,2|4
369,384,65285,2,0,B|369:336|329:320,1,80,8|0
256,312,65952,1,8
256,240,66285,6,0,B|216:200|256:168|296:136|256:88,1,160
256,24,67285,1,8
192,56,67618,2,0,B|208:96|256:109|304:96|320:56,2,160,0|0|4
56,80,69618,6,0,B|56:160|56:160|104:160|120:216,1,160,2|4
48,232,70618,1,8
96,288,70952,2,0,B|184:288,1,80,0|8
176,360,71618,2,0,B|256:376|336:360,1,160,4|0
336,288,72618,6,0,B|416:288,1,80,8|0
464,232,73285,1,8
395,204,73618,2,0,B|408:160|456:160|456:160|456:80,1,160,0|0
256,32,75285,5,2
192,64,75618,2,0,B|208:104|256:117|304:104|320:64,1,160,4|8
392,64,76618,2,0,B|432:80|472:64|472:64|472:144,1,160,0|0
440,208,77618,1,8
384,256,77952,6,0,B|368:296|320:309|272:296|256:256,1,160,2|0
320,224,78951,2,0,B|303:186|239:167|204:208,2,120,8|0|0
384,256,80285,2,0,B|431:217|416:138|369:118,1,160,8|4
256,32,81618,5,2
184,160,82285,1,4
328,160,82951,1,2
256,160,83285,1,0
256,232,83618,6,0,B|232:280|256:312|288:344|256:392,2,160,4|2|8
256,160,85285,1,0
192,128,85618,2,0,B|208:88|256:75|304:88|320:128,2,160,2|8|2
256,256,87618,1,4
256,192,87701,12,0,92201
