osu file format v9

[General]
AudioFilename: Sakuraon.mp3
AudioLeadIn: 1511
PreviewTime: 34779
Countdown: 0
SampleSet: Soft
StackLeniency: 0.7
Mode: 0
LetterboxInBreaks: 1

[Editor]
DistanceSpacing: 1.3
BeatDivisor: 4
GridSize: 8

[Metadata]
Title:Sakurane (TV Size)
Artist:Piko
Creator:Sallad4ever
Version:Insane
Source:Yorinuki Gintama-san
Tags:arien666 arken1015 jericho2442

[Difficulty]
HPDrainRate:7
CircleSize:4
OverallDifficulty:7
ApproachRate:7
SliderMultiplier:1.8
SliderTickRate:1

[Events]
//Background and Video events
Video,0,"Yorinuki Gintama-san ED4.AVI"
0,0,"BG.jpg"
//Break Periods
//Storyboard Layer 0 (Background)
//Storyboard Layer 1 (Fail)
//Storyboard Layer 2 (Pass)
//Storyboard Layer 3 (Foreground)
//Storyboard Sound Samples
//Background Colour Transformations
3,100,255,179,102

[TimingPoints]
952,333.333333333333,4,2,0,70,1,0
3451,-200,4,2,1,100,0,0
3785,-200,4,2,1,70,0,0
8785,-200,4,2,1,80,0,0
9118,-200,4,2,1,100,0,0
14118,-200,4,2,1,80,0,0
14451,-200,4,2,1,100,0,0
19451,-200,4,2,1,80,0,0
19785,-200,4,2,1,100,0,0
22118,-200,4,2,1,80,0,0
22451,-200,4,2,1,100,0,0
27618,-100,4,2,1,100,0,0
34285,-200,4,2,0,100,0,0
34951,-125,4,2,0,100,0,0
57035,-125,4,2,0,0,0,0
58868,-125,4,2,0,80,0,0
59618,-100,4,2,1,100,0,1
80951,-100,4,2,1,100,0,0
90701,-100,4,2,0,80,0,0
91035,-100,4,2,0,60,0,0
91368,-100,4,2,0,40,0,0
91701,-100,4,2,0,20,0,0
92035,-100,4,2,0,0,0,0

[Colours]
Combo1 : 255,6,6
Combo2 : 255,154,53
Combo3 : 255,88,9
SliderBorder : 106,85,0

[HitObjects]
256,192,952,1,2
256,104,1285,1,0
256,192,1618,1,0
256,280,1951,1,0
177,236,2285,1,2
177,148,2618,1,0
256,104,2951,1,2
335,148,3285,1,0
335,235,3618,6,0,B|335:259|287:259|255:235|223:211|175:211|175:235,1,180,4|2
176,328,4618,1,0
96,376,4951,2,0,B|80:376|80:376|48:376|24:352|24:312|24:312|24:240,1,180,0|2
24,152,5951,1,0
24,64,6285,2,0,B|80:64|120:112|120:160|96:200,1,180,0|2
24,240,7285,2,0,B|49:287|102:282,1,90,0|0
256,280,8285,6,0,B|256:192|256:192|312:192|340:144,1,180,2|4
256,96,9285,1,0
176,48,9618,2,0,B|147:93|158:151|193:182|252:191,1,180,2|0
328,192,10618,1,0
328,104,10951,2,0,B|352:104|352:104|384:104|416:136|416:168|416:168|416:232,2,180,2|0|2
328,104,12952,1,0
120,16,13618,6,0,B|120:40|120:40|120:80|152:104|192:104|192:104|240:104,1,180,2|4
328,104,14618,1,0
328,16,14952,2,0,B|387:18|416:48|432:104|404:152,2,180,2|0|2
256,72,16618,1,0
168,72,16952,2,0,B|144:72|144:72|112:72|80:104|80:144|80:144|80:200,1,180,0|2
80,280,17952,1,0
80,368,18285,1,0
352,368,19285,5,0
264,368,19618,2,0,B|264:312|304:280|344:267|392:288,1,180,4|2
480,312,20618,2,0,B|488:272|480:232|456:208,1,90,0|0
384,200,21285,1,0
296,200,21618,1,2
208,200,21951,1,0
120,200,22285,6,0,B|59:183|52:132,1,90,4|0
64,56,22951,2,0,B|125:73|132:124,1,90,2|0
120,200,23618,1,0
96,288,23951,1,0
160,352,24285,1,2
256,360,24618,1,0
256,360,24951,1,0
408,272,25618,5,2
408,88,26285,1,0
328,56,26618,1,0
240,56,26951,1,2
160,88,27285,1,0
112,160,27618,6,0,B|128:200|112:248|112:248|216:248,2,180,4|2|0
32,208,28451,1,0
32,296,28618,2,0,B|32:336|64:352|96:352|96:352|184:352,1,180,2|0
256,304,29118,1,0
328,248,29285,1,2
256,192,29451,1,0
184,136,29618,2,0,B|211:92|260:80,1,90,0|0
328,32,29951,6,0,B|360:72|336:120|336:120|432:120,1,180,2|0
480,192,30451,1,0
422,264,30618,2,0,B|336:264|336:264|360:312|328:352,1,180,2|0
256,304,31118,1,0
168,304,31285,1,2
208,224,31451,1,0
120,224,31618,2,0,B|160:191|155:140,1,90,0|0
56,144,31951,6,0,B|56:88|104:64,1,90,2|0
192,64,32285,2,0,B|280:64,1,90,0|0
368,16,32618,2,0,B|392:56|368:112,1,90,2|0
312,176,32951,2,0,B|280:216|280:288|304:320|336:344,2,180,4|2|0
376,112,33785,1,0
432,192,33951,2,0,B|416:240,2,45,2|0|0
464,112,34285,6,0,B|464:88|464:88|464:56|432:32|400:32|400:32|320:32,1,180,4|0
248,32,35118,1,2
152,32,35285,2,0,B|120:48|112:88,1,72,0|2
200,112,35618,2,0,B|201:163|154:212|88:208,1,144,4|2
16,208,36118,2,0,B|16:256|16:256|16:296|40:320|88:320|88:320,1,144
200,232,36785,2,0,B|208:264|256:288|304:264|312:232,1,144
312,231,37285,1,2
448,104,37618,5,0
400,24,37785,1,0
320,64,37951,1,2
360,144,38118,1,0
408,224,38285,2,0,B|424:260|424:260|441:296|440:332|390:355|390:355,1,144,4|2
312,320,38785,2,0,B|304:352|256:376|208:352|200:320,1,144
200,64,39451,2,0,B|208:32|256:8|304:32|312:64,1,144
312,64,39952,1,2
200,192,40285,5,0
200,192,40618,1,2
200,192,40952,2,0,B|128:240|152:360|256:400|360:360|384:240|312:192,1,432,4|2
312,96,42118,2,0,B|328:64|312:24|256:0|200:24|184:64|200:96,1,216
164,191,42785,1,2
351,192,43118,5,2
104,232,43452,2,0,B|144:288|216:272|232:232|256:192|280:152|296:112|368:96|408:152,1,360,0|0
448,320,44618,1,2
448,320,44785,1,0
256,320,45118,5,0
184,256,45285,1,2
256,192,45452,1,0
328,128,45618,1,0
256,64,45785,1,0
184,128,45952,1,0
256,192,46118,1,0
328,256,46285,1,4
464,192,46618,5,0
464,192,46785,1,4
328,64,47118,1,0
328,64,47452,2,0,B|256:104|192:64,1,144,4|0
191,63,47952,1,2
56,192,48285,5,0
64,200,48368,1,0
72,208,48452,1,2
80,216,48535,1,0
88,224,48618,1,0
96,232,48702,1,0
104,240,48785,1,0
112,248,48868,1,0
120,256,48952,6,0,B|184:304|264:256,1,144,4|0
255,261,49452,1,4
432,192,49785,1,0
255,261,50118,1,4
255,261,50618,2,0,B|280:232|256:192|232:152|256:120,1,144
288,40,51118,1,0
192,24,51285,1,2
104,56,51452,1,0
56,136,51618,6,0,B|56:168|56:168|56:208|88:232|120:232|120:232|160:232,1,144,4|2
184,312,52118,2,0,B|256:336|328:312,1,144
456,136,52785,2,0,B|456:168|456:168|456:208|424:232|392:232|392:232|352:232,1,144,4|0
304,176,53285,1,2
208,176,53452,1,0
24,176,53785,1,0
120,176,53952,1,2
72,96,54118,1,0
152,56,54285,6,0,B|168:120|232:136|288:112,1,144,4|2
240,32,54785,1,0
264,120,54952,2,0,B|280:184|344:200|400:176,1,144,0|2
352,96,55452,1,0
496,216,55785,1,0
432,288,55952,1,2
344,248,56118,1,0
256,288,56285,5,0
248,288,56368,1,0
240,288,56452,1,2
232,288,56535,1,0
224,288,56618,1,0
216,288,56702,1,0
208,288,56785,1,2
200,288,56868,1,0
192,288,56952,1,4
256,192,57035,12,0,58618
256,192,58952,5,0
256,192,59285,1,2
256,192,59618,2,0,B|352:192,1,90,4|0
488,192,59952,2,0,B|512:144|488:96,1,90,8|0
424,48,60285,2,0,B|400:88|416:136,1,90,0|0
416,224,60618,2,0,B|432:272|416:320,1,90,8|0
328,320,60952,2,0,B|312:368|256:368|200:368|184:320,1,180,2|8
152,232,61452,1,0
192,152,61618,6,0,B|221:104|205:54|184:18|125:12,1,180,0|8
112,104,62118,1,0
56,168,62285,2,0,B|32:216|64:272,1,90,0|0
104,328,62618,2,0,B|152:336|192:296,1,90,8|0
264,256,62952,2,0,B|312:264|352:224,1,90,0|0
400,160,63285,2,0,B|448:168|488:128,1,90,8|0
416,72,63618,2,0,B|376:40|328:72|280:104|240:72,1,180,2|8
160,40,64118,5,0
81,85,64285,2,0,B|41:125|65:189,1,90,2|0
56,256,64618,2,0,B|48:304|88:344,1,90,8|0
184,344,64952,6,0,B|224:344|256:296|256:296|288:344|328:344,2,180,4|8|0
344,256,65952,1,8
344,72,66285,2,0,B|344:168|344:168|400:168|424:224,1,180,2|8
424,296,66785,1,0
344,352,66952,2,0,B|344:256|344:256|288:256|264:200,1,180,0|8
168,72,67618,6,0,B|168:120|192:160|256:168|304:136,1,180,2|8
344,72,68118,1,0
256,72,68285,2,0,B|256:120|280:160|344:168|392:136,1,180,0|8
472,144,68785,1,0
464,232,68952,6,0,B|435:274|368:272,1,90,4|0
296,272,69285,2,0,B|200:272,1,90,8|0
112,272,69618,2,0,B|97:231|125:187|125:187|77:170|61:125,1,180,2|2
88,40,70118,1,0
184,80,70285,6,0,B|272:80,1,90,4|0
368,152,70618,2,0,B|278:152,1,90,8|0
184,224,70952,2,0,B|272:224,1,90,0|0
368,224,71285,1,8
456,224,71452,1,0
480,304,71618,6,0,B|480:328|480:328|480:368|448:384|416:384|416:384|352:384,1,180,2|8
304,304,72118,1,0
208,304,72285,2,0,B|176:352|104:352|64:312|72:272,1,180,0|8
72,192,72785,1,0
136,248,72952,2,0,B|104:296|32:296|-8:256|0:216,1,180,0|8
8,136,73452,1,0
56,64,73618,6,0,B|144:56,1,90,0|0
208,128,73952,2,0,B|304:144,1,90,8|0
384,152,74285,1,2
472,168,74452,1,0
504,256,74618,1,8
472,336,74785,1,0
392,368,74952,2,0,B|328:352|328:288|328:288|248:288,1,180,2|8
176,288,75452,1,0
88,288,75618,6,0,B|88:232|136:208|184:184|168:136,1,180,4|8
24,32,76285,2,0,B|-16:56|0:128|40:168|112:136,1,180,0|2
120,56,76785,2,0,B|160:16|200:56|248:96|296:56,1,180
376,64,77285,2,2,B|376:112|320:144,1,90,2|0
256,192,77618,2,0,B|144:192,1,90,8|0
72,192,77952,1,2
40,272,78118,1,0
80,352,78285,6,0,B|264:352,1,180,4|0
440,352,78951,2,0,B|352:352|352:352|352:288|288:272,1,180,2|0
216,280,79451,2,0,B|216:248|216:248|216:216|248:184|288:184|288:184|344:184,1,180,0|0
416,184,79951,1,2
328,24,80285,5,0
312,24,80368,1,0
296,24,80451,1,2
280,24,80535,1,0
264,24,80618,1,0
248,24,80701,1,0
232,24,80785,1,2
216,24,80868,1,0
200,24,80951,1,4
80,144,81285,5,2
112,224,81451,1,0
176,160,81618,2,0,B|208:128|256:108|304:128|336:160,1,180,0|2
400,224,82118,1,0
472,288,82285,2,0,B|507:244|504:191|480:146|425:135,1,180,4|0
328,32,82951,5,2
256,88,83118,1,0
184,32,83285,1,2
256,88,83451,1,0
328,144,83618,6,0,B|312:184|256:211|200:184|184:144,2,180,4|8|0
408,192,84451,1,0
472,248,84618,2,0,B|472:288|472:288|472:320|448:352|416:352|416:352|360:352,1,180,8|0
312,280,85118,1,0
256,352,85285,1,8
200,280,85451,1,0
144,208,85618,1,0
96,280,85785,1,0
40,352,85951,6,0,B|-3:322|-14:269|8:208|64:192,1,180,8|0
112,136,86451,1,0
192,96,86618,1,8
256,160,86785,2,0,B|256:216,2,45,0|0|8
320,96,87118,1,0
400,136,87285,1,2
440,216,87451,1,0
392,296,87618,1,4
256,192,87701,12,0,92201
