osu file format v9

[General]
AudioFilename: Sakuraon.mp3
AudioLeadIn: 0
PreviewTime: 34779
Countdown: 0
SampleSet: Soft
StackLeniency: 0.7
Mode: 0
LetterboxInBreaks: 1

[Editor]
DistanceSpacing: 0.9
BeatDivisor: 4
GridSize: 8

[Metadata]
Title:Sakurane (TV Size)
Artist:Piko
Creator:Sallad4ever
Version:Easy
Source:Yorinuki Gintama-san
Tags:arien666 arken1015 jericho2442

[Difficulty]
HPDrainRate:2
CircleSize:3
OverallDifficulty:2
ApproachRate:2
SliderMultiplier:0.6
SliderTickRate:1

[Events]
//Background and Video events
Video,0,"Yorinuki Gintama-san ED4.AVI"
0,0,"BG.jpg"
//Break Periods
//Storyboard Layer 0 (Background)
//Storyboard Layer 1 (Fail)
//Storyboard Layer 2 (Pass)
//Storyboard Layer 3 (Foreground)
//Storyboard Sound Samples
//Background Colour Transformations
3,100,255,179,102

[TimingPoints]
952,333.333333333333,4,2,0,100,1,0
3451,-100,4,2,0,70,0,0
3785,-100,4,2,1,100,0,0
8785,-100,4,2,0,70,0,0
9118,-100,4,2,1,100,0,0
14118,-100,4,2,0,70,0,0
14451,-100,4,2,1,100,0,0
19451,-100,4,2,1,70,0,0
19785,-100,4,2,1,100,0,0
22118,-100,4,2,0,70,0,0
22451,-100,4,2,1,100,0,0
27451,-100,4,2,1,100,0,0
34951,-100,4,2,0,100,0,0
59618,-100,4,2,1,100,0,1
80951,-100,4,2,1,100,0,0
90701,-100,4,2,0,80,0,0
91035,-100,4,2,0,60,0,0
91368,-100,4,2,0,40,0,0
91701,-100,4,2,0,20,0,0
92035,-100,4,2,0,0,0,0

[Colours]
Combo1 : 255,6,6
Combo2 : 255,154,53
Combo3 : 255,88,9
SliderBorder : 106,85,0

[HitObjects]
200,216,2951,2,0,B|320:216,2,120,0|4|2
112,280,4951,2,0,B|128:344|208:352,1,120,0|2
313,350,6285,2,0,B|383:343|399:279,2,120,0|2|0
256,256,8285,6,0,B|256:136,1,120,2|4
256,24,9618,1,2
176,96,10285,2,0,B|120:56|64:96,1,120,0|2
120,192,11618,5,0
64,288,12285,2,0,B|120:328|176:288,1,120,2|0
256,216,13618,1,2
336,288,14285,6,0,B|392:328|448:288,1,120,4|2
392,192,15618,2,0,B|408:160|392:128|376:96|400:64,2,120,0|2|0
336,288,17618,1,2
256,216,18285,1,0
80,88,19618,6,0,B|208:88,2,120,4|2|0
40,192,21618,1,2
80,296,22285,6,0,B|208:296,1,120,4|2
256,200,23618,2,0,B|240:176|256:136|272:96|256:72,2,120,0|2|0
312,296,25618,5,2
408,256,26285,1,0
480,176,26951,1,2
480,64,27618,6,0,B|432:16|368:64|304:112|256:64,1,240,4|8
144,64,29618,1,2
56,128,30285,1,8
144,192,30951,6,0,B|192:240|256:192|320:144|368:192,1,240,2|2
368,304,32951,2,0,B|319:255|255:303|191:351|143:303,1,240,8|4
40,264,34951,6,0,B|56:208|128:192,1,120,2|4
208,192,36118,2,0,B|280:192,2,60,0|2|0
344,192,37618,6,0,B|416:184|432:120,1,120,2|4
392,48,38785,2,0,B|448:16,2,60,0|2|0
256,48,40285,5,2
184,128,40952,2,0,B|176:192|256:252|336:192|328:128,1,240,4|0
408,200,42952,1,2
360,296,43618,6,0,B|256:328|152:296,1,210,4|0
88,248,45285,2,0,B|48:215|69:161|91:108|51:75,1,180,2|4
120,32,46785,6,0,B|176:72,2,60,0|2|4
360,48,48952,5,4
416,104,49452,2,0,B|464:152,2,60,0|2|4
344,136,50618,2,0,B|152:136,1,180,2|4
80,136,52118,6,0,B|76:184|112:216|151:222,1,120,2|2
232,224,53285,1,0
392,224,54285,2,0,B|368:256|392:280|416:304|392:336,1,120,4|0
256,192,55452,12,4,56952
256,192,58952,5,2
312,288,59618,2,0,B|368:328|432:288,1,120,4|2
464,192,60952,2,0,B|480:160|464:136|440:104|464:72,1,120,8|2
352,64,62285,5,8
256,120,62952,1,2
160,64,63618,1,8
256,120,64285,1,2
256,224,64952,6,0,B|240:256|256:280|280:312|256:344,1,120,4|2
152,344,66285,2,0,B|104:344|72:304|72:264,1,120,8|0
72,160,67618,6,0,B|136:136|136:64,2,120,8|2|8
32,64,69618,1,2
136,64,70285,6,0,B|256:64,1,120,4|2
200,152,71618,2,0,B|256:192|312:152,1,120,8|2
368,56,72952,5,8
464,104,73618,1,2
408,192,74285,1,8
256,344,75618,6,0,B|256:224,1,120,4|2
256,168,76618,2,0,B|248:120|192:92|136:120|128:168,1,180,0|2
120,272,78285,6,0,B|120:304|120:304|120:328|136:352|160:352|160:352|184:352,1,120,4|2
232,352,79285,2,0,B|416:352,1,180,0|2
464,256,80951,1,4
432,152,81618,5,2
360,72,82285,1,4
256,40,82951,1,0
256,144,83618,6,0,B|208:192|256:256|304:320|256:368,1,240,4|8
168,312,85618,1,2
56,312,86285,2,0,B|56:192|56:192|128:192|160:128,1,240,8|4
256,192,87701,12,0,92201
