osu file format v13

[General]
AudioFilename: 08. Rokuchounen to Ichiya Monogatari.mp3
AudioLeadIn: 0
PreviewTime: 53281
Countdown: 0
SampleSet: Soft
StackLeniency: 0.7
Mode: 0
LetterboxInBreaks: 0
WidescreenStoryboard: 0

[Editor]
DistanceSpacing: 1
BeatDivisor: 4
GridSize: 4
TimelineZoom: 2.200001

[Metadata]
Title:Roku Chounen to Ichiya Monogatari
TitleUnicode:六兆年と一夜物語
Artist:Piko
ArtistUnicode:ピコ
Creator:Arcuntus
Version:Insane
Source:PANDORA VOXX -reboot-
Tags:kemu six trillion years and overnight story suzumu hatsuko ke-sanβ
BeatmapID:503725
BeatmapSetID:214357

[Difficulty]
HPDrainRate:7
CircleSize:4
OverallDifficulty:6
ApproachRate:9
SliderMultiplier:2
SliderTickRate:2

[Events]
//Background and Video events
0,0,"maxresdefault.jpg",0,0
Video,-1699,"RCTM.avi"
//Break Periods
//Storyboard Layer 0 (Background)
//Storyboard Layer 1 (Fail)
//Storyboard Layer 2 (Pass)
//Storyboard Layer 3 (Foreground)
//Storyboard Sound Samples
//Background Colour Transformations
3,100,163,162,255

[TimingPoints]
12636,322.58064516129,4,2,0,75,1,0
17797,-76.9230769230769,4,2,0,90,0,0
21829,-66.6666666666667,4,2,0,80,0,0
22313,-100,4,2,0,75,0,0
33281,-76.9230769230769,4,2,0,80,0,0
43603,-76.9230769230769,4,2,0,85,0,0
48119,-133.333333333333,4,2,0,75,0,0
50700,-66.6666666666667,4,2,0,85,0,0
53281,-133.333333333333,4,2,0,75,0,0
53926,-66.6666666666667,4,2,0,95,0,1
63926,-133.333333333333,4,2,0,90,0,1
64410,-66.6666666666667,4,2,0,95,0,1
74248,-76.9230769230769,4,2,0,90,0,0
83765,-76.9230769230769,4,2,0,80,0,0
84168,-133.333333333333,4,2,0,70,0,0
94571,-76.9230769230769,4,2,0,80,0,0
105539,-76.9230769230769,4,2,0,85,0,0
110055,-133.333333333333,4,2,0,85,0,0
112635,-66.6666666666667,4,2,0,85,0,0
115216,-76.9230769230769,4,2,0,80,0,0
115861,-66.6666666666667,4,2,0,95,0,1
125861,-133.333333333333,4,2,0,90,0,1
126345,-66.6666666666667,4,2,0,95,0,1
136184,-76.9230769230769,4,2,0,80,0,0

[HitObjects]
128,96,12313,5,0,0:0:0:0:
160,136,12394,1,0,0:0:0:0:
192,168,12474,1,0,0:0:0:0:
232,204,12555,1,0,0:0:0:0:
272,232,12636,6,0,P|344:264|400:260,1,100,12|0,0:0|0:0,0:0:0:0:
344,168,12958,2,0,P|400:184|456:240,1,100
452,308,13281,1,0,0:0:0:0:
404,324,13361,1,0,0:0:0:0:
356,336,13442,1,0,0:0:0:0:
304,340,13523,1,0,0:0:0:0:
256,340,13603,2,0,P|184:328|128:304,1,100
76,260,13926,6,8,P|64:164|80:120,1,100,12|8,0:0|0:0,0:0:0:0:
92,68,14248,2,0,P|136:124|144:188,1,100
164,248,14571,1,0,0:0:0:0:
212,232,14652,1,0,0:0:0:0:
260,212,14732,1,0,0:0:0:0:
304,188,14813,1,0,0:0:0:0:
348,164,14894,2,0,P|388:140|432:96,1,100
336,56,15216,5,12,0:0:0:0:
236,60,15377,1,8,0:0:0:0:
144,100,15539,1,0,0:0:0:0:
84,180,15700,1,0,0:0:0:0:
100,280,15861,1,0,0:0:0:0:
148,288,15942,1,0,0:0:0:0:
196,296,16023,1,0,0:0:0:0:
244,300,16103,1,0,0:0:0:0:
296,304,16184,1,0,0:0:0:0:
376,244,16345,5,8,0:0:0:0:
376,244,16426,1,8,0:0:0:0:
376,244,16506,2,8,B|392:192|372:140,1,100,12|8,0:0|0:0,0:0:0:0:
320,60,16829,2,8,L|236:52,3,50,8|8|8|8,0:0|0:0|0:0|0:0,0:0:0:0:
220,48,17152,2,0,P|132:48|96:68,1,100,8|0,0:0|0:0,0:0:0:0:
32,96,17474,2,0,B|44:172|44:172|84:212,1,100,8|0,0:0|0:0,0:0:0:0:
108,332,17797,6,0,P|196:320|260:292,1,129.999994049073,4|0,0:0|0:0,0:0:0:0:
128,232,18119,2,0,P|228:208|292:212,1,129.999994049073,8|0,0:0|0:0,0:0:0:0:
328,264,18442,1,0,0:0:0:0:
364,236,18523,1,0,0:0:0:0:
392,200,18603,1,0,0:0:0:0:
412,160,18684,1,0,0:0:0:0:
420,116,18765,2,0,P|316:96|272:96,1,129.999994049073,8|0,0:0|0:0,0:0:0:0:
164,88,19087,6,0,B|120:136|120:136|104:260,1,129.999994049073,0|0,0:0|0:0,0:0:0:0:
120,332,19410,2,0,B|192:348|192:348|276:336,1,129.999994049073,8|0,0:0|0:0,0:0:0:0:
376,312,19732,2,0,P|428:280|452:252,1,64.9999970245363,4|0,0:0|0:0,0:0:0:0:
460,220,19894,2,0,L|484:140,1,64.9999970245363
476,92,20055,1,8,0:0:0:0:
360,32,20216,1,0,0:0:0:0:
240,76,20377,5,4,0:0:0:0:
196,76,20458,1,0,0:0:0:0:
152,76,20539,1,0,0:0:0:0:
108,76,20619,1,0,0:0:0:0:
64,76,20700,1,0,0:0:0:0:
72,204,20861,6,12,L|160:180,1,64.9999970245363,4|0,0:0|0:0,0:0:0:0:
200,184,21023,2,0,L|288:196,1,64.9999970245363
328,192,21184,1,0,0:0:0:0:
416,260,21345,5,4,0:0:0:0:
372,276,21426,1,0,0:0:0:0:
336,292,21506,1,0,0:0:0:0:
300,308,21587,1,0,0:0:0:0:
264,320,21668,1,0,0:0:0:0:
116,328,21829,6,0,L|84:232,1,75.0000028610231,4|4,0:0|0:0,0:0:0:0:
52,192,21990,2,4,L|80:96,2,75.0000028610231,4|4|4,0:0|0:0|0:0,0:0:0:0:
148,160,22313,1,0,0:0:0:0:
348,160,22636,1,0,0:0:0:0:
424,344,22958,6,0,B|324:344|324:344|228:288,1,200,6|2,0:0|0:0,0:0:0:0:
144,256,23442,1,0,0:0:0:0:
160,156,23603,2,0,B|256:184|256:184|344:260,1,200,2|2,0:0|0:0,0:0:0:0:
432,264,24087,1,0,0:0:0:0:
408,168,24248,2,0,B|340:96|340:96|276:100|248:56,1,200,2|2,0:0|0:0,0:0:0:0:
152,60,24732,1,0,0:0:0:0:
152,60,24894,1,2,0:0:0:0:
80,248,25216,2,0,P|144:304|176:312,1,100,2|0,0:0|0:0,0:0:0:0:
252,336,25539,6,0,P|360:336|452:280,1,200,2|2,0:0|0:0,0:0:0:0:
432,192,26023,1,0,0:0:0:0:
420,92,26184,2,0,L|328:48,1,100,2|0,0:0|0:0,0:0:0:0:
232,44,26506,2,0,L|116:72,1,100,2|0,0:0|0:0,0:0:0:0:
52,124,26829,2,2,P|36:216|48:252,1,100,2|0,0:0|0:0,0:0:0:0:
76,312,27152,2,0,P|136:348|188:348,1,100,2|0,0:0|0:0,0:0:0:0:
156,252,27474,2,0,P|220:280|256:324,1,100,2|0,0:0|0:0,0:0:0:0:
328,352,27797,2,0,L|404:336,3,50,2|0|0|0,0:0|0:0|0:0|0:0,0:0:0:0:
404,300,28119,6,0,B|452:212|452:212|452:100,1,200,6|2,0:0|0:0,0:0:0:0:
408,20,28603,1,0,0:0:0:0:
352,104,28765,2,0,B|324:160|356:208|356:208|276:288,1,200,2|2,0:0|0:0,0:0:0:0:
228,196,29248,1,0,0:0:0:0:
260,100,29410,2,0,P|96:76|36:76,1,200,2|2,0:0|0:0,0:0:0:0:
76,176,29894,1,0,0:0:0:0:
176,184,30055,2,2,P|104:272|112:352,1,200,2|2,0:0|0:0,0:0:0:0:
312,340,30700,6,0,P|432:260|460:196,1,200,2|2,0:0|0:0,0:0:0:0:
412,120,31184,2,0,P|352:208|268:264,1,200,0|0,0:0|0:0,0:0:0:0:
180,288,31668,1,2,0:0:0:0:
180,288,31829,1,0,0:0:0:0:
92,240,31990,2,0,L|188:60,1,200,2|2,0:0|0:0,0:0:0:0:
376,132,32635,2,0,L|281:308,1,200,2|8,0:0|0:0,0:0:0:0:
88,132,33281,6,0,P|232:84|384:76,1,259.999988098145,4|8,0:0|0:0,0:0:0:0:
452,140,33765,1,0,0:0:0:0:
328,180,33926,2,0,B|252:172|208:204|208:204|152:184|76:240,1,259.999988098145,0|8,0:0|0:0,0:0:0:0:
172,332,34410,1,0,0:0:0:0:
300,332,34571,1,0,0:0:0:0:
428,320,34732,2,0,P|380:276|312:252,1,129.999994049073,0|8,0:0|0:0,0:0:0:0:
192,232,35055,2,0,P|100:216|64:176,1,129.999994049073
140,80,35377,1,0,0:0:0:0:
268,52,35539,2,0,P|356:72|420:116,1,129.999994049073,8|0,0:0|0:0,0:0:0:0:
448,208,35861,6,0,B|392:328|392:328|240:360,1,259.999988098145,0|8,0:0|0:0,0:0:0:0:
136,352,36345,1,0,0:0:0:0:
80,236,36506,2,0,B|204:288|204:288|332:264,1,259.999988098145,0|8,0:0|0:0,0:0:0:0:
392,152,36990,1,0,0:0:0:0:
268,192,37152,2,0,B|200:192|152:140,1,129.999994049073
24,128,37474,2,0,P|88:72|144:64,1,129.999994049073,8|0,0:0|0:0,0:0:0:0:
260,88,37797,2,0,P|328:104|408:92,1,129.999994049073
444,216,38119,1,8,0:0:0:0:
380,328,38281,5,0,0:0:0:0:
380,328,38361,1,0,0:0:0:0:
380,328,38442,2,0,P|184:316|128:288,1,259.999988098145,4|8,0:0|0:0,0:0:0:0:
32,204,38926,1,0,0:0:0:0:
52,76,39087,2,0,B|164:24|164:24|320:36,1,259.999988098145,0|8,0:0|0:0,0:0:0:0:
428,56,39571,1,0,0:0:0:0:
484,172,39732,2,0,P|472:296|356:356,1,259.999988098145,0|8,0:0|0:0,0:0:0:0:
232,360,40216,1,0,0:0:0:0:
112,312,40377,1,0,0:0:0:0:
24,216,40539,2,0,L|88:88,2,129.999994049073,0|8|0,0:0|0:0|0:0,0:0:0:0:
148,256,41023,6,0,L|280:200,1,129.999994049073
148,156,41345,2,0,L|280:100,1,129.999994049073,8|0,0:0|0:0,0:0:0:0:
392,68,41668,2,0,L|332:204,1,129.999994049073
468,204,41990,2,0,L|408:340,1,129.999994049073,8|0,0:0|0:0,0:0:0:0:
288,344,42313,5,0,0:0:0:0:
164,312,42474,1,8,0:0:0:0:
256,220,42635,1,0,0:0:0:0:
128,188,42797,1,8,0:0:0:0:
60,80,42958,1,0,0:0:0:0:
188,60,43119,1,8,0:0:0:0:
320,56,43281,1,0,0:0:0:0:
360,80,43361,1,0,0:0:0:0:
392,112,43442,1,0,0:0:0:0:
420,148,43523,1,0,0:0:0:0:
448,184,43603,6,0,P|408:312|296:344,1,259.999988098145,2|0,0:0|0:0,0:0:0:0:
168,344,44087,2,0,P|92:284|48:128,1,259.999988098145,2|0,0:0|0:0,0:0:0:0:
148,48,44571,1,2,0:0:0:0:
148,48,45539,1,0,0:0:0:0:
408,52,45861,1,0,0:0:0:0:
392,312,46184,2,0,P|252:308|136:280,1,239.999992675781,2|8,0:0|0:0,0:0:0:0:
52,176,46668,2,0,B|168:200|168:200|236:160|320:188,1,259.999988098145,0|0,0:0|0:0,0:0:0:0:
424,240,47152,1,2,0:0:0:0:
424,240,48119,5,0,0:0:0:0:
432,88,48442,1,0,0:0:0:0:
288,52,48765,2,0,P|216:48|140:60,1,150.000005722046
40,172,49410,2,0,P|124:172|212:156,1,150.000005722046
340,148,50055,1,0,0:0:0:0:
340,148,50539,5,0,0:0:0:0:
340,148,50619,1,0,0:0:0:0:
340,148,50700,2,0,P|332:256|280:304,1,150.000005722046,8|0,0:0|0:0,0:0:0:0:
220,292,51023,1,0,0:0:0:0:
176,288,51103,1,0,0:0:0:0:
132,276,51184,1,0,0:0:0:0:
92,256,51265,1,0,0:0:0:0:
40,200,51345,6,8,L|180:104,1,150.000005722046
140,216,51668,2,8,L|280:120,1,150.000005722046,8|8,0:0|0:0,0:0:0:0:
240,232,51990,2,8,L|380:136,1,150.000005722046,8|8,0:0|0:0,0:0:0:0:
340,248,52313,2,8,L|480:152,1,150.000005722046,8|8,0:0|0:0,0:0:0:0:
464,268,52635,1,8,0:0:0:0:
240,332,53281,2,0,P|168:292|140:220,1,150.000005722046,0|0,0:0|0:0,0:0:0:0:
404,36,53926,6,4,P|472:136|440:252,1,225.000008583069,4|0,0:0|0:0,0:0:0:0:
400,284,54248,2,0,P|324:340|248:348,1,150.000005722046,8|0,0:0|0:0,0:0:0:0:
120,344,54571,1,0,0:0:0:0:
36,220,54732,1,0,0:0:0:0:
36,220,54813,1,0,0:0:0:0:
36,220,54894,2,0,P|72:112|124:76,1,150.000005722046,8|0,0:0|0:0,0:0:0:0:
244,60,55216,6,0,L|400:68,1,150.000005722046
464,96,55458,1,0,0:0:0:0:
464,172,55539,2,0,P|428:296|400:324,2,150.000005722046,8|0|0,0:0|0:0|0:0,0:0:0:0:
320,216,56023,1,0,0:0:0:0:
320,216,56103,1,0,0:0:0:0:
320,216,56184,2,0,P|280:292|216:364,1,150.000005722046,8|0,0:0|0:0,0:0:0:0:
92,316,56506,6,0,B|0:216|112:88,1,225.000008583069
152,68,56829,2,0,P|216:44|308:36,1,150.000005722046,8|0,0:0|0:0,0:0:0:0:
436,92,57152,2,0,P|361:94|286:104,1,150.000005722046
212,120,57394,1,0,0:0:0:0:
164,176,57474,2,0,P|116:120|44:96,1,150.000005722046,8|0,0:0|0:0,0:0:0:0:
64,244,57797,6,0,B|72:324|140:336|140:336|184:308|252:344,1,225.000008583069
304,352,58119,2,0,B|396:328|396:328|428:268,1,150.000005722046,8|0,0:0|0:0,0:0:0:0:
444,132,58442,1,0,0:0:0:0:
308,68,58603,1,0,0:0:0:0:
256,60,58684,1,0,0:0:0:0:
204,56,58765,1,8,0:0:0:0:
180,156,58926,1,0,0:0:0:0:
128,148,59006,1,0,0:0:0:0:
76,140,59087,6,0,P|28:228|64:356,1,225.000008583069,4|0,0:0|0:0,0:0:0:0:
132,356,59410,2,0,P|232:328|272:296,1,150.000005722046,8|0,0:0|0:0,0:0:0:0:
124,260,59732,1,0,0:0:0:0:
268,224,59894,1,0,0:0:0:0:
268,224,59974,1,0,0:0:0:0:
268,224,60055,2,0,P|384:192|428:164,1,150.000005722046,8|0,0:0|0:0,0:0:0:0:
264,144,60377,5,0,0:0:0:0:
164,28,60539,1,0,0:0:0:0:
164,28,60619,1,0,0:0:0:0:
164,28,60700,2,0,L|32:120,1,150.000005722046,8|0,0:0|0:0,0:0:0:0:
40,264,61023,1,0,0:0:0:0:
176,324,61184,1,0,0:0:0:0:
176,324,61265,1,0,0:0:0:0:
176,324,61345,2,0,P|260:328|356:300,2,150.000005722046,8|0|0,0:0|0:0|0:0,0:0:0:0:
76,212,61829,5,0,0:0:0:0:
120,184,61910,1,0,0:0:0:0:
164,156,61990,1,8,0:0:0:0:
176,260,62152,5,0,0:0:0:0:
220,232,62233,1,0,0:0:0:0:
264,204,62313,1,0,0:0:0:0:
272,308,62474,5,0,0:0:0:0:
316,280,62555,1,0,0:0:0:0:
360,252,62635,1,8,0:0:0:0:
380,356,62797,5,0,0:0:0:0:
424,328,62878,1,0,0:0:0:0:
456,288,62958,2,8,P|484:180|460:104,1,150.000005722046,8|8,0:0|0:0,0:0:0:0:
364,244,63281,2,0,P|336:136|360:60,1,150.000005722046,8|8,0:0|0:0,0:0:0:0:
480,40,63603,1,8,0:0:0:0:
332,60,63926,6,0,P|284:52|224:56,1,75.0000028610231,8|0,0:0|0:0,0:0:0:0:
184,56,64248,1,0,0:0:0:0:
88,172,64410,5,0,0:0:0:0:
88,172,64490,1,0,0:0:0:0:
88,172,64571,2,0,P|68:264|88:320,1,150.000005722046,12|0,0:0|0:0,0:0:0:0:
232,348,64894,2,0,P|324:340|392:316,1,150.000005722046
440,284,65135,1,0,0:0:0:0:
452,208,65216,2,0,B|452:104|452:104|424:44,1,150.000005722046,8|0,0:0|0:0,0:0:0:0:
280,56,65539,6,0,L|64:160,1,225.000008583069
72,228,65861,2,0,B|100:304|100:304|136:308|168:356,1,150.000005722046
308,348,66184,1,0,0:0:0:0:
444,292,66345,1,0,0:0:0:0:
452,240,66426,1,0,0:0:0:0:
460,188,66506,2,0,P|436:96|384:48,1,150.000005722046,8|0,0:0|0:0,0:0:0:0:
248,48,66829,6,0,P|88:88|48:140,1,225.000008583069
48,204,67152,2,0,P|60:300|104:344,1,150.000005722046,8|0,0:0|0:0,0:0:0:0:
188,228,67474,2,0,P|144:148|96:104,1,150.000005722046
60,44,67716,1,0,0:0:0:0:
136,40,67797,2,0,P|200:96|236:152,1,150.000005722046,8|0,0:0|0:0,0:0:0:0:
116,240,68119,5,0,0:0:0:0:
404,324,68442,2,0,L|392:168,1,150.000005722046,8|0,0:0|0:0,0:0:0:0:
336,36,68765,1,0,0:0:0:0:
284,36,68845,1,0,0:0:0:0:
232,44,68926,1,0,0:0:0:0:
180,56,69006,1,0,0:0:0:0:
136,76,69087,2,0,P|60:184|56:224,1,150.000005722046,8|0,0:0|0:0,0:0:0:0:
88,344,69410,6,0,P|200:316|280:240,1,225.000008583069,4|0,0:0|0:0,0:0:0:0:
208,216,69732,2,0,P|136:264|56:268,1,150.000005722046,8|0,0:0|0:0,0:0:0:0:
164,152,70055,2,0,P|264:116|320:112,1,150.000005722046
380,120,70297,1,0,0:0:0:0:
440,164,70377,2,0,P|424:288|396:328,1,150.000005722046,8|0,0:0|0:0,0:0:0:0:
268,348,70700,6,0,P|180:356|72:356,1,150.000005722046
64,304,70942,1,0,0:0:0:0:
52,228,71023,2,0,P|48:168|72:76,1,150.000005722046,8|0,0:0|0:0,0:0:0:0:
212,40,71345,2,0,P|292:36|392:48,1,150.000005722046
436,48,71587,1,0,0:0:0:0:
468,116,71668,2,0,P|472:204|440:288,1,150.000005722046,8|0,0:0|0:0,0:0:0:0:
332,352,71990,1,0,0:0:0:0:
184,332,72152,5,0,0:0:0:0:
132,320,72232,1,0,0:0:0:0:
84,308,72313,1,8,0:0:0:0:
148,228,72474,5,0,0:0:0:0:
196,240,72555,1,0,0:0:0:0:
248,252,72635,1,0,0:0:0:0:
220,148,72797,5,0,0:0:0:0:
168,136,72877,1,0,0:0:0:0:
120,124,72958,1,8,0:0:0:0:
196,52,73119,5,0,0:0:0:0:
244,64,73200,1,0,0:0:0:0:
296,76,73281,2,0,P|372:144|380:236,1,150.000005722046,8|8,0:0|0:0,0:0:0:0:
240,224,73603,2,0,P|272:296|340:328,1,150.000005722046,8|8,0:0|0:0,0:0:0:0:
456,240,73926,1,8,0:0:0:0:
220,340,74248,5,0,0:0:0:0:
180,332,74329,1,0,0:0:0:0:
144,320,74410,1,0,0:0:0:0:
108,304,74490,1,0,0:0:0:0:
68,284,74571,6,0,P|48:192|56:148,1,129.999994049073,4|0,0:0|0:0,0:0:0:0:
156,236,74894,2,0,P|172:164|164:100,1,129.999994049073,8|0,0:0|0:0,0:0:0:0:
52,44,75216,1,0,0:0:0:0:
96,36,75297,1,0,0:0:0:0:
140,32,75377,1,0,0:0:0:0:
184,32,75458,1,0,0:0:0:0:
228,40,75539,2,0,P|300:60|376:108,1,129.999994049073,8|0,0:0|0:0,0:0:0:0:
444,172,75861,6,0,P|452:244|428:320,1,129.999994049073
316,336,76184,2,0,P|256:344|152:336,1,129.999994049073,8|0,0:0|0:0,0:0:0:0:
84,260,76506,1,0,0:0:0:0:
76,216,76587,1,0,0:0:0:0:
68,172,76668,1,0,0:0:0:0:
64,128,76748,1,0,0:0:0:0:
60,84,76829,2,0,P|140:52|200:52,1,129.999994049073,8|0,0:0|0:0,0:0:0:0:
312,56,77152,6,0,P|416:88|448:120,1,129.999994049073
308,144,77474,2,0,P|400:196|472:200,1,129.999994049073,8|0,0:0|0:0,0:0:0:0:
452,328,77797,2,0,P|412:332|376:328,1,64.9999970245363
324,324,77958,2,0,B|288:320|260:312,1,64.9999970245363
196,296,78119,2,0,P|116:280|64:256,1,129.999994049073,8|0,0:0|0:0,0:0:0:0:
52,132,78442,6,0,P|100:68|148:44,1,129.999994049073
272,44,78765,1,8,0:0:0:0:
316,52,78845,1,0,0:0:0:0:
356,72,78926,1,0,0:0:0:0:
392,96,79006,1,0,0:0:0:0:
428,124,79087,2,0,P|456:216|456:276,1,129.999994049073
364,340,79410,2,0,P|256:344|208:336,1,129.999994049073,8|0,0:0|0:0,0:0:0:0:
108,308,79732,6,0,P|76:252|64:180,1,129.999994049073,4|0,0:0|0:0,0:0:0:0:
116,68,80055,2,0,P|156:136|168:212,1,129.999994049073,8|0,0:0|0:0,0:0:0:0:
232,300,80377,2,0,L|304:304,1,64.9999970245363
364,308,80539,2,0,L|436:312,1,64.9999970245363
480,272,80700,2,0,B|472:200|472:200|404:116,1,129.999994049073,8|0,0:0|0:0,0:0:0:0:
320,216,81023,6,0,P|248:224|180:216,1,129.999994049073
288,132,81345,2,0,P|188:136|152:148,1,129.999994049073,8|0,0:0|0:0,0:0:0:0:
84,252,81668,2,0,P|104:328|112:336,1,64.9999970245363,4|0,0:0|0:0,0:0:0:0:
152,344,81829,2,0,L|224:348,1,64.9999970245363
284,352,81990,2,0,P|376:344|436:320,1,129.999994049073,8|0,0:0|0:0,0:0:0:0:
480,224,82313,5,4,0:0:0:0:
436,220,82394,1,0,0:0:0:0:
392,216,82474,1,0,0:0:0:0:
348,212,82555,1,0,0:0:0:0:
304,208,82635,1,0,0:0:0:0:
212,200,82797,5,4,0:0:0:0:
168,196,82877,1,0,0:0:0:0:
124,192,82958,1,0,0:0:0:0:
80,188,83039,1,0,0:0:0:0:
36,184,83119,1,0,0:0:0:0:
36,92,83281,5,4,0:0:0:0:
80,96,83361,1,0,0:0:0:0:
124,100,83442,1,0,0:0:0:0:
168,104,83523,1,0,0:0:0:0:
212,108,83603,1,0,0:0:0:0:
304,116,83765,5,4,0:0:0:0:
348,120,83845,1,4,0:0:0:0:
392,124,83926,1,4,0:0:0:0:
436,128,84006,1,4,0:0:0:0:
480,132,84087,1,4,0:0:0:0:
472,208,84248,2,0,P|432:280|360:332,1,150.000005722046
276,216,84894,6,0,P|208:272|184:336,1,150.000005722046,4|0,0:0|0:0,0:0:0:0:
112,320,85377,1,0,0:0:0:0:
68,260,85539,2,0,P|88:180|144:136,1,150.000005722046
200,96,86023,1,0,0:0:0:0:
204,172,86184,2,0,P|308:132|328:88,1,150.000005722046
344,32,86668,1,0,0:0:0:0:
344,32,86829,1,0,0:0:0:0:
412,64,86990,2,0,L|440:160,2,75.0000028610231,0|0|0,0:0|0:0|0:0,0:0:0:0:
352,112,87474,6,0,L|392:256,1,150.000005722046
468,260,87958,1,0,0:0:0:0:
440,328,88119,2,0,L|284:336,1,150.000005722046
216,340,88603,1,0,0:0:0:0:
236,268,88765,2,0,L|132:272,1,75.0000028610231
156,196,89087,2,0,L|248:192,1,75.0000028610231
228,116,89410,2,0,L|132:120,1,75.0000028610231
148,44,89732,2,0,L|236:40,1,75.0000028610231
300,44,90055,6,0,P|380:40|444:108,1,150.000005722046
364,112,90539,1,0,0:0:0:0:
292,124,90700,2,8,P|336:196|400:212,1,150.000005722046,8|0,0:0|0:0,0:0:0:0:
440,152,91184,1,8,0:0:0:0:
468,224,91345,2,8,P|408:332|360:348,1,150.000005722046,0|0,0:0|0:0,0:0:0:0:
316,344,91829,1,0,0:0:0:0:
324,268,91990,2,0,P|220:312|204:344,1,150.000005722046,8|0,0:0|0:0,0:0:0:0:
136,308,92474,1,0,0:0:0:0:
88,248,92635,6,0,P|148:192|232:176,1,150.000005722046
228,248,93119,2,0,B|296:244|296:244|372:212,1,150.000005722046
348,140,93603,1,0,0:0:0:0:
348,140,93765,1,8,0:0:0:0:
200,136,94087,2,0,L|96:172,2,75.0000028610231,0|0|0,0:0|0:0|0:0,0:0:0:0:
72,112,94571,6,0,P|216:56|324:52,1,259.999988098145,0|8,0:0|0:0,0:0:0:0:
480,260,95216,2,0,P|371:329|243:344,1,259.999988098145,4|8,0:0|0:0,0:0:0:0:
243,344,95700,1,0,0:0:0:0:
116,328,95861,2,0,P|64:224|84:72,1,259.999988098145,0|8,0:0|0:0,0:0:0:0:
200,44,96345,1,0,0:0:0:0:
144,160,96506,2,0,P|171:217|226:251,1,129.999994049073
356,272,96829,2,0,P|312:204|256:184,1,129.999994049073,8|0,0:0|0:0,0:0:0:0:
188,288,97152,2,0,P|236:336|308:348,1,129.999994049073
276,220,97474,2,0,P|372:320|372:352,1,129.999994049073,8|0,0:0|0:0,0:0:0:0:
480,236,97797,6,0,P|447:112|343:40,1,259.999988098145,0|8,0:0|0:0,0:0:0:0:
212,48,98281,1,0,0:0:0:0:
84,76,98442,2,0,B|40:192|40:192|40:344,1,259.999988098145,0|8,0:0|0:0,0:0:0:0:
172,332,98926,1,0,0:0:0:0:
300,328,99087,2,0,P|364:284|400:224,1,129.999994049073
264,240,99410,1,8,0:0:0:0:
324,124,99571,1,0,0:0:0:0:
432,56,99732,2,0,P|476:188|428:316,1,259.999988098145,0|8,0:0|0:0,0:0:0:0:
320,352,100216,5,0,0:0:0:0:
320,352,100297,1,0,0:0:0:0:
320,352,100377,2,0,P|180:308|108:172,1,259.999988098145,0|8,0:0|0:0,0:0:0:0:
48,108,100861,1,0,0:0:0:0:
180,96,101023,2,0,P|120:140|92:192,1,129.999994049073
152,304,101345,2,0,P|204:232|220:168,1,129.999994049073,8|0,0:0|0:0,0:0:0:0:
304,292,101668,2,0,P|352:249|366:187,2,129.999994049073,0|0|8,0:0|0:0|0:0,0:0:0:0:
176,308,102152,1,0,0:0:0:0:
48,308,102313,2,0,P|40:152|72:36,1,259.999988098145,0|8,0:0|0:0,0:0:0:0:
172,132,102797,1,0,0:0:0:0:
164,260,102958,6,0,B|268:196|268:196|408:196,1,259.999988098145,0|8,0:0|0:0,0:0:0:0:
296,268,103442,6,0,B|192:332|192:332|52:332,1,259.999988098145,0|0,0:0|0:0,0:0:0:0:
64,200,103926,2,8,P|108:128|152:116,1,129.999994049073,8|0,0:0|0:0,0:0:0:0:
172,244,104248,6,0,P|244:228|284:188,1,129.999994049073,0|8,0:0|0:0,0:0:0:0:
336,72,104571,2,0,P|276:84|232:144,1,129.999994049073,0|8,0:0|0:0,0:0:0:0:
112,180,104894,2,0,P|128:112|200:64,1,129.999994049073,0|8,0:0|0:0,0:0:0:0:
296,40,105216,1,0,0:0:0:0:
340,36,105297,1,0,0:0:0:0:
384,40,105377,1,0,0:0:0:0:
428,52,105458,1,0,0:0:0:0:
460,84,105539,6,0,P|484:196|428:344,1,259.999988098145,2|8,0:0|0:0,0:0:0:0:
404,204,106023,2,0,P|348:316|196:340,1,259.999988098145,2|2,0:0|0:0,0:0:0:0:
96,340,106506,1,10,0:0:0:0:
356,52,106990,2,0,L|480:132,1,129.999994049073,2|8,0:0|0:0,0:0:0:0:
204,120,107474,2,0,P|324:164|336:184,2,129.999994049073,2|2|8,0:0|0:0|0:0,0:0:0:0:
156,348,108119,6,0,L|68:240,1,129.999994049073,2|2,0:0|0:0,0:0:0:0:
56,116,108442,1,8,0:0:0:0:
168,48,108603,2,0,P|264:28|416:72,1,259.999988098145,2|2,0:0|0:0,0:0:0:0:
496,176,109087,1,8,0:0:0:0:
148,356,109571,2,0,L|44:244,1,129.999994049073,2|8,0:0|0:0,0:0:0:0:
304,352,110055,6,0,P|264:248|212:208,1,150.000005722046,0|0,0:0|0:0,0:0:0:0:
124,124,110700,2,0,P|208:120|300:144,1,150.000005722046
340,268,111345,2,0,P|420:236|460:176,1,150.000005722046
424,40,111990,1,0,0:0:0:0:
160,48,112474,5,0,0:0:0:0:
160,48,112555,1,0,0:0:0:0:
160,48,112635,2,0,P|80:140|68:216,1,150.000005722046,8|0,0:0|0:0,0:0:0:0:
88,272,112958,1,0,0:0:0:0:
124,296,113039,1,0,0:0:0:0:
164,316,113119,1,0,0:0:0:0:
208,328,113200,1,0,0:0:0:0:
252,332,113281,6,8,P|336:328|388:288,1,150.000005722046
240,252,113603,2,8,P|156:296|136:344,1,150.000005722046
164,196,113926,2,8,P|244:172|332:192,1,150.000005722046
432,96,114248,2,8,P|424:188|368:260,1,150.000005722046
320,104,114571,1,8,0:0:0:0:
352,80,115216,6,0,P|296:64|224:84,1,129.999994049073,8|0,0:0|0:0,0:0:0:0:
144,180,115539,1,0,0:0:0:0:
116,216,115620,1,0,0:0:0:0:
96,256,115701,1,0,0:0:0:0:
92,300,115781,1,0,0:0:0:0:
92,344,115861,6,0,P|204:308|304:336,1,225.000008583069,4|0,0:0|0:0,0:0:0:0:
380,344,116184,2,0,P|448:340|484:264,1,150.000005722046,8|0,0:0|0:0,0:0:0:0:
476,124,116506,2,0,P|372:44|336:36,1,150.000005722046
280,36,116748,1,0,0:0:0:0:
204,36,116829,2,0,P|72:60|56:72,1,150.000005722046,8|0,0:0|0:0,0:0:0:0:
52,216,117152,6,0,P|120:176|148:112,1,150.000005722046
72,116,117394,1,0,0:0:0:0:
104,48,117474,2,0,P|188:52|240:108,1,150.000005722046,8|0,0:0|0:0,0:0:0:0:
380,56,117797,2,0,P|452:96|456:184,1,150.000005722046
456,232,118039,1,0,0:0:0:0:
396,280,118119,2,0,P|364:200|392:136,1,150.000005722046,8|0,0:0|0:0,0:0:0:0:
256,64,118442,6,0,P|144:48|72:132,1,225.000008583069
48,196,118765,2,0,P|136:184|168:136,1,150.000005722046,8|0,0:0|0:0,0:0:0:0:
120,280,119087,2,0,P|180:324|264:340,1,150.000005722046
252,340,119329,1,0,0:0:0:0:
328,336,119410,2,0,P|396:316|448:244,1,150.000005722046,8|0,0:0|0:0,0:0:0:0:
440,108,119732,6,0,B|352:40|352:40|224:40,1,225.000008583069
200,104,120055,2,0,P|124:92|96:16,2,150.000005722046,8|0|0,0:0|0:0|0:0,0:0:0:0:
336,172,120539,2,0,P|316:208|320:244,2,75.0000028610231,0|0|8,0:0|0:0|0:0,0:0:0:0:
468,244,120861,2,0,P|476:280|444:328,1,75.0000028610231
388,332,121023,6,0,P|292:348|152:332,1,225.000008583069,4|0,0:0|0:0,0:0:0:0:
100,300,121345,1,8,0:0:0:0:
64,156,121506,1,0,0:0:0:0:
168,48,121668,2,0,P|248:52|284:112,1,150.000005722046
208,112,121910,1,0,0:0:0:0:
136,132,121990,2,0,P|204:188|268:164,1,150.000005722046,8|0,0:0|0:0,0:0:0:0:
332,44,122313,6,0,P|432:92|452:148,1,150.000005722046
446,122,122555,1,0,0:0:0:0:
456,196,122635,2,0,L|416:344,1,150.000005722046,8|0,0:0|0:0,0:0:0:0:
268,344,122958,2,0,P|168:336|112:300,1,150.000005722046
72,260,123200,1,0,0:0:0:0:
44,188,123281,2,0,P|132:204|180:264,1,150.000005722046,8|0,0:0|0:0,0:0:0:0:
320,252,123603,5,0,0:0:0:0:
468,216,123765,2,0,P|472:156|460:116,2,75.0000028610231,0|0|8,0:0|0:0|0:0,0:0:0:0:
416,76,124087,2,0,P|384:52|332:36,2,75.0000028610231,0|0|0,0:0|0:0|0:0,0:0:0:0:
284,144,124410,2,0,P|248:116|216:60,2,75.0000028610231,0|0|8,0:0|0:0|0:0,0:0:0:0:
180,36,124732,1,0,0:0:0:0:
140,52,124813,1,0,0:0:0:0:
104,80,124894,6,8,P|88:196|128:280,1,150.000005722046
188,344,125216,2,8,P|204:268|192:196,1,150.000005722046
100,316,125539,1,8,0:0:0:0:
248,284,125861,6,0,P|320:308|348:308,1,75.0000028610231,8|0,0:0|0:0,0:0:0:0:
392,308,126184,1,0,0:0:0:0:
448,168,126345,5,0,0:0:0:0:
440,124,126426,1,0,0:0:0:0:
428,80,126506,2,0,P|344:44|248:32,1,150.000005722046,12|0,0:0|0:0,0:0:0:0:
136,40,126829,2,0,P|152:124|128:196,1,150.000005722046
76,140,127071,1,0,0:0:0:0:
48,204,127152,2,0,P|68:308|120:340,1,150.000005722046,8|0,0:0|0:0,0:0:0:0:
248,308,127474,6,0,P|264:244|396:176,1,225.000008583069
372,248,127797,2,0,P|460:224|476:172,1,150.000005722046,8|0,0:0|0:0,0:0:0:0:
416,40,128119,2,0,L|208:68,1,150.000005722046
192,72,128361,1,0,0:0:0:0:
120,92,128442,2,0,B|64:156|64:156|64:248,1,150.000005722046,8|0,0:0|0:0,0:0:0:0:
208,176,128765,6,0,P|188:268|316:324,1,225.000008583069
276,256,129087,2,0,P|352:296|360:356,1,150.000005722046,8|0,0:0|0:0,0:0:0:0:
432,220,129410,1,0,0:0:0:0:
384,80,129571,1,0,0:0:0:0:
384,80,129652,1,0,0:0:0:0:
384,80,129732,2,0,P|316:48|216:64,1,150.000005722046,8|0,0:0|0:0,0:0:0:0:
112,128,130055,5,2,0:0:0:0:
320,340,130377,2,0,L|380:184,1,150.000005722046,10|0,0:0|0:0,0:0:0:0:
248,284,130700,1,2,0:0:0:0:
208,264,130781,1,0,0:0:0:0:
172,236,130861,1,0,0:0:0:0:
140,208,130942,1,0,0:0:0:0:
112,172,131023,2,0,P|132:136|240:92,1,150.000005722046,8|0,0:0|0:0,0:0:0:0:
376,68,131345,6,0,P|412:184|392:292,1,225.000008583069,4|0,0:0|0:0,0:0:0:0:
340,336,131668,1,8,0:0:0:0:
192,344,131829,1,0,0:0:0:0:
68,260,131990,2,0,L|40:104,1,150.000005722046,0|0,0:0|0:0,0:0:0:0:
52,36,132232,1,0,0:0:0:0:
128,36,132313,2,0,B|204:36|204:36|296:72,1,150.000005722046,8|0,0:0|0:0,0:0:0:0:
140,132,132635,6,0,P|216:184|292:180,1,150.000005722046
240,116,132877,1,0,0:0:0:0:
196,52,132958,2,0,P|288:44|396:92,1,150.000005722046,8|0,0:0|0:0,0:0:0:0:
432,180,133281,1,0,0:0:0:0:
376,320,133442,1,0,0:0:0:0:
332,332,133523,1,0,0:0:0:0:
288,340,133603,2,0,P|208:344|112:316,1,150.000005722046,8|0,0:0|0:0,0:0:0:0:
56,200,133926,6,0,P|52:88|92:36,1,150.000005722046
140,36,134168,1,0,0:0:0:0:
140,112,134248,2,0,P|248:80|280:52,1,150.000005722046,8|0,0:0|0:0,0:0:0:0:
348,40,134490,1,0,0:0:0:0:
424,44,134571,2,0,P|468:152|448:240,1,150.000005722046
396,160,134813,1,0,0:0:0:0:
328,128,134894,2,0,P|324:204|392:248,1,150.000005722046,8|0,0:0|0:0,0:0:0:0:
456,264,135135,1,0,0:0:0:0:
432,336,135216,6,8,L|232:348,1,150.000005722046
144,280,135539,2,8,L|312:272,1,150.000005722046
168,192,135861,1,8,0:0:0:0:
188,152,135942,1,0,0:0:0:0:
220,116,136023,1,0,0:0:0:0:
256,92,136103,1,0,0:0:0:0:
292,80,136184,2,0,B|320:64|368:72,3,64.9999970245363,0|0|0|0,0:0|0:0|0:0|0:0,0:0:0:0:
396,76,136506,1,4,0:0:0:0:
