osu file format v7

[General]
AudioFilename: The Rose-Colored World.mp3
AudioLeadIn: 0
PreviewTime: 41158
Countdown: 0
SampleSet: Normal
StackLeniency: 0.7
Mode: 0
LetterboxInBreaks: 1

[Editor]
DistanceSpacing: 0.800000011920929
BeatDivisor: 4
GridSize: 8

[Metadata]
Title:The Rose-Colored World
Artist:Pierrot
Creator:ztrot
Version:Normal
Source:GetBackers
Tags:Barairo no Sekai

[Difficulty]
HPDrainRate:3
CircleSize:3
OverallDifficulty:4
SliderMultiplier:1.6
SliderTickRate:1

[Events]
//Background and Video events
0,0,"BG.jpg"
Video,0,"BGvideo.avi"
//Break Periods
//Storyboard Layer 0 (Background)
//Storyboard Layer 1 (Fail)
//Storyboard Layer 2 (Pass)
//Storyboard Layer 3 (Foreground)
//Storyboard Sound Samples
//Background Colour Transformations
3,100,163,162,255

[TimingPoints]
445,357.313006193426,4,1,1,70,1,0
57590,357.313006193426,4,1,1,70,1,0
86296,-100,4,1,1,0,0,0

[HitObjects]
48,336,6162,5,4
48,80,6876,1,0
256,336,7591,5,4
256,80,8305,1,0
464,336,9020,5,4
464,80,9735,1,0
256,232,10449,5,0
144,168,10807,1,8
256,112,11164,1,0
368,168,11521,1,8
368,40,11879,6,0,B|464:40|512:136|464:248|352:248,1,320
128,344,13308,6,0,B|32:344|-16:248|32:136|144:136,1,320,4|0
368,40,14737,6,0,B|464:40|512:136|464:248|352:248,1,320,4|0
144,40,16166,5,0
216,152,16524,1,8
72,152,16881,1,0
144,264,17238,1,8
256,320,17596,6,0,B|432:320|432:80,1,320,4|0
176,88,19025,6,0,B|80:88|32:192|80:296|184:296,1,320,4|8
336,88,20454,6,0,B|432:88|480:192|432:296|328:296,1,320,4|8
256,56,21883,5,0
256,184,22241,1,8
256,312,22598,1,0
256,184,22955,1,8
152,112,23313,6,0,B|168:240|8:240|24:72|112:24,1,320,4|8
360,112,24742,6,0,B|344:240|504:240|488:72|400:24,1,320,4|8
256,240,26171,6,0,B|184:320|128:240|160:176|216:176|256:160|256:48,1,320,4|8
384,280,27600,5,0
472,192,27958,1,8
384,96,28315,1,0
256,96,28672,1,8
256,224,29030,6,4,B|256:352|32:352|32:224,2,320,4|0|4
440,48,31173,5,0
440,176,31531,1,0
440,304,31888,2,0,B|304:304|304:104|448:104,2,320,4|0|4
184,336,34032,5,0
72,280,34389,1,0
72,152,34747,2,0,B|72:24|288:24|288:152,1,320,4|0
288,280,35818,1,0
416,288,36176,6,0,B|496:288|496:16|408:16,1,320,4|0
392,152,37248,1,0
264,152,37605,6,0,B|264:312|88:312|88:152,2,320,4|0|4
176,56,39392,1,8
176,184,39749,1,0
176,56,40106,1,8
176,184,40464,1,4
400,56,41178,6,2,B|552:192|384:352,1,320
112,56,42607,6,2,B|-40:192|128:352,1,320
393,79,44037,6,2,B|261:-69|120:80,1,320
393,288,45466,6,2,B|261:437|120:288,1,320
48,40,46895,5,4
256,192,47610,1,8
464,344,48324,1,4
256,192,49039,1,8
48,40,49754,1,4
152,272,50468,5,0
256,344,50826,1,8
360,272,51183,1,0
256,200,51540,1,8
256,72,51898,1,4
112,56,52612,6,2,B|-40:192|128:352,1,320
400,56,54041,6,2,B|552:192|384:352,1,320
119,79,55471,6,2,B|251:-69|392:80,1,320
119,288,56900,6,2,B|251:437|392:288,1,320
256,72,58304,5,8
256,200,58661,1,0
256,328,59019,1,8
40,192,59733,5,8
8,72,60091,1,0
128,24,60448,6,0,B|256:24|256:232|112:232,2,320,8|0|8
48,120,62235,1,0
32,248,62592,1,8
120,336,62949,1,0
248,336,63307,1,4
464,192,64021,6,2,B|160:80,1,320
48,192,65450,6,2,B|352:80,1,320
256,320,66880,6,2,B|256:-16,1,320
400,216,68309,6,2,B|112:48,1,320
224,216,69559,6,0,B|296:264,2,80
344,184,70274,6,0,B|416:232,2,80
360,312,70989,2,0,B|432:360,2,80,0|0|0
240,344,71703,6,0,B|176:288,2,80,0|0|0
112,344,72418,2,0,B|48:288,2,80,0|0|0
80,216,73133,6,0,B|144:160,2,80,0|0|0
208,224,73847,2,0,B|272:168,2,80,0|0|0
336,224,74562,6,0,B|400:168,2,80,0|0|0
48,192,75455,6,2,B|352:80,1,320
464,192,76884,6,2,B|160:80,1,320
256,320,78314,6,2,B|256:-16,1,320
112,216,79743,6,2,B|400:48,1,320
416,248,80994,6,0,B|488:192,2,80
288,248,81708,2,0,B|360:192,2,80,0|0|0
192,168,82423,6,0,B|264:112,2,80,0|0|0
72,136,83137,2,0,B|136:80,2,80,0|0|0
72,264,83852,6,0,B|8:208,2,80,0|0|0
200,264,84567,2,0,B|136:208,2,80,0|0|0
328,256,85281,6,0,B|264:200,2,80,0|0|0
256,192,86175,12,0,89748
