osu file format v7

[General]
AudioFilename: The Rose-Colored World.mp3
AudioLeadIn: 1500
PreviewTime: 41158
Countdown: 0
SampleSet: Normal
StackLeniency: 0.7
Mode: 0
LetterboxInBreaks: 1

[Editor]
DistanceSpacing: 0.899999976158142
BeatDivisor: 4
GridSize: 8

[Metadata]
Title:The Rose-Colored World
Artist:Pierrot
Creator:ztrot
Version:Hard
Source:GetBackers
Tags:Barairo no Sekai

[Difficulty]
HPDrainRate:5
CircleSize:4
OverallDifficulty:7
SliderMultiplier:1.8
SliderTickRate:1

[Events]
//Background and Video events
0,0,"BG.jpg"
Video,0,"BGvideo.avi"
//Break Periods
//Storyboard Layer 0 (Background)
//Storyboard Layer 1 (Fail)
//Storyboard Layer 2 (Pass)
//Storyboard Layer 3 (Foreground)
//Storyboard Sound Samples
//Background Colour Transformations
3,100,163,162,255

[TimingPoints]
445,357.313006193426,4,1,1,70,1,0
57590,357.313006193426,4,1,1,70,1,0
86296,-100,4,1,1,0,0,0

[HitObjects]
56,336,444,1,4
56,256,623,1,0
192,336,980,1,0
256,288,1159,1,0
232,208,1338,2,0,B|160:208|160:80|240:80,1,180
280,144,1874,1,4
328,80,2052,2,0,B|395:78|395:206|323:206,1,180
392,272,2588,1,0
320,312,2767,1,0
160,312,3124,5,0
88,280,3303,1,4
88,200,3482,2,0,B|176:240|272:200,1,180
224,136,4018,1,0
144,136,4196,2,0,B|144:24|256:24,1,180
296,88,4732,1,4
368,56,4911,2,0,B|480:56|480:184,1,180
440,240,5447,1,0
376,288,5626,1,0
256,176,5983,1,0
256,256,6162,5,8
112,336,6519,1,8
40,192,6876,1,8
112,48,7233,2,8,B|200:16|296:48,1,180,8|0
416,144,7948,1,8
416,304,8305,1,8
256,344,8663,1,8
96,304,9020,5,8
96,144,9377,1,8
256,104,9735,1,8
256,264,10092,1,8
400,192,10449,5,0
400,112,10628,1,0
352,48,10807,1,8
296,104,10985,1,0
256,104,11075,1,0
216,104,11164,1,0
160,48,11343,1,0
112,112,11521,1,8
112,192,11700,1,0
48,240,11879,5,12
176,336,12236,1,8
336,336,12593,1,8
464,240,12950,1,8
440,80,13308,2,8,B|296:192,1,180,4|8
72,80,14022,2,8,B|216:192,1,180,0|8
328,72,14737,5,8
384,224,15094,1,8
256,328,15452,1,8
128,224,15809,1,8
128,144,15988,5,8
152,112,16077,1,8
184,96,16166,1,8
256,64,16345,1,4
256,144,16524,1,8
328,96,16702,1,8
360,112,16792,1,8
384,144,16881,1,8
336,208,17060,1,0
336,288,17238,1,8
256,312,17417,1,0
256,232,17596,6,0,B|168:280|80:232,1,180,4|8
48,72,18310,2,8,B|136:24|224:72,1,180,0|8
464,72,19025,2,0,B|376:24|288:72,1,180,0|8
48,312,19739,2,0,B|136:360|224:312,1,180,0|8
464,312,20454,2,0,B|376:360|288:312,1,180,0|8
288,152,21169,2,4,B|288:48|224:48|224:160,1,180
224,232,21705,5,0
200,264,21794,1,0
176,296,21883,2,0,B|72:296,2,90,8|0|8
256,296,22419,1,0
288,264,22509,1,0
312,232,22598,2,0,B|408:232,3,90,8|0|8|0
464,280,23313,5,8
400,136,23670,1,8
256,56,24027,1,8
112,136,24384,1,8
48,280,24742,2,12,B|128:336|240:328,1,180,12|8
464,280,25456,2,8,B|384:336|272:328,1,180,0|8
256,168,26171,5,8
384,72,26528,1,8
256,168,26886,1,8
128,72,27243,1,8
208,88,27422,5,8
184,120,27511,1,8
200,160,27600,1,8
256,216,27779,1,8
256,216,27958,1,8
312,160,28136,1,8
328,120,28226,1,8
296,88,28315,1,8
256,16,28494,1,8
256,16,28672,1,8
256,16,28851,1,8
176,24,29030,6,0,B|88:72|96:192,1,180,4|0
176,176,29566,2,0,B|183:73|95:25,1,180,4|0
40,88,30101,1,8
40,251,30459,2,0,B|40:312|176:312|175:249,1,180,4|8
256,272,30995,1,0
336,249,31173,2,0,B|336:312|472:312|472:248,1,180,0|8
472,88,31888,6,0,B|472:27|336:27|337:90,1,180,4|8
256,112,32424,1,0
256,192,32603,1,0
256,32,32960,1,8
256,112,33139,1,0
174,88,33317,2,0,B|175:27|39:27|40:88,1,180,0|8
108,130,33853,1,0
108,211,34032,1,0
256,280,34389,1,8
408,328,34747,6,0,B|488:280|488:168,1,180,4|8
384,56,35461,1,0
344,128,35640,1,0
288,72,35818,1,8
256,152,35997,1,0
200,96,36176,2,0,B|144:96|144:232|208:232,1,180,4|8
256,296,36712,1,0
304,232,36890,1,0
360,296,37069,1,0
408,232,37248,1,8
456,296,37426,1,0
488,192,37605,5,4
256,24,37962,1,4
24,192,38320,1,4
256,360,38677,1,4
256,192,39034,6,4,B|144:192|144:80,1,180
256,192,39570,2,0,B|368:192|368:304,2,180
256,112,40464,5,4
400,48,40821,1,8
472,192,41178,1,2
336,288,41535,1,8
176,288,41893,1,2
40,192,42250,1,8
112,48,42607,1,2
256,112,42965,1,8
256,272,43322,1,6
56,48,44037,6,2,B|176:192,2,180,2|10|2
256,40,45109,1,8
456,48,45466,2,2,B|336:192,2,180,2|10|2
256,336,46895,5,0
400,264,47253,1,8
399,100,47610,2,0,B|400:40|264:40|264:99,1,180,4|8
332,141,48146,2,0,B|328:256|208:256,1,180
112,104,48860,1,0
112,184,49039,1,4
256,256,49396,5,8
392,344,49754,1,8
440,192,50111,1,8
440,32,50468,2,2,B|440:128|336:128|336:48,1,180
256,56,51004,2,2,B|280:136|176:152|192:240,1,180
72,104,51719,1,0
152,104,51898,1,4
256,232,52255,5,8
416,232,52612,2,2,B|480:152|416:64,2,180,2|10|2
256,232,53684,1,8
96,232,54041,2,2,B|32:152|96:64,2,180,2|10|2
216,344,55113,1,8
376,304,55471,5,8
256,192,55828,1,8
136,304,56185,1,8
256,192,56543,1,8
384,88,56900,1,0
256,192,57257,1,8
128,88,57590,5,0
56,128,57768,1,0
56,288,58125,1,0
128,320,58304,1,8
120,240,58483,1,0
256,328,58840,1,0
240,248,59019,1,8
320,272,59197,1,0
432,152,59555,1,0
400,224,59733,1,8
352,160,59912,1,0
256,32,60269,5,0
304,96,60448,1,8
224,104,60627,1,0
88,192,60984,1,0
128,264,61163,1,8
168,192,61341,1,0
256,328,61699,1,0
256,248,61877,2,12,B|360:248|360:368,1,180
256,248,62413,2,12,B|152:248|152:368,1,180
40,248,63128,1,0
112,216,63307,5,4
208,88,63664,1,8
64,160,64021,1,8
224,160,64378,1,8
80,88,64736,1,0
184,216,65093,1,8
144,56,65450,1,8
112,216,65808,1,8
208,88,66165,1,0
64,160,66522,1,8
224,160,66880,1,0
64,160,67237,1,8
136,304,67594,5,0
256,192,67952,1,8
376,304,68309,1,0
256,192,68666,1,8
344,56,69024,1,0
168,56,69381,1,8
112,112,69559,5,0
88,192,69738,1,0
168,176,69917,1,0
216,328,70274,1,0
256,256,70453,1,8
296,328,70631,1,0
432,248,70989,1,0
464,176,71167,1,8
384,184,71346,1,0
304,48,71703,1,0
312,128,71882,1,8
240,96,72061,1,0
256,256,72418,5,0
184,296,72597,1,8
120,248,72775,1,0
32,112,73133,1,0
104,144,73311,1,8
96,64,73490,1,0
256,96,73847,1,8
320,144,74026,1,8
328,64,74205,1,0
456,160,74562,5,0
384,200,74741,2,8,B|224:312,1,180
128,200,75455,2,10,B|288:312,1,180
440,320,76170,2,8,B|288:192,1,180,10|8
72,320,76884,2,10,B|224:192,1,180
256,48,77599,6,8,B|256:232,1,180,2|0
168,88,78314,2,2,B|320:208,1,180
344,88,79028,2,8,B|192:208,1,180,10|0
336,296,79743,2,8,B|256:368|168:296,1,180
56,48,80458,5,8
56,128,80636,1,0
192,48,80994,1,0
256,96,81172,1,8
232,176,81351,2,0,B|160:176|160:304|240:304,1,180
280,240,81887,1,8
328,304,82065,2,0,B|395:306|395:178|323:178,1,180
392,112,82601,1,8
320,72,82780,1,0
160,72,83137,5,0
88,104,83316,1,8
88,184,83495,2,0,B|176:144|272:184,1,180
224,248,84031,1,8
144,248,84209,2,0,B|144:360|256:360,1,180
296,296,84745,1,0
368,328,84924,2,8,B|480:328|480:200,1,180,0|8
440,144,85460,5,8
376,96,85639,1,0
256,208,85996,1,0
256,128,86175,1,4
256,192,86353,12,0,89748
