osu file format v14

[General]
AudioFilename: The First Punch lyrics -Pierce The Veil.mp3
AudioLeadIn: 0
PreviewTime: 52661
Countdown: 0
SampleSet: Normal
StackLeniency: 0.7
Mode: 0
LetterboxInBreaks: 0
WidescreenStoryboard: 0

[Editor]
Bookmarks: 10370,20529,31897,43266,53371,72318,73581,78649,83686,88754,91265,93807,96317,116528,136738,146844,156949,177160,182212,197370,202423
DistanceSpacing: 1
BeatDivisor: 2
GridSize: 32
TimelineZoom: 1.950001

[Metadata]
Title:The First Punch
TitleUnicode:The First Punch
Artist:Pierce The Veil
ArtistUnicode:Pierce The Veil
Creator:Milan-
Version:Hard
Source:
Tags:pishifat collide with the sky post hardcore metal punk
BeatmapID:703446
BeatmapSetID:309867

[Difficulty]
HPDrainRate:6
CircleSize:4
OverallDifficulty:6
ApproachRate:8
SliderMultiplier:1.4
SliderTickRate:2

[Events]
//Background and Video events
0,0,"bggg.jpg",0,0
//Break Periods
//Storyboard Layer 0 (Background)
//Storyboard Layer 1 (Fail)
//Storyboard Layer 2 (Pass)
//Storyboard Layer 3 (Foreground)
//Storyboard Sound Samples

[TimingPoints]
9161,315.789473684211,4,1,0,75,1,0
10424,-125,4,1,1,45,0,0
20529,-100,4,1,1,55,0,0
33161,-100,4,1,1,58,0,0
43266,-125,4,1,1,45,0,0
53371,-100,4,1,1,60,0,1
72318,-100,4,1,1,55,0,0
73582,-125,4,1,1,45,0,0
83687,-166.666666666667,4,1,1,50,0,0
84950,-100,4,1,1,55,0,0
86213,-166.666666666667,4,1,1,50,0,0
87476,-100,4,1,1,55,0,0
88739,-100,4,1,1,58,0,0
93792,-166.666666666667,4,1,1,45,0,0
95055,-100,4,1,1,50,0,0
95687,-166.666666666667,4,1,1,50,0,0
96318,-100,4,1,1,60,0,1
116529,-100,4,1,1,50,0,0

[Colours]
Combo1 : 172,114,111
Combo2 : 188,131,67
Combo3 : 92,106,133
SliderBorder : 90,95,120
SliderTrackOverride : 20,20,20

[HitObjects]
291,6,10424,6,0,P|273:58|284:112,1,112,4|0,0:0|0:0,0:0:0:0:
359,64,10897,2,0,L|389:3,2,56,8|0|8,0:0|0:0|0:0,0:0:0:0:
361,154,11371,2,0,L|364:218,1,56,0|8,0:0|0:0,0:0:0:0:
287,257,11687,6,0,L|282:201,1,56,0|8,0:0|0:0,0:0:0:0:
200,165,12003,2,0,L|205:221,1,56,0|8,0:0|0:0,0:0:0:0:
162,299,12318,2,0,P|128:299|97:309,1,56,0|8,0:0|0:0,0:0:0:0:
17,291,12634,2,0,L|3:335,2,28,0|0|8,0:0|0:0|0:0,0:0:0:0:
20,202,12950,6,0,P|44:152|92:126,1,112
182,115,13424,1,8,0:0:0:0:
264,80,13582,2,0,L|328:76,1,56,0|8,0:0|0:0,0:0:0:0:
388,167,13897,2,0,L|332:163,1,56,0|8,0:0|0:0,0:0:0:0:
243,178,14213,6,0,P|188:177|117:190,1,112,2|0,0:0|0:0,0:0:0:0:
47,217,14687,1,0,0:0:0:0:
47,217,14845,2,0,P|31:247|25:285,1,56,2|8,0:0|0:0,0:0:0:0:
116,276,15161,2,0,P|143:276|170:268,1,56,2|8,0:0|0:0,0:0:0:0:
243,185,15476,6,0,P|248:239|283:282,1,112,4|0,0:0|0:0,0:0:0:0:
332,207,15950,1,8,0:0:0:0:
309,120,16108,2,0,P|259:95|204:102,1,112
243,185,16582,1,8,0:0:0:0:
332,207,16739,6,0,L|466:202,1,112,0|0,0:0|0:0,0:0:0:0:
484,283,17213,1,8,0:0:0:0:
484,283,17371,2,0,L|470:355,1,56,0|8,0:0|0:0,0:0:0:0:
394,294,17687,2,0,L|333:335,1,56,0|8,0:0|0:0,0:0:0:0:
241,289,18003,6,0,L|108:293,1,112,2|0,0:0|0:0,0:0:0:0:
41,135,18634,2,0,L|152:138,1,112,2|0,0:0|0:0,0:0:0:0:
252,288,19266,6,0,L|274:320,3,28,8|0|0|0,0:3|0:0|0:0|0:0,0:0:0:0:
309,293,19582,2,0,L|347:300,3,28,4|0|0|0,0:3|0:0|0:0|0:0,0:0:0:0:
362,261,19897,2,0,L|393:238,3,28,8|0|0|0,0:3|0:0|0:0|0:0,0:0:0:0:
381,199,20213,2,0,L|388:160,3,28,8|8|8|8,0:0|0:0|0:0|0:0,0:0:0:0:
346,130,20529,6,0,P|339:95|341:40,2,70,4|8|0,0:0|0:0|0:0,0:0:0:0:
427,87,21003,1,8,0:0:0:0:
479,161,21161,2,0,P|485:195|484:251,2,70,0|8|0,0:0|0:0|0:0,0:0:0:0:
399,205,21634,6,0,P|391:237|390:289,2,70,8|0|8,0:0|0:0|0:0,0:0:0:0:
346,130,22108,2,0,P|344:95|335:61,2,70,0|8|0,0:0|0:0|0:0,0:0:0:0:
301,209,22582,5,14,0:0:0:0:
207,150,22739,1,14,0:0:0:0:
301,209,22897,1,14,0:0:0:0:
207,150,23055,6,0,P|168:134|119:131,2,70,4|8|0,0:0|0:0|0:0,0:0:0:0:
149,221,23529,1,8,0:0:0:0:
170,309,23687,2,0,P|166:344|165:393,2,70,0|8|0,0:0|0:0|0:0,0:0:0:0:
245,256,24161,6,0,P|257:288|258:323,2,70,8|0|8,0:0|0:0|0:0,0:0:0:0:
249,165,24634,2,0,P|236:132|235:97,2,70,8|0|8,0:0|0:0|0:0,0:0:0:0:
335,195,25108,5,14,0:0:0:0:
393,99,25266,1,14,0:0:0:0:
335,195,25424,1,14,0:0:0:0:
393,99,25582,6,0,P|423:74|459:61,2,70,4|8|0,0:0|0:0|0:0,0:0:0:0:
303,113,26055,1,8,0:0:0:0:
236,50,26213,2,0,P|206:25|170:12,2,70,0|8|0,0:0|0:0|0:0,0:0:0:0:
161,102,26687,6,0,P|128:96|76:105,2,70,8|0|8,0:0|0:0|0:0,0:0:0:0:
226,165,27161,2,0,P|243:194|248:240,2,70,0|8|0,0:0|0:0|0:0,0:0:0:0:
165,233,27634,5,14,0:0:0:0:
60,196,27792,1,14,0:0:0:0:
165,233,27950,1,14,0:0:0:0:
60,196,28108,6,0,P|47:162|32:107,2,70,4|8|0,0:0|0:0|0:0,0:0:0:0:
138,147,28582,1,8,0:0:0:0:
195,77,28739,2,0,P|192:42|177:-7,2,70,0|8|0,0:0|0:0|0:0,0:0:0:0:
283,99,29213,6,0,P|269:133|240:159,2,70,8|0|8,0:0|0:0|0:0,0:0:0:0:
338,26,29687,1,0,0:0:0:0:
395,96,29845,2,0,L|406:180,1,70,8|0,0:0|0:0,0:0:0:0:
370,250,30161,1,10,0:0:0:0:
281,231,30318,1,0,0:0:0:0:
200,274,30476,1,10,0:0:0:0:
131,218,30634,6,0,P|112:283|143:344,1,140,0|8,0:0|0:0,0:0:0:0:
200,274,31108,1,8,0:0:0:0:
200,274,31266,2,0,P|218:208|187:147,1,140,12|0,0:0|0:0,0:0:0:0:
243,80,31739,1,8,0:0:0:0:
243,80,31818,1,8,0:0:0:0:
243,80,31897,6,0,P|293:96|345:93,1,105,6|8,0:0|0:0,0:0:0:0:
386,71,32213,2,0,P|363:139|386:177,1,105,8|8,0:0|0:0,0:0:0:0:
414,190,32529,2,0,B|368:226|368:226|362:239|362:239|326:269,1,105,8|0,0:3|0:0,0:0:0:0:
335,305,32845,2,0,B|304:286|278:281|278:281|263:282|263:282|223:274,1,105,8|8,0:0|0:0,0:0:0:0:
243,231,33161,6,0,P|194:268|103:256,1,140,4|0,0:0|0:0,0:0:0:0:
104,251,33555,1,0,0:0:0:0:
93,235,33634,1,8,0:0:0:0:
84,144,33792,2,0,L|46:58,2,70,0|8|0,0:0|0:0|0:0,0:0:0:0:
174,155,34266,1,8,0:0:0:0:
248,102,34424,6,0,P|282:94|316:93,1,70,0|8,0:0|0:0,0:0:0:0:
294,181,34739,2,0,P|328:188|362:189,1,70,0|8,0:0|0:0,0:0:0:0:
414,114,35055,1,0,0:0:0:0:
414,114,35213,1,8,0:0:0:0:
462,192,35371,2,0,L|463:269,1,70,0|8,0:0|0:0,0:0:0:0:
387,313,35687,6,0,L|386:382,2,70,0|8|0,0:0|0:0|0:0,0:0:0:0:
311,260,36161,1,8,0:0:0:0:
234,309,36318,2,0,P|166:308|119:259,1,140
103,168,36792,1,8,0:0:0:0:
204,217,36950,6,0,P|215:183|215:148,1,70,4|0,0:0|0:0,0:0:0:0:
294,101,37266,2,0,P|302:67|321:38,1,70,0|8,0:0|0:0,0:0:0:0:
386,102,37582,5,0,0:0:0:0:
430,210,37739,1,10,0:0:0:0:
386,102,37897,1,10,0:0:0:0:
430,210,38055,1,10,0:0:0:0:
386,102,38213,6,0,L|466:77,2,70,4|8|0,0:0|0:0|0:0,0:0:0:0:
294,101,38687,1,8,0:0:0:0:
222,158,38845,2,0,L|142:133,2,70,0|8|0,0:0|0:0|0:0,0:0:0:0:
248,245,39318,1,8,0:0:0:0:
159,228,39476,6,0,P|94:204|65:143,1,140,0|0,0:0|0:0,0:0:0:0:
156,138,39950,1,8,0:0:0:0:
156,138,40108,2,0,B|206:143|252:137|252:137|272:140|272:140|317:142,1,140,0|0,0:0|0:0,0:0:0:0:
365,82,40582,1,8,0:0:0:0:
447,118,40739,6,0,P|485:174|478:242,1,140,4|8,0:0|0:0,0:0:0:0:
399,196,41213,1,8,0:0:0:0:
399,196,41371,2,0,P|360:252|367:320,1,140,4|8,0:0|0:0,0:0:0:0:
282,335,41845,1,8,0:0:0:0:
282,335,41924,1,8,0:0:0:0:
282,335,42003,6,0,P|232:319|180:322,1,105,4|8,0:0|0:0,0:0:0:0:
139,344,42318,2,0,P|162:276|139:238,1,105,8|8,0:0|0:0,0:0:0:0:
111,225,42634,2,0,B|157:189|157:189|163:176|163:176|199:146,1,105,8|4,0:0|0:3,0:0:0:0:
190,110,42950,2,0,B|221:129|247:134|247:134|262:133|262:133|302:141,1,105,8|0,0:0|0:0,0:0:0:0:
325,118,43266,6,0,P|379:109|430:131,1,112,4|0,0:0|0:0,0:0:0:0:
430,131,43661,1,0,0:0:0:0:
430,131,43739,1,8,0:0:0:0:
512,194,43897,2,0,L|511:260,1,56,0|8,0:0|0:0,0:0:0:0:
471,330,44213,2,0,P|451:312|433:278,1,56,0|8,0:0|0:0,0:0:0:0:
370,369,44529,6,0,L|255:364,1,112
171,341,45003,2,0,P|153:289|172:238,1,112,8|8,0:0|0:0,0:0:0:0:
254,203,45476,2,0,L|242:148,1,56,0|8,0:0|0:0,0:0:0:0:
172,237,45792,6,0,B|119:237|119:237|101:234|101:234|46:233,1,112,4|0,0:0|0:0,0:0:0:0:
100,156,46266,2,0,P|114:109|95:28,1,112,8|8,0:0|0:0,0:0:0:0:
192,26,46739,2,0,L|253:-4,1,56,0|8,0:0|0:0,0:0:0:0:
203,111,47055,6,0,B|259:103|280:109|280:109|325:109,1,112
402,135,47529,2,0,P|457:132|497:94,1,112,8|8,0:0|0:0,0:0:0:0:
419,47,48003,2,0,P|395:35|357:17,1,56,0|8,0:0|0:0,0:0:0:0:
402,135,48318,6,0,P|353:162|298:171,1,112,4|0,0:0|0:0,0:0:0:0:
353,242,48792,2,0,B|374:292|374:292|379:349,1,112,8|8,0:0|0:0,0:0:0:0:
293,370,49266,2,0,P|267:361|243:347,1,56,0|8,0:0|0:0,0:0:0:0:
178,285,49582,6,0,P|154:299|127:308,1,56,0|8,0:0|0:0,0:0:0:0:
47,269,49897,2,0,L|36:199,1,56,0|8,0:0|0:0,0:0:0:0:
64,127,50213,2,0,L|114:179,1,56,0|8,0:0|0:0,0:0:0:0:
182,125,50529,2,0,L|244:100,1,56,0|8,0:0|0:0,0:0:0:0:
227,202,50845,6,0,B|275:206|275:206|301:201|301:201|353:203,1,112,4|0,0:0|0:0,0:0:0:0:
413,265,51318,1,8,0:0:0:0:
413,265,51476,2,0,P|425:240|433:213,1,56,0|8,0:0|0:0,0:0:0:0:
480,309,51792,2,0,P|462:329|437:340,1,56,0|8,0:0|0:0,0:0:0:0:
346,343,52108,6,0,L|272:339,1,56,8|8,0:0|0:0,0:0:0:0:
264,327,52345,1,8,0:0:0:0:
239,314,52424,2,0,L|199:322,3,28,8|8|8|8,0:0|0:0|0:0|0:0,0:0:0:0:
176,308,52739,22,0,B|120:307|120:307|70:293,1,84,4|0,0:3|0:0,0:0:0:0:
68,272,53055,2,0,B|82:233|82:233|83:216|83:216|88:174,1,84,8|0,0:0|0:0,0:0:0:0:
64,149,53371,6,0,P|92:112|204:99,1,140,4|8,0:0|0:0,0:0:0:0:
261,130,53845,1,0,0:0:0:0:
343,92,54003,2,0,L|422:81,1,70,0|0,0:0|0:0,0:0:0:0:
512,128,54318,2,0,B|482:144|454:168|454:168|437:168|437:168|385:177,1,140,8|0,0:0|0:0,0:0:0:0:
217,237,54950,6,0,L|301:244,1,70,8|0,0:0|0:0,0:0:0:0:
181,152,55266,2,0,L|111:157,1,70,0|0,0:0|0:0,0:0:0:0:
146,262,55582,2,0,L|230:269,1,70,8|0,0:0|0:0,0:0:0:0:
51,239,55897,6,0,P|57:308|108:354,1,140,6|8,0:0|0:0,0:0:0:0:
146,262,56371,1,8,0:0:0:0:
191,341,56529,1,2,0:0:0:0:
274,304,56687,1,0,0:0:0:0:
361,330,56845,2,0,P|395:330|430:328,1,70,10|0,0:0|0:0,0:0:0:0:
512,244,57161,6,0,P|442:251|372:252,1,140,6|8,0:0|0:0,0:0:0:0:
309,187,57634,1,8,0:0:0:0:
219,202,57792,2,0,P|222:151|245:116,1,70,0|0,0:0|0:0,0:0:0:0:
311,92,58108,2,0,L|330:62,3,35,8|8|8|8,0:0|0:0|0:0|0:0,0:0:0:0:
366,35,58424,6,0,P|300:32|217:37,1,140,4|8,0:0|0:0,0:0:0:0:
147,81,58897,1,0,0:0:0:0:
57,67,59055,2,0,P|61:106|81:145,1,70,0|0,0:0|0:0,0:0:0:0:
147,81,59371,2,0,L|222:206,1,140,8|0,0:0|0:0,0:0:0:0:
346,331,60003,6,0,L|327:248,1,70,8|0,0:0|0:0,0:0:0:0:
259,339,60318,2,0,P|237:311|226:277,1,70
179,374,60634,2,0,P|157:345|121:311,1,70,8|0,0:0|0:0,0:0:0:0:
35,281,60950,6,0,P|27:314|31:349,1,70,2|0,0:0|0:0,0:0:0:0:
114,242,61266,1,8,0:0:0:0:
114,242,61424,1,8,0:0:0:0:
183,182,61582,2,0,L|342:166,1,140,2|10,0:0|0:0,0:0:0:0:
499,281,62213,6,0,L|359:266,1,140,4|8,0:3|0:0,0:0:0:0:
269,252,62687,1,0,0:0:0:0:
193,302,62845,2,0,L|121:291,1,70,8|8,0:0|0:0,0:0:0:0:
52,234,63161,2,0,L|61:194,3,35,8|8|8|8,0:0|0:0|0:0|0:0,0:0:0:0:
40,158,63476,6,0,P|127:147|202:154,1,140,4|8,0:0|0:0,0:0:0:0:
267,172,63950,1,0,0:0:0:0:
267,172,64108,2,0,L|294:100,1,70,0|0,0:0|0:0,0:0:0:0:
351,12,64424,2,0,L|392:173,1,140,8|0,0:0|0:0,0:0:0:0:
301,307,65055,2,0,L|266:171,1,140,8|0,0:0|0:0,0:0:0:0:
390,37,65687,2,0,L|408:104,1,70,8|0,0:0|0:0,0:0:0:0:
397,212,66003,6,0,B|343:195|343:195|314:193|314:193|266:171,1,140,0|8,0:0|0:0,0:0:0:0:
189,119,66476,1,0,0:0:0:0:
105,160,66634,2,0,L|35:153,1,70,0|0,0:0|0:0,0:0:0:0:
63,238,66950,2,0,P|131:244|183:200,2,140,8|0|12,0:0|0:0|0:0,0:0:0:0:
105,160,67739,5,0,0:0:0:0:
183,200,67897,2,0,L|222:273,1,70,8|8,0:0|0:0,0:0:0:0:
289,316,68213,2,0,L|333:335,3,35,8|8|8|8,0:0|0:0|0:0|0:0,0:0:0:0:
354,361,68529,6,0,P|413:325|480:304,1,140,4|8,0:0|0:0,0:0:0:0:
497,214,69003,1,0,0:0:0:0:
497,214,69161,2,0,L|409:191,1,70,0|0,0:0|0:0,0:0:0:0:
368,128,69476,2,0,B|302:133|302:133|283:131|283:131|225:132,1,140,8|0,0:0|0:0,0:0:0:0:
61,58,70108,6,0,L|130:109,1,70,8|0,0:0|0:0,0:0:0:0:
52,164,70424,2,0,L|121:215,1,70,0|0,0:0|0:0,0:0:0:0:
44,267,70739,2,0,L|113:318,1,70,8|0,0:0|0:0,0:0:0:0:
198,251,71055,6,0,P|157:281|164:381,1,140,6|0,0:0|0:0,0:0:0:0:
238,333,71529,1,8,0:0:0:0:
323,364,71687,1,2,0:0:0:0:
404,323,71845,1,0,0:0:0:0:
424,234,72003,2,0,L|420:153,1,70,8|0,0:0|0:0,0:0:0:0:
337,259,72318,5,14,0:0:0:0:
337,259,72950,1,2,2:1:0:0:
337,259,73582,6,0,L|270:253,1,56,4|0,0:0|0:0,0:0:0:0:
207,202,73897,2,0,P|192:245|229:322,1,112,8|0,0:0|0:0,0:0:0:0:
285,180,74371,1,0,0:0:0:0:
230,106,74529,2,0,P|203:106|175:111,2,56,8|0|0,0:0|0:0|0:0,0:0:0:0:
321,107,75003,1,0,0:0:0:0:
321,107,75161,2,0,L|397:91,1,56,8|0,0:0|0:0,0:0:0:0:
463,177,75476,2,0,L|408:165,1,56,0|0,0:0|0:0,0:0:0:0:
347,258,75792,2,0,L|423:242,1,56,8|0,0:0|0:0,0:0:0:0:
301,191,76108,6,0,L|175:209,1,112,0|8,0:0|0:0,0:0:0:0:
109,278,76582,1,0,0:0:0:0:
109,278,76739,2,0,L|219:293,1,112,0|8,0:0|0:0,0:0:0:0:
298,338,77213,1,0,0:0:0:0:
298,338,77371,6,0,L|338:328,3,28,2|0|2|0,0:0|0:0|0:0|0:0,0:0:0:0:
357,298,77687,2,0,L|397:288,3,28,2|0|2|0,0:0|0:0|0:0|0:0,0:0:0:0:
414,257,78003,2,0,L|489:253,1,56,0|0,2:0|2:0,0:0:0:0:
484,165,78318,2,0,L|428:167,1,56,0|0,2:0|2:0,0:0:0:0:
350,121,78634,6,0,L|281:137,1,56,4|0,0:0|0:0,0:0:0:0:
237,203,78950,2,0,L|102:195,1,112,8|0,0:0|0:0,0:0:0:0:
55,139,79424,1,0,0:0:0:0:
55,139,79582,2,0,L|30:199,1,56,8|0,0:0|0:0,0:0:0:0:
129,114,79897,2,0,L|106:47,1,56,0|0,0:0|0:0,0:0:0:0:
189,17,80213,2,0,L|207:69,1,56,8|0,0:0|0:0,0:0:0:0:
270,134,80529,2,0,P|322:149|376:136,1,112,0|8,0:0|0:0,0:0:0:0:
450,84,81003,1,0,0:0:0:0:
376,136,81161,6,0,B|379:193|379:193|383:212|383:212|384:257,1,112,8|8,0:0|0:3,0:0:0:0:
381,337,81634,1,4,0:3:0:0:
308,278,81792,2,0,L|308:206,2,56,8|4|8,0:3|0:3|0:3,0:0:0:0:
297,367,82266,1,4,0:3:0:0:
225,312,82424,5,4,0:0:0:0:
225,312,83687,6,0,P|308:346|351:282,1,167.999994873047,4|0,0:0|3:0,0:0:0:0:
350,294,84950,6,0,L|363:253,3,35,8|0|8|8,0:0|0:0|0:0|0:0,0:0:0:0:
341,218,85266,2,0,L|342:175,3,35,8|0|8|0,0:0|0:0|0:0|0:0,0:0:0:0:
316,144,85582,2,0,L|306:101,3,35,8|0|8|8,0:0|0:0|0:0|0:0,0:0:0:0:
269,86,85897,2,0,L|249:47,3,35,8|8|8|8,0:0|0:0|0:0|0:0,0:0:0:0:
219,51,86213,6,0,P|136:85|93:21,1,167.999994873047,4|0,0:0|3:0,0:0:0:0:
93,33,87476,6,0,L|74:159,1,105,4|8,0:0|0:0,0:0:0:0:
50,174,87792,2,0,B|52:231|52:231|58:251|58:251|69:309,1,105,8|8,0:0|0:0,0:0:0:0:
54,322,88108,2,0,P|104:340|162:326,1,105,8|8,0:0|0:0,0:0:0:0:
180,293,88424,2,0,B|225:296|247:299|247:299|286:299,1,105,8|8,0:0|0:0,0:0:0:0:
319,270,88739,6,0,L|396:282,1,70,6|0,0:0|0:0,0:0:0:0:
469,238,89055,2,0,L|399:203,1,70,8|0,0:0|0:0,0:0:0:0:
323,167,89371,2,0,L|385:121,1,70,0|0,0:0|0:0,0:0:0:0:
406,38,89687,2,0,L|331:62,1,70,8|0,0:0|0:0,0:0:0:0:
246,136,90003,6,0,L|248:209,1,70,2|0,0:0|0:0,0:0:0:0:
200,283,90318,2,0,L|154:215,1,70,8|0,0:0|0:0,0:0:0:0:
137,136,90634,2,0,L|86:189,1,70,0|0,0:0|0:0,0:0:0:0:
0,207,90950,2,0,L|15:126,1,70,8|0,0:0|0:0,0:0:0:0:
107,65,91266,6,0,P|174:69|214:123,1,140,6|8,0:0|0:0,0:0:0:0:
405,319,91897,2,0,P|337:314|297:260,1,140,8|8,0:0|0:0,0:0:0:0:
263,47,92529,6,0,P|286:95|291:138,1,70,4|0,0:3|0:0,0:0:0:0:
252,195,92845,1,8,0:0:0:0:
252,195,93003,1,8,0:0:0:0:
174,242,93161,1,8,0:0:0:0:
174,242,93318,1,8,0:0:0:0:
89,275,93476,2,0,L|8:266,1,70,8|8,0:0|0:0,0:0:0:0:
101,185,93792,5,4,0:0:0:0:
101,185,94424,1,0,2:0:0:0:
101,185,95055,5,4,0:3:0:0:
186,216,95213,1,8,0:0:0:0:
276,208,95371,1,8,0:0:0:0:
341,144,95529,1,8,0:0:0:0:
430,152,95687,6,0,L|448:235,1,83.9999974365235,8|0,0:0|3:0,0:0:0:0:
448,235,96318,6,0,P|420:272|308:285,1,140,4|8,0:0|0:0,0:0:0:0:
251,254,96792,1,0,0:0:0:0:
169,292,96950,2,0,L|90:303,1,70,0|0,0:0|0:0,0:0:0:0:
0,256,97266,2,0,B|29:239|57:215|57:215|74:215|74:215|126:206,1,140,8|0,0:0|0:0,0:0:0:0:
295,147,97897,6,0,L|211:140,1,70,8|0,0:0|0:0,0:0:0:0:
331,232,98213,2,0,L|400:226,1,70,0|0,0:0|0:0,0:0:0:0:
366,122,98529,2,0,L|282:115,1,70,8|0,0:0|0:0,0:0:0:0:
460,144,98845,6,0,P|454:75|403:29,1,140,6|8,0:0|0:0,0:0:0:0:
366,122,99318,1,8,0:0:0:0:
321,43,99476,1,2,0:0:0:0:
238,80,99634,1,0,0:0:0:0:
151,53,99792,2,0,P|116:53|81:55,1,70,10|0,0:0|0:0,0:0:0:0:
0,140,100108,6,0,P|69:132|139:131,1,140,2|8,0:0|0:0,0:0:0:0:
203,197,100582,1,8,0:0:0:0:
293,182,100739,2,0,P|290:233|267:268,1,70,0|0,0:0|0:0,0:0:0:0:
201,292,101055,2,0,L|182:322,3,35,8|8|8|8,0:0|0:0|0:0|0:0,0:0:0:0:
146,349,101371,6,0,P|211:351|295:347,1,140,4|8,0:0|0:0,0:0:0:0:
365,303,101845,1,0,0:0:0:0:
455,317,102003,2,0,P|451:278|431:239,1,70,0|0,0:0|0:0,0:0:0:0:
365,303,102318,2,0,L|290:178,1,140,8|0,0:0|0:0,0:0:0:0:
166,53,102950,6,0,L|185:136,1,70,8|0,0:0|0:0,0:0:0:0:
253,45,103266,2,0,P|272:71|292:120,1,70
333,10,103582,2,0,P|356:43|390:72,1,70,8|0,0:0|0:0,0:0:0:0:
477,103,103897,6,0,P|484:69|480:34,1,70,2|0,0:0|0:0,0:0:0:0:
398,142,104213,1,8,0:0:0:0:
398,142,104371,1,8,0:0:0:0:
329,202,104529,2,0,L|170:218,1,140,2|10,0:0|0:0,0:0:0:0:
13,103,105161,6,0,L|152:117,1,140,4|8,0:3|0:0,0:0:0:0:
243,132,105634,1,0,0:0:0:0:
319,82,105792,2,0,L|391:93,1,70,8|8,0:0|0:0,0:0:0:0:
460,150,106108,2,0,L|451:190,3,35,8|8|8|8,0:0|0:0|0:0|0:0,0:0:0:0:
472,226,106424,6,0,P|385:237|310:230,1,140,4|8,0:0|0:0,0:0:0:0:
245,212,106897,1,0,0:0:0:0:
245,212,107055,2,0,L|218:284,1,70,0|0,0:0|0:0,0:0:0:0:
161,372,107371,2,0,L|120:211,1,140,8|0,0:0|0:0,0:0:0:0:
211,77,108003,2,0,L|245:212,1,140,8|0,0:0|0:0,0:0:0:0:
122,347,108634,2,0,L|103:279,1,70,8|0,0:0|0:0,0:0:0:0:
114,171,108950,6,0,B|169:189|169:189|198:191|198:191|246:213,1,140,0|8,0:0|0:0,0:0:0:0:
323,265,109424,1,0,0:0:0:0:
407,224,109582,2,0,L|477:231,1,70,0|0,0:0|0:0,0:0:0:0:
448,145,109897,2,0,P|380:139|328:183,2,140,8|8|8,0:0|0:0|0:0,0:0:0:0:
407,224,110687,5,0,0:0:0:0:
329,184,110845,2,0,L|290:111,1,70,8|8,0:0|0:0,0:0:0:0:
223,68,111161,2,0,L|179:49,3,35,8|8|8|8,0:0|0:0|0:0|0:0,0:0:0:0:
157,22,111476,6,0,P|98:58|31:79,1,140,4|8,0:0|0:0,0:0:0:0:
15,170,111950,1,0,0:0:0:0:
15,170,112108,2,0,L|103:193,1,70,0|0,0:0|0:0,0:0:0:0:
144,256,112424,2,0,B|210:251|210:251|228:252|228:252|287:252,1,140,8|0,0:0|0:0,0:0:0:0:
451,326,113055,6,0,L|382:275,1,70,8|0,0:0|0:0,0:0:0:0:
460,220,113371,2,0,L|391:169,1,70,0|0,0:0|0:0,0:0:0:0:
468,117,113687,2,0,L|399:66,1,70,8|0,0:0|0:0,0:0:0:0:
317,131,114003,6,0,L|175:129,1,140,14|8,0:0|0:0,0:0:0:0:
218,47,114476,1,0,0:0:0:0:
177,129,114634,2,0,P|160:195|186:259,1,140,10|8,0:0|0:0,0:0:0:0:
317,131,115266,6,0,L|340:88,3,35,10|8|0|0,0:0|0:0|0:0|0:0,0:0:0:0:
377,112,115582,2,0,L|423:97,3,35,0|0|0|0,0:0|0:0|0:0|0:0,0:0:0:0:
451,121,115897,2,0,P|489:156|490:211,1,105,0|0,0:0|0:0,0:0:0:0:
493,252,116213,2,0,P|437:266|384:354,1,140,8|4,0:0|0:0,0:0:0:0:
