osu file format v13

[General]
AudioFilename: Pierce the Veil - May These Noises Startle You In Your Sleep Tonight.mp3
AudioLeadIn: 0
PreviewTime: 66591
Countdown: 0
SampleSet: None
StackLeniency: 0.7
Mode: 0
LetterboxInBreaks: 0
WidescreenStoryboard: 1

[Editor]
DistanceSpacing: 1
BeatDivisor: 4
GridSize: 4
TimelineZoom: 1.2

[Metadata]
Title:May These Noises Startle You In Your Sleep Tonight
TitleUnicode:May These Noises Startle You In Your Sleep Tonight
Artist:Pierce The Veil
ArtistUnicode:Pierce The Veil
Creator:pishifat
Version:Normal
Source:
Tags:post-hardcore alternative collide with the sky
BeatmapID:423336
BeatmapSetID:175173

[Difficulty]
HPDrainRate:3.5
CircleSize:3.3
OverallDifficulty:3.5
ApproachRate:4.5
SliderMultiplier:1
SliderTickRate:1

[Events]
//Background and Video events
0,0,"tree.jpg",0,0
//Break Periods
//Storyboard Layer 0 (Background)
//Storyboard Layer 1 (Fail)
//Storyboard Layer 2 (Pass)
//Storyboard Layer 3 (Foreground)
//Storyboard Sound Samples
//Background Colour Transformations
3,100,163,162,255

[TimingPoints]
2553,461.538461538462,4,2,1,8,1,0
3476,-100,4,2,1,10,0,0
4399,-100,4,2,1,12,0,0
5322,-100,4,2,1,14,0,0
6245,-100,4,2,1,16,0,0
7168,-100,4,2,1,18,0,0
8091,-100,4,2,1,20,0,0
10860,476.190476190476,4,2,1,20,1,8
11812,458.015267175573,4,2,1,20,1,0
13644,448.765893792072,4,2,1,20,1,0
14092,465.116279069767,4,2,1,20,1,8
15487,465.116279069767,4,2,1,20,1,0
15952,447.761194029851,4,2,1,20,1,8
16399,472.44094488189,4,2,1,20,1,8
17343,461.538461538462,4,2,1,20,1,0
17804,441.176470588235,4,2,1,20,1,8
18245,461.538461538462,4,2,1,20,1,8
19168,461.538461538462,4,2,1,20,1,0
19629,476.190476190476,4,2,1,20,1,8
20105,-100,4,2,1,30,0,0
20581,451.127819548872,4,2,1,30,1,8
21032,444.444444444444,4,2,1,30,1,0
21476,461.538461538462,4,2,1,30,1,8
21937,476.190476190476,4,2,1,30,1,8
22889,476.190476190476,4,2,1,30,1,0
22889,-100,4,2,1,25,0,0
23365,419.58041958042,4,2,1,25,1,8
23784,461.538461538462,4,2,1,25,1,8
24245,472.44094488189,4,2,1,25,1,8
24717,472.44094488189,4,2,1,25,1,0
25189,441.176470588235,4,2,1,25,1,8
25630,476.190476190476,4,2,1,25,1,8
26106,447.761194029851,4,2,1,25,1,8
26553,467.653936087295,4,2,1,25,1,0
28891,431.654676258993,4,2,1,25,1,8
29322,483.870967741935,4,2,1,25,1,8
29805,440.205429200293,4,2,1,25,1,8
30245,480,4,2,1,25,1,0
30725,443.458980044346,4,2,1,25,1,8
31168,461.538461538462,4,2,1,25,1,8
32091,461.538461538462,4,2,1,25,1,0
33937,480,4,2,1,25,1,0
34417,-100,4,2,1,30,0,0
34897,425.531914893617,4,2,1,35,1,8
34897,-100,4,2,1,33,0,0
35322,461.538461538462,4,2,1,35,1,8
35783,461.538461538462,4,2,1,35,1,0
35783,-100,4,2,1,35,0,0
37168,480,4,2,1,35,1,8
37168,-100,4,2,1,31,0,0
37648,480,4,2,1,8,1,0
37648,-100,4,2,1,28,0,0
38128,425.531914893617,4,2,1,32,1,8
38553,461.538461538462,4,2,1,32,1,8
39476,461.538461538462,4,2,1,32,1,0
45014,-100,4,2,1,35,0,0
45937,-100,4,2,1,42,0,0
48707,-100,4,2,1,55,0,0
49629,-100,4,2,1,60,0,0
50553,-100,4,2,1,85,0,0
51476,-100,4,2,1,100,0,0
52399,-100,4,3,2,85,0,0
52514,-100,4,3,1,70,0,0
54706,447.761194029851,4,3,1,70,1,8
55153,459.770114942529,4,3,1,70,1,8
56072,459.770114942529,4,2,2,70,1,0
56532,465.116279069767,4,3,1,70,1,8
57462,475.059382422803,4,3,1,70,1,8
57937,461.538461538462,4,3,1,70,1,0
59783,-100,4,2,2,70,0,0
60706,-100,4,3,1,70,0,0
63475,457.317073170732,4,2,2,70,1,0
63932,-100,4,3,1,70,0,0
64846,476.190476190476,4,3,1,70,1,8
65322,461.538461538462,4,3,1,70,1,0
66706,-100,4,3,1,70,0,0
67168,-100,4,3,1,75,0,0
77322,451.127819548872,4,3,1,75,1,8
78224,472.44094488189,4,2,1,75,1,0
78224,-100,4,2,1,100,0,0
79168,461.538461538462,4,2,1,75,1,8
79398,-100,4,3,1,75,0,0
80091,461.538461538462,4,2,1,100,1,0
80091,-100,4,3,1,100,0,0
81014,456.273764258555,4,3,1,100,1,8
81698,-100,4,1,1,80,0,0
81926,461.538461538462,4,3,1,80,1,0
81926,-100,4,3,1,80,0,1
92541,453.857791225416,4,3,1,80,1,0
92994,459.066564651875,4,3,1,70,1,0
92994,-100,4,3,1,70,0,0
94830,492.610837438424,1,3,1,70,1,0
95322,461.538461538462,4,3,1,55,1,0
99014,-100,4,3,1,55,0,0
102706,-100,4,2,2,60,0,0
103168,-100,4,3,1,60,0,0
104552,-100,4,2,2,60,0,0
105014,-100,4,3,1,60,0,0
106398,459.770114942529,4,2,2,50,1,0
106857,-100,4,3,1,50,0,0
108237,-100,4,3,1,70,0,0
109616,-80,4,3,1,70,0,0
109961,-100,4,3,3,100,0,0

[Colours]
Combo1 : 122,115,90
Combo2 : 109,154,177
Combo3 : 134,174,141
Combo4 : 191,171,197
Combo5 : 197,181,124
Combo6 : 192,141,133

[HitObjects]
256,192,2553,12,0,7168,0:0:0:0:
305,86,8091,6,0,P|208:84|144:158,1,200,2|0,0:0|0:0,0:0:0:0:
144,256,9476,1,0,0:0:0:0:
224,316,9937,2,0,P|243:253|233:211,2,100,2|0|0,0:0|0:0|0:0,0:0:0:0:
132,356,11336,1,0,0:0:0:0:
48,304,11812,6,0,P|24:240|76:124,1,200,2|0,0:0|0:0,0:0:0:0:
168,88,13186,1,0,0:0:0:0:
268,96,13644,2,0,P|308:132|320:181,1,100,2|0,0:0|0:0,0:0:0:0:
268,260,14557,2,0,P|288:312|328:344,1,100
420,312,15487,6,0,P|421:244|302:178,1,196,2|0,0:0|0:0,0:0:0:0:
225,194,16871,1,0,0:0:0:0:
132,156,17343,2,0,P|128:102|160:54,1,100,2|0,0:0|0:0,0:0:0:0:
243,24,18245,1,0,0:0:0:0:
320,87,18706,1,0,0:0:0:0:
312,189,19168,54,0,L|304:296,1,100,2|0,0:0|0:0,0:0:0:0:
370,367,20105,2,0,B|418:362|418:362|466:343,1,100,6|0,0:0|0:0,0:0:0:0:
481,246,21032,2,0,B|441:218|441:218|374:196,1,100,6|0,0:0|0:0,0:0:0:0:
312,260,21937,2,0,L|257:302,2,50,6|0|0,0:0|0:0|0:0,0:0:0:0:
393,201,22889,6,0,P|393:123|376:93,1,100,2|0,0:0|0:0,0:0:0:0:
302,162,23784,2,0,P|261:179|194:162,1,100,2|0,0:0|0:0,0:0:0:0:
119,116,24717,1,2,0:0:0:0:
34,62,25189,1,0,0:0:0:0:
35,162,25630,2,0,P|71:200|129:210,1,100,2|0,0:0|0:0,0:0:0:0:
196,144,26553,6,0,P|229:107|280:81,1,100,2|0,0:0|0:0,0:0:0:0:
372,82,27488,1,2,0:0:0:0:
453,141,27955,1,0,0:0:0:0:
472,242,28423,2,0,P|445:284|400:304,1,100,2|0,0:0|0:0,0:0:0:0:
306,273,29322,2,0,P|338:226|392:204,1,100,2|0,0:0|0:0,0:0:0:0:
401,305,30245,53,2,0:0:0:0:
323,379,30725,1,0,0:0:0:0:
219,358,31168,2,0,P|177:330|148:290,1,100,2|0,0:0|0:0,0:0:0:0:
115,188,32091,1,2,0:0:0:0:
217,212,32552,2,0,P|279:236|319:229,2,100,0|2|0,0:0|0:0|0:0,0:0:0:0:
187,111,33937,5,2,0:0:0:0:
288,84,34417,1,0,0:0:0:0:
386,119,34897,2,0,B|411:162|411:162|421:217,1,100,6|0,0:0|0:0,0:0:0:0:
392,306,35783,1,6,0:0:0:0:
322,235,36244,1,0,0:0:0:0:
295,327,36706,2,0,L|300:380,2,50,6|0|0,0:0|0:0|0:0,0:0:0:0:
228,257,37648,6,0,P|198:224|150:192,1,100,2|0,0:0|0:0,0:0:0:0:
84,124,38553,1,2,0:0:0:0:
129,38,39014,1,0,0:0:0:0:
226,44,39476,2,0,P|269:51|323:100,1,100,2|0,0:0|0:0,0:0:0:0:
233,143,40399,2,0,P|209:182|206:237,1,100,2|0,0:0|0:0,0:0:0:0:
303,214,41322,53,2,0:0:0:0:
397,180,41783,1,0,0:0:0:0:
474,245,42245,2,0,P|476:311|449:355,1,100,2|0,0:0|0:0,0:0:0:0:
380,281,43168,1,2,0:0:0:0:
397,180,43629,1,0,0:0:0:0:
303,149,44091,2,0,P|239:181|219:220,1,100,2|0,0:0|0:0,0:0:0:0:
189,296,45014,5,6,0:0:0:0:
122,222,45476,1,0,0:0:0:0:
126,122,45937,1,6,0:0:0:0:
64,44,46399,1,0,0:0:0:0:
162,27,46860,2,0,B|208:14|208:14|270:17,2,100,6|0|6,0:0|0:0|0:0,0:0:0:0:
126,122,48245,1,0,0:0:0:0:
152,220,48706,6,0,B|181:258|181:258|234:289,1,100,6|0,0:0|0:0,0:0:0:0:
324,269,49629,2,0,B|351:229|351:229|362:158,1,100,6|0,0:0|0:0,0:0:0:0:
256,192,50552,1,6,0:0:0:0:
256,192,51476,1,6,0:0:0:0:
256,192,52399,5,4,0:2:0:0:
160,212,52860,2,0,L|144:280,2,50,2|0|2,0:0|0:0|0:0,0:0:0:0:
148,164,53552,2,4,L|124:104,1,50,4|4,0:0|0:0,0:0:0:0:
232,104,54245,1,8,0:0:0:0:
327,133,54706,1,2,0:0:0:0:
424,140,55153,1,2,0:0:0:0:
472,124,55382,2,0,L|504:80,2,50,4|4|4,0:0|0:0|0:0,0:0:0:0:
468,176,56072,5,4,0:2:0:0:
411,258,56532,2,0,L|372:311,1,50,2|0,0:0|0:0,0:0:0:0:
334,307,56997,1,2,0:0:0:0:
290,282,57229,2,4,L|275:211,1,50,4|4,0:0|0:0,0:0:0:0:
184,262,57937,1,8,0:0:0:0:
115,189,58398,1,2,0:0:0:0:
191,124,58860,2,0,B|167:75|167:75|142:55,2,75,8|4|4,0:0|0:0|0:0,0:0:0:0:
208,172,59783,5,4,0:2:0:0:
328,8,60706,1,2,0:0:0:0:
335,57,60937,2,4,L|348:122,1,50,4|4,0:0|0:0,0:0:0:0:
362,203,61629,1,4,0:0:0:0:
325,295,62090,1,4,0:0:0:0:
280,384,62552,2,0,P|232:371|192:336,1,100,2|0,0:0|0:0,0:0:0:0:
140,251,63475,53,4,0:2:0:0:
84,167,63932,2,0,L|22:128,1,50,2|0,0:0|0:0,0:0:0:0:
44,90,64389,1,2,0:0:0:0:
89,69,64618,2,4,L|150:105,1,50,4|4,0:0|0:0,0:0:0:0:
216,156,65322,2,0,L|271:146,2,50,2|2|2,0:0|0:0|0:0,0:0:0:0:
128,200,66245,1,4,0:0:0:0:
188,280,66706,2,0,L|236:236,1,50,2|0,0:0|0:0,0:0:0:0:
260,212,67168,6,0,B|300:184|300:184|360:176,1,100,4|0,0:0|0:0,0:0:0:0:
424,248,68091,2,0,B|468:220|468:220|496:180,1,100,0|2,0:0|0:0,0:0:0:0:
492,80,69014,2,0,B|452:48|452:48|396:36,1,100,4|0,0:0|0:0,0:0:0:0:
320,92,69937,2,0,B|292:132|292:132|248:160,1,100,0|2,0:0|0:0,0:0:0:0:
152,140,70860,5,4,0:0:0:0:
128,237,71322,1,0,0:0:0:0:
225,257,71783,1,0,0:0:0:0:
249,159,72245,1,2,0:0:0:0:
320,92,72706,2,0,B|368:81|368:81|421:94,1,100,4|0,0:0|0:0,0:0:0:0:
462,183,73629,2,0,L|511:177,2,50,0|0|2,0:0|0:0|0:0,0:0:0:0:
364,196,74553,54,0,B|316:201|316:201|258:240,1,100,4|0,0:0|0:0,0:0:0:0:
176,205,75476,2,0,B|148:164|148:164|92:140,1,100,0|2,0:0|0:0,0:0:0:0:
12,188,76399,2,0,B|1:238|1:238|16:297,1,100,4|0,0:0|0:0,0:0:0:0:
112,281,77322,2,0,L|176:205,1,100,0|2,0:0|0:0,0:0:0:0:
235,124,78224,5,2,0:3:0:0:
414,193,79399,2,0,L|432:248,2,50,0|0|0,0:0|0:0|0:0,0:0:0:0:
400,144,80091,1,0,0:0:0:0:
333,70,80552,1,0,0:0:0:0:
298,162,81014,2,0,B|283:215|241:242|241:242|196:222,1,150,0|0,0:0|1:0,0:0:0:0:
152,197,81926,5,6,0:0:0:0:
85,122,82387,2,0,B|77:93|77:93|88:20,2,100,0|0|2,0:0|0:0|0:0,0:0:0:0:
184,100,83772,1,6,0:0:0:0:
278,72,84233,2,0,B|304:67|304:67|375:104,2,100,0|0|2,0:0|0:0|0:0,0:0:0:0:
269,122,85387,1,0,0:0:0:0:
276,172,85618,53,6,0:0:0:0:
283,271,86079,2,0,B|247:275|214:250|214:250|140:270|94:203,1,200,0|2,0:0|0:0,0:0:0:0:
44,132,87464,1,6,0:0:0:0:
105,53,87926,2,0,B|134:77|141:117|141:117|209:107|256:156,1,200,0|2,0:0|0:0,0:0:0:0:
285,195,89079,1,0,0:0:0:0:
300,242,89310,5,6,0:0:0:0:
256,332,89772,2,0,B|314:376|314:376|341:380,2,100,0|0|2,0:0|0:0|0:0,0:0:0:0:
181,266,91156,1,6,0:0:0:0:
124,187,91618,2,0,B|142:112|142:112|161:97,2,100,0|0|2,0:0|0:0|0:0,0:0:0:0:
144,232,92767,1,0,0:0:0:0:
181,266,92994,5,4,0:0:0:0:
277,239,93453,1,4,0:0:0:0:
277,139,93912,1,4,0:0:0:0:
182,107,94371,1,4,0:0:0:0:
123,187,94830,2,0,L|62:227,1,50,8|0,0:0|0:0,0:0:0:0:
72,263,95322,54,0,B|98:305|98:305|148:330,1,100,6|2,0:0|0:0,0:0:0:0:
225,270,96245,2,0,B|255:230|255:230|302:211,1,100,2|2,0:0|0:0,0:0:0:0:
401,210,97168,1,2,0:0:0:0:
455,126,97629,1,2,0:0:0:0:
404,39,98091,2,0,B|359:15|359:15|294:11,1,100,2|10,0:0|0:0,0:0:0:0:
247,90,99014,6,0,L|148:144,1,100,2|2,0:0|0:0,0:0:0:0:
220,216,99937,2,0,L|315:166,1,100,2|2,0:0|0:0,0:0:0:0:
398,126,100860,1,2,0:0:0:0:
451,210,101322,1,2,0:0:0:0:
421,305,101783,1,2,0:0:0:0:
323,327,102245,1,8,0:0:0:0:
302,229,102706,6,0,B|305:178|305:178|286:124,1,100,4|4,0:2|0:0,0:0:0:0:
371,75,103629,2,0,B|411:104|411:104|462:120,1,100,2|4,0:0|0:0,0:0:0:0:
510,205,104552,2,0,L|408:240,1,100,4|4,0:2|0:0,0:0:0:0:
320,269,105475,1,2,0:0:0:0:
221,250,105937,1,4,0:0:0:0:
139,190,106398,54,0,B|116:146|116:146|112:89,1,100,4|4,0:2|0:0,0:0:0:0:
171,14,107317,2,0,B|222:11|222:11|273:24,1,100,2|4,0:0|0:0,0:0:0:0:
364,55,108237,5,2,0:0:0:0:
324,146,108696,1,2,0:0:0:0:
421,170,109156,1,2,0:0:0:0:
384,260,109616,2,12,L|480:287,1,93.75,2|8,0:0|0:0,0:0:0:0:
