osu file format v14

[General]
AudioFilename: king.mp3
AudioLeadIn: 0
PreviewTime: 26415
Countdown: 0
SampleSet: Normal
StackLeniency: 0.7
Mode: 0
LetterboxInBreaks: 0
WidescreenStoryboard: 1

[Editor]
Bookmarks: 17189,25685,33915,34180,38163,38694,40552,68163,77057,77189,104070,119269,119402,124380
DistanceSpacing: 0.5
BeatDivisor: 4
GridSize: 8
TimelineZoom: 1.7

[Metadata]
Title:King For A Day (feat Kellin Quinn)
TitleUnicode:King For A Day (feat Kellin Quinn)
Artist:Pierce The Veil
ArtistUnicode:Pierce The Veil
Creator:pishifat
Version:Insanother
Source:
Tags:collide the sky metal punk sleeping with sirens
BeatmapID:679817
BeatmapSetID:297909

[Difficulty]
HPDrainRate:6
CircleSize:6
OverallDifficulty:7.7
ApproachRate:8.9
SliderMultiplier:1.15
SliderTickRate:1

[Events]
//Background and Video events
0,0,"ptvnotflip.png",0,0
//Break Periods
2,41615,42924
2,60597,64030
2,86084,89517
2,135066,136375
//Storyboard Layer 0 (Background)
//Storyboard Layer 1 (Fail)
//Storyboard Layer 2 (Pass)
//Storyboard Layer 3 (Foreground)
//Storyboard Sound Samples

[TimingPoints]
721,276.497695852535,4,1,1,20,1,0
9292,265.486725663717,4,1,1,50,1,8
9557,265.486725663717,4,1,1,50,1,0
10353,-153.846153846154,4,1,1,50,0,0
10618,-100,4,1,1,50,0,0
10884,-153.846153846154,4,1,1,50,0,0
11149,-100,4,1,1,50,0,0
12477,-153.846153846154,4,1,1,50,0,0
12742,-100,4,1,1,50,0,0
13008,-153.846153846154,4,1,1,50,0,0
13273,-100,4,1,1,50,0,0
14601,-116.279069767442,4,1,1,50,0,0
15397,-100,4,1,1,50,0,0
16725,-153.846153846154,4,1,1,50,0,0
16990,-100,4,1,1,50,0,0
20043,-100,4,1,1,50,0,0
22167,-100,4,1,1,50,0,0
29136,-100,4,1,1,20,0,0
29203,-100,4,1,1,50,0,0
32256,-100,4,1,1,20,0,0
32388,-100,4,1,1,50,0,0
36039,-100,4,1,1,20,0,0
36105,-100,4,1,1,50,0,0
43539,-133.333333333333,4,1,1,45,0,1
59999,-111.111111111111,4,1,1,45,0,1
60397,-100,4,1,1,50,0,0
64645,-105.263157894737,4,1,1,50,0,0
68893,-125,4,1,1,40,0,0
76459,-111.111111111111,4,1,1,50,0,0
77388,-111.111111111111,4,1,1,50,0,0
84424,-111.111111111111,4,1,1,50,0,0
85486,-125,4,1,1,50,0,0
85884,-100,4,1,1,50,0,0
91791,-100,4,1,1,20,0,0
91857,-100,4,1,1,50,0,0
95508,-100,4,1,1,20,0,0
95574,-100,4,1,1,50,0,0
100087,-103.092783505155,4,1,1,50,0,0
100353,-114.942528735632,4,1,1,50,0,0
100618,-129.87012987013,4,1,1,50,0,0
100884,-114.942528735632,4,1,1,50,0,0
101680,-106.382978723404,4,1,1,50,0,0
102477,-200,4,1,1,50,0,0
103008,-133.333333333333,4,1,1,45,0,1
119335,-117.647058823529,4,1,1,45,0,1
119866,-133.333333333333,4,1,1,45,0,0
119999,-133.333333333333,4,1,1,45,0,1
127698,-125,4,1,1,45,0,1
128495,-133.333333333333,4,1,1,45,0,1
134866,-142.857142857143,4,1,1,45,0,0
136990,-100,4,1,1,45,0,1
137256,-100,4,1,1,33,0,1
138052,-125,4,1,1,45,0,0
138185,-100,4,1,1,20,0,0
138318,-100,4,1,1,45,0,0

[Colours]
Combo1 : 185,174,130
Combo2 : 168,191,145
Combo3 : 116,167,155
SliderBorder : 90,95,120
SliderTrackOverride : 20,20,20

[HitObjects]
195,118,9292,5,8,0:0:0:0:
257,189,9424,6,0,B|289:192|289:192|304:200|304:200|339:195|367:213,1,115,6|2,0:0|0:0,0:0:0:0:
242,293,9822,1,8,0:0:0:0:
194,220,9955,2,0,P|163:207|117:198,1,57.5,0|2,0:0|0:0,0:0:0:0:
257,189,10220,1,2,0:0:0:0:
195,118,10353,1,8,0:0:0:0:
203,109,10618,6,0,L|279:102,1,57.5,2|2,0:0|0:0,0:0:0:0:
339,56,10884,1,8,0:0:0:0:
348,66,11149,2,0,P|385:75|428:70,1,57.5,2|2,0:0|0:0,0:0:0:0:
477,27,11415,1,8,0:0:0:0:
460,123,11548,6,0,B|463:162|463:162|470:177|470:177|475:245,1,115,6|2,0:0|0:0,0:0:0:0:
383,159,11946,2,0,B|354:151|354:151|308:145,1,57.5,8|0,0:0|0:0,0:0:0:0:
270,249,12211,1,2,0:0:0:0:
336,216,12344,1,2,0:0:0:0:
252,158,12477,1,8,0:0:0:0:
243,168,12742,6,0,L|168:175,1,57.5,2|2,0:0|0:0,0:0:0:0:
86,192,13008,1,8,0:0:0:0:
94,201,13273,2,0,P|101:229|95:266,1,57.5,2|2,0:0|0:0,0:0:0:0:
22,182,13539,1,8,0:0:0:0:
31,293,13672,6,0,B|66:298|66:298|158:290,1,115,6|2,0:0|0:0,0:0:0:0:
241,237,14070,1,8,0:0:0:0:
278,320,14203,2,0,B|305:324|305:324|351:328,1,57.5,0|2,0:0|0:0,0:0:0:0:
408,309,14468,1,2,0:0:0:0:
321,244,14601,1,8,0:0:0:0:
332,250,14866,6,0,P|337:202|346:139,1,98.9000015090943,2|8,0:0|0:0,0:0:0:0:
411,371,15397,2,0,L|349:367,1,57.5,2|2,0:0|0:0,0:0:0:0:
278,320,15663,1,8,0:0:0:0:
211,384,15795,6,0,P|191:349|202:269,1,115,6|2,0:0|0:0,0:0:0:0:
271,198,16194,2,0,L|203:204,1,57.5,8|0,0:0|0:0,0:0:0:0:
81,180,16459,1,2,0:0:0:0:
142,228,16591,1,0,0:0:0:0:
199,138,16724,1,8,0:0:0:0:
211,143,16990,5,2,0:0:0:0:
292,109,17123,1,8,0:0:0:0:
292,109,17189,1,8,0:0:0:0:
292,109,17256,1,8,0:0:0:0:
373,150,17388,1,8,0:0:0:0:
375,68,17521,1,8,0:0:0:0:
336,202,17654,2,0,B|341:230|341:230|355:267,1,57.5,8|4,0:3|0:3,0:0:0:0:
295,112,17919,6,0,B|259:103|259:103|166:106,1,115,6|2,0:0|0:0,0:0:0:0:
161,227,18318,2,0,P|112:216|90:201,1,57.5,8|0,0:0|0:0,0:0:0:0:
217,183,18583,1,2,0:0:0:0:
243,264,18716,1,2,0:0:0:0:
298,166,18849,1,8,0:0:0:0:
343,244,18981,6,0,L|413:250,1,57.5,0|2,0:0|0:0,0:0:0:0:
307,172,19247,1,2,0:0:0:0:
298,294,19380,2,0,P|345:313|376:313,1,57.5,8|0,0:0|0:0,0:0:0:0:
457,312,19645,1,2,0:0:0:0:
389,362,19778,1,2,0:0:0:0:
352,253,19910,1,8,0:0:0:0:
268,355,20043,6,0,B|230:358|230:358|135:343,1,115,6|2,0:0|0:0,0:0:0:0:
244,248,20441,1,8,0:0:0:0:
173,218,20574,2,0,P|146:217|114:220,1,57.5,0|2,0:0|0:0,0:0:0:0:
181,288,20840,1,2,0:0:0:0:
236,173,20972,1,8,0:0:0:0:
308,203,21105,6,0,L|372:205,1,57.5,0|2,0:0|0:0,0:0:0:0:
419,132,21371,2,0,L|346:130,1,57.5,2|8,0:0|0:0,0:0:0:0:
278,71,21636,1,0,0:0:0:0:
344,59,21769,1,2,0:0:0:0:
255,132,21902,1,2,0:0:0:0:
235,16,22034,1,8,0:0:0:0:
170,104,22167,6,0,B|118:105|118:105|107:112|107:112|83:111|57:130,1,115,6|2,0:0|0:0,0:0:0:0:
166,175,22565,2,0,P|200:177|242:187,1,57.5,8|2,0:0|0:0,0:0:0:0:
82,209,22831,6,0,L|13:206,1,57.5,8|2,0:0|0:0,0:0:0:0:
178,234,23096,2,0,P|212:239|248:248,1,57.5,8|2,0:0|0:0,0:0:0:0:
69,269,23362,6,0,L|-4:267,1,57.5,8|2,0:0|0:0,0:0:0:0:
188,295,23627,2,0,P|221:302|252:314,1,57.5,8|2,0:0|0:0,0:0:0:0:
56,329,23893,6,0,L|-22:326,1,57.5,8|2,0:0|0:0,0:0:0:0:
187,357,24158,2,0,P|216:367|239:380,1,57.5,8|2,0:0|0:0,0:0:0:0:
383,301,24424,6,0,L|305:309,1,57.5,8|2,0:0|0:0,0:0:0:0:
264,211,24689,2,0,P|293:212|342:230,1,57.5,8|2,0:0|0:0,0:0:0:0:
423,350,24955,2,0,P|440:324|440:276,1,57.5,8|2,0:0|0:0,0:0:0:0:
399,154,25220,2,0,L|397:231,1,57.5,8|2,0:0|0:0,0:0:0:0:
464,93,25486,6,0,P|431:71|393:64,1,57.5,8|8,0:0|0:0,0:0:0:0:
400,69,25685,1,8,0:0:0:0:
386,73,25751,1,8,0:0:0:0:
277,31,25884,1,8,0:0:0:0:
326,132,26017,1,8,0:0:0:0:
248,94,26149,2,0,L|184:91,1,57.5,8|4,0:3|0:3,0:0:0:0:
88,149,26415,6,0,P|125:138|191:180,1,115,6|2,0:0|0:0,0:0:0:0:
223,284,26813,2,0,P|259:295|296:295,1,57.5,8|0,0:0|0:0,0:0:0:0:
351,215,27079,1,2,0:0:0:0:
266,233,27211,1,2,0:0:0:0:
347,325,27344,2,0,P|358:367|357:395,1,57.5,8|0,0:0|0:0,0:0:0:0:
393,265,27610,6,0,L|459:255,1,57.5,2|2,0:0|0:0,0:0:0:0:
340,213,27875,2,0,P|323:173|318:147,1,57.5,8|0,0:0|0:0,0:0:0:0:
386,51,28141,1,2,0:0:0:0:
375,122,28273,1,2,0:0:0:0:
284,70,28406,1,8,0:0:0:0:
269,67,28472,1,0,0:0:0:0:
254,63,28539,6,0,B|237:58|219:58|219:58|194:66|194:66|161:61|129:78,1,115,6|2,0:0|0:0,0:0:0:0:
80,153,28937,2,0,P|115:172|176:159,1,86.25,8|0,0:0|0:0,0:0:0:0:
178,153,29203,2,0,L|244:157,1,57.5,2|2,0:0|0:0,0:0:0:0:
375,122,29468,2,0,P|320:131|298:146,1,57.5,8|0,0:0|0:0,0:0:0:0:
246,226,29733,5,2,0:0:0:0:
327,240,29866,1,2,0:0:0:0:
221,289,29999,2,0,P|179:279|140:275,1,57.5,8|0,0:0|0:0,0:0:0:0:
36,302,30264,1,2,0:0:0:0:
88,236,30397,1,2,0:0:0:0:
113,326,30530,1,8,0:0:0:0:
117,339,30596,1,0,0:0:0:0:
121,352,30663,6,0,B|159:358|159:358|192:353|192:353|259:358,1,115,6|2,0:0|0:0,0:0:0:0:
290,281,31061,2,0,P|241:267|211:268,1,57.5,8|0,0:0|0:0,0:0:0:0:
337,346,31326,1,2,0:0:0:0:
327,226,31459,1,2,0:0:0:0:
406,273,31592,2,0,L|488:278,1,57.5,8|0,0:0|0:0,0:0:0:0:
478,185,31857,6,0,P|447:186|413:194,1,57.5,2|2,0:0|0:0,0:0:0:0:
320,235,32123,2,0,L|317:125,1,86.25,8|0,0:0|0:0,0:0:0:0:
334,125,32388,2,0,P|347:97|348:54,1,57.5,2|2,0:0|0:0,0:0:0:0:
256,110,32654,1,8,0:0:0:0:
242,113,32720,1,0,0:0:0:0:
228,116,32787,6,0,B|201:119|181:102|181:102|157:109|157:109|130:102|103:112,1,115,6|2,0:0|0:0,0:0:0:0:
121,225,33185,2,0,P|129:191|132:162,1,57.5,8|0,0:0|0:0,0:0:0:0:
56,71,33450,1,2,0:0:0:0:
73,152,33583,1,2,0:0:0:0:
119,36,33716,2,0,P|147:33|192:30,1,57.5,8|2,0:0|0:0,0:0:0:0:
190,34,33915,1,0,0:0:0:0:
203,37,33981,6,0,L|279:41,1,57.5,6|8,0:0|0:3,0:0:0:0:
352,20,34247,1,8,0:0:0:0:
429,73,34380,1,8,0:0:0:0:
323,104,34512,2,0,P|288:107|248:117,2,57.5,8|8|4,0:0|0:3|0:3,0:0:0:0:
423,151,34910,6,0,P|435:187|391:249,1,115,6|2,0:0|0:0,0:0:0:0:
297,202,35309,2,0,L|237:199,1,57.5,8|0,0:0|0:0,0:0:0:0:
143,238,35574,1,2,0:0:0:0:
182,167,35707,1,2,0:0:0:0:
241,257,35840,2,0,L|339:262,1,86.25,8|0,0:0|0:0,0:0:0:0:
337,258,36105,6,0,P|321:286|313:325,1,57.5,2|2,0:0|0:0,0:0:0:0:
414,382,36371,2,0,L|407:318,1,57.5,8|0,0:0|0:0,0:0:0:0:
366,198,36636,1,2,0:0:0:0:
431,236,36769,1,2,0:0:0:0:
416,147,36902,1,8,0:0:0:0:
346,253,37034,6,0,B|338:217|338:217|342:132,1,115,6|2,0:0|0:0,0:0:0:0:
392,27,37433,2,0,P|381:62|365:85,1,57.5,8|0,0:0|0:0,0:0:0:0:
260,103,37698,1,2,0:0:0:0:
278,181,37831,2,0,L|273:253,1,57.5,2|8,0:0|0:0,0:0:0:0:
199,159,38096,6,0,P|159:147|97:182,1,115,2|2,0:0|0:0,0:0:0:0:
106,273,38495,2,0,L|185:269,1,57.5,8|2,0:0|0:0,0:0:0:0:
176,276,38694,1,0,0:0:0:0:
188,282,38760,2,0,P|217:294|252:293,1,57.5,2|2,0:0|0:0,0:0:0:0:
346,253,39026,1,8,0:0:0:0:
335,338,39158,1,6,0:0:0:0:
327,348,39225,1,2,0:0:0:0:
319,358,39291,6,0,L|192:363,1,115,2|10,0:0|0:0,0:0:0:0:
129,332,39689,1,0,0:0:0:0:
188,282,39822,2,0,P|201:240|195:203,1,57.5,2|2,0:0|0:0,0:0:0:0:
74,235,40087,2,0,P|45:211|28:178,1,57.5,8|0,0:0|0:0,0:0:0:0:
94,91,40353,6,0,L|170:93,1,57.5,2|2,0:0|0:0,0:0:0:0:
164,86,40552,1,2,0:0:0:0:
176,79,40618,2,0,P|226:68|256:73,1,57.5,8|0,0:0|0:0,0:0:0:0:
352,136,40884,1,2,0:0:0:0:
276,130,41017,1,2,0:0:0:0:
409,82,41149,2,0,L|491:88,1,57.5,8|2,0:0|0:0,0:0:0:0:
324,13,41415,5,14,0:0:0:0:
241,264,43539,6,0,L|181:268,1,43.1250016450883,6|0,0:0|0:0,0:0:0:0:
144,203,43804,2,0,L|201:199,1,43.1250016450883,2|0,0:0|0:0,0:0:0:0:
264,157,44070,2,0,P|296:136|356:146,1,86.2500032901765,8|2,0:0|0:0,0:0:0:0:
376,293,44601,5,2,0:0:0:0:
376,293,44866,2,0,L|434:297,1,43.1250016450883,2|0,0:0|0:0,0:0:0:0:
316,253,45132,2,0,B|286:249|286:249|218:263,1,86.2500032901765,8|2,0:0|0:0,0:0:0:0:
181,301,45530,1,0,0:0:0:0:
124,234,45663,6,0,B|89:229|89:229|21:238,1,86.2500032901765,2|2,0:0|0:0,0:0:0:0:
231,172,46194,2,0,P|255:138|245:88,1,86.2500032901765,8|2,0:0|0:0,0:0:0:0:
175,310,46725,6,0,L|273:313,1,86.2500032901765,2|2,0:0|0:0,0:0:0:0:
361,164,47256,2,0,P|400:138|443:147,1,86.2500032901765,8|2,0:0|0:0,0:0:0:0:
478,193,47654,1,0,0:0:0:0:
509,116,47787,6,0,L|513:21,1,86.2500032901765,6|2,0:0|0:0,0:0:0:0:
386,77,48318,1,8,0:0:0:0:
386,77,48583,1,2,0:0:0:0:
235,26,48849,6,0,L|144:22,1,86.2500032901765,2|2,0:0|0:0,0:0:0:0:
85,54,49247,1,0,0:0:0:0:
188,86,49380,1,8,0:0:0:0:
188,86,49645,2,0,P|154:97|133:109,1,43.1250016450883,2|0,0:0|0:0,0:0:0:0:
96,179,49910,6,0,L|193:185,1,86.2500032901765,2|2,0:0|0:0,0:0:0:0:
332,107,50441,2,0,P|375:93|428:105,1,86.2500032901765,8|2,0:0|0:0,0:0:0:0:
342,277,50972,6,0,L|236:273,1,86.2500032901765,2|2,0:0|0:0,0:0:0:0:
194,249,51371,1,0,0:0:0:0:
169,336,51503,2,0,P|128:343|83:318,1,86.2500032901765,8|2,0:0|0:0,0:0:0:0:
74,264,51902,1,0,0:0:0:0:
12,213,52034,6,0,L|9:169,1,43.1250016450883,6|0,0:0|0:0,0:0:0:0:
66,91,52300,2,0,L|69:135,1,43.1250016450883,2|0,0:0|0:0,0:0:0:0:
135,190,52565,2,0,B|168:194|168:194|239:183,1,86.2500032901765,8|2,0:0|0:0,0:0:0:0:
396,109,53096,5,2,0:0:0:0:
396,109,53362,1,2,0:0:0:0:
448,292,53627,2,0,L|346:300,1,86.2500032901765,8|2,0:0|0:0,0:0:0:0:
300,274,54026,1,0,0:0:0:0:
283,356,54158,6,0,P|259:355|221:349,1,43.1250016450883,2|0,0:0|0:0,0:0:0:0:
194,295,54424,2,0,L|137:298,1,43.1250016450883,2|0,0:0|0:0,0:0:0:0:
231,229,54689,1,8,0:0:0:0:
231,229,54955,2,0,L|236:175,1,43.1250016450883,2|0,0:0|0:0,0:0:0:0:
272,130,55220,6,0,P|297:106|292:42,1,86.2500032901765,2|2,0:0|0:0,0:0:0:0:
262,6,55618,1,0,0:0:0:0:
208,114,55751,2,0,B|176:119|176:119|106:111,1,86.2500032901765,8|2,0:0|0:0,0:0:0:0:
134,184,56149,1,0,0:0:0:0:
231,229,56282,6,0,L|328:222,1,86.2500032901765,6|2,0:0|0:0,0:0:0:0:
496,155,56813,1,8,0:0:0:0:
496,155,57079,1,2,0:0:0:0:
377,340,57344,6,0,L|330:348,1,43.1250016450883,6|0,0:0|0:0,0:0:0:0:
256,313,57610,2,0,P|228:309|206:310,1,43.1250016450883,2|0,0:0|0:0,0:0:0:0:
129,361,57875,1,8,0:0:0:0:
129,361,58141,2,0,L|130:313,1,43.1250016450883,2|0,0:0|0:0,0:0:0:0:
88,259,58406,6,0,P|69:226|79:163,1,86.2500032901765,6|2,0:0|0:0,0:0:0:0:
206,35,58937,2,0,L|201:134,1,86.2500032901765,8|2,0:0|0:0,0:0:0:0:
256,314,59468,6,0,P|278:312|306:305,1,43.1250016450883,6|0,0:0|0:0,0:0:0:0:
223,252,59733,2,0,L|167:247,1,43.1250016450883,2|0,0:0|0:0,0:0:0:0:
278,200,59999,2,0,L|342:195,2,51.7499984207154,8|8|8,0:0|0:0|0:0,0:0:0:0:
205,178,60397,5,14,0:3:0:0:
208,226,64645,6,0,P|264:257|317:240,1,109.24999708271,6|2,0:0|0:0,0:0:0:0:
358,153,65043,2,0,L|423:149,1,54.6249985413552,8|0,0:0|0:0,0:0:0:0:
282,176,65309,1,2,0:0:0:0:
282,176,65441,1,0,0:0:0:0:
258,89,65574,2,0,P|219:72|198:68,1,54.6249985413552,8|0,0:0|0:0,0:0:0:0:
112,83,65840,5,2,0:0:0:0:
112,83,65972,1,0,0:0:0:0:
146,186,66105,2,0,L|150:259,1,54.6249985413552,8|0,0:0|0:0,0:0:0:0:
75,208,66371,2,0,L|72:149,1,54.6249985413552,2|2,0:0|0:0,0:0:0:0:
183,118,66636,1,8,0:0:0:0:
154,193,66769,6,0,B|157:262|157:262|167:305,1,109.24999708271,6|2,0:0|0:0,0:0:0:0:
240,222,67167,2,0,P|274:204|314:200,1,54.6249985413552,8|0,0:0|0:0,0:0:0:0:
388,222,67433,1,2,0:0:0:0:
388,222,67565,1,0,0:0:0:0:
332,143,67698,2,0,L|328:66,1,54.6249985413552,8|0,0:0|0:0,0:0:0:0:
416,127,67964,6,0,P|449:122|470:111,1,54.6249985413552,2|2,0:0|0:0,0:0:0:0:
477,103,68163,1,0,0:0:0:0:
482,90,68229,2,0,L|490:160,1,54.6249985413552,8|8,0:0|0:0,0:0:0:0:
423,66,68495,1,8,0:0:0:0:
400,193,68627,1,8,0:3:0:0:
327,155,68760,1,4,0:3:0:0:
280,245,68893,6,0,L|171:251,1,92,6|0,0:0|0:0,0:0:0:0:
120,283,69291,1,8,0:0:0:0:
219,325,69424,2,0,P|247:328|281:338,2,46,0|2|2,0:0|0:0|0:0,0:0:0:0:
135,384,69822,1,8,0:0:0:0:
59,326,69955,6,0,L|50:264,1,46,0|2,0:0|0:0,0:0:0:0:
80,176,70220,2,0,L|86:222,1,46,0|8,0:0|0:0,0:0:0:0:
110,111,70486,1,0,0:0:0:0:
207,171,70618,2,0,P|231:176|271:176,1,46,2|0,0:0|0:0,0:0:0:0:
180,94,70884,1,8,0:0:0:0:
152,188,71017,6,0,L|260:186,1,92,6|0,0:0|0:0,0:0:0:0:
344,155,71415,1,8,0:0:0:0:
303,218,71548,2,0,P|297:240|293:276,2,46,0|2|0,0:0|0:0|0:0,0:0:0:0:
407,177,71946,1,8,0:0:0:0:
421,258,72079,6,0,L|425:316,1,46,0|2,0:0|0:0,0:0:0:0:
494,350,72344,2,0,L|489:287,1,46,0|8,0:0|0:0,0:0:0:0:
392,362,72610,1,0,0:0:0:0:
317,302,72742,2,0,P|294:297|251:295,1,46,2|0,0:0|0:0,0:0:0:0:
356,246,73008,1,8,0:0:0:0:
279,357,73141,6,0,L|173:361,1,92,6|0,0:0|0:0,0:0:0:0:
103,287,73539,1,8,0:0:0:0:
43,331,73672,2,0,L|35:386,2,46,0|2|0,0:0|0:0|0:0,0:0:0:0:
78,229,74070,1,8,0:0:0:0:
167,278,74203,6,0,P|192:285|220:284,2,46,0|2|0,0:0|0:0|0:0,0:0:0:0:
122,181,74601,1,8,0:0:0:0:
203,224,74733,2,0,L|252:220,2,46,0|2|0,0:0|0:0|0:0,0:0:0:0:
78,229,75132,1,8,0:0:0:0:
118,120,75264,6,0,L|217:126,1,92,6|0,0:0|0:0,0:0:0:0:
281,96,75663,1,8,0:0:0:0:
306,211,75795,2,0,P|334:209|368:202,2,46,0|2|0,0:0|0:0|0:0,0:0:0:0:
222,192,76194,1,8,0:0:0:0:
250,271,76326,1,0,0:0:0:0:
171,255,76459,6,0,P|141:259|110:268,1,51.7499984207154,2|0,0:0|0:0,0:0:0:0:
212,320,76725,2,0,P|174:317|151:320,1,51.7499984207154,8|0,0:0|0:0,0:0:0:0:
285,346,76990,2,0,L|317:337,3,25.8749992103577,8|8|4|4,0:3|0:3|0:3|0:3,0:0:0:0:
277,357,77256,1,8,0:0:0:0:
311,274,77388,6,0,B|352:271|352:271|363:275|363:275|388:272|412:283,1,103.499996841431,6|2,0:0|0:0,0:0:0:0:
428,157,77787,1,8,0:0:0:0:
428,157,77919,1,0,0:0:0:0:
461,227,78052,2,0,L|524:221,1,51.7499984207154,2|2,0:0|0:0,0:0:0:0:
381,216,78318,1,8,0:0:0:0:
413,284,78450,5,0,0:0:0:0:
311,274,78583,2,0,L|237:277,1,51.7499984207154,2|0,0:0|0:0,0:0:0:0:
196,340,78849,2,0,P|154:340|134:331,1,51.7499984207154,8|0,0:0|0:0,0:0:0:0:
102,257,79114,1,2,0:0:0:0:
102,257,79247,1,2,0:0:0:0:
85,361,79380,1,8,0:0:0:0:
172,280,79512,6,0,B|170:246|170:246|171:235|171:235|167:166,1,103.499996841431,6|2,0:0|0:0,0:0:0:0:
130,51,79910,1,8,0:0:0:0:
130,51,80043,1,0,0:0:0:0:
200,113,80176,2,0,P|245:118|272:116,1,51.7499984207154,2|2,0:0|0:0,0:0:0:0:
325,86,80441,1,8,0:0:0:0:
346,183,80574,5,0,0:0:0:0:
266,210,80707,2,0,L|201:211,1,51.7499984207154,2|0,0:0|0:0,0:0:0:0:
330,262,80972,2,0,P|369:270|401:284,1,51.7499984207154,8|0,0:0|0:0,0:0:0:0:
257,287,81238,1,2,0:0:0:0:
257,287,81371,1,2,0:0:0:0:
288,373,81503,1,8,0:0:0:0:
197,324,81636,6,0,P|146:315|88:311,1,103.499996841431,6|2,0:0|0:0,0:0:0:0:
11,348,82034,1,8,0:0:0:0:
11,348,82167,1,0,0:0:0:0:
42,268,82300,2,0,L|49:193,1,51.7499984207154,2|2,0:0|0:0,0:0:0:0:
35,131,82565,1,8,0:0:0:0:
110,202,82698,5,0,0:0:0:0:
175,158,82831,2,0,L|245:156,1,51.7499984207154,2|0,0:0|0:0,0:0:0:0:
283,81,83096,1,8,0:0:0:0:
283,81,83229,1,0,0:0:0:0:
330,147,83362,2,0,P|366:153|399:154,1,51.7499984207154,2|2,0:0|0:0,0:0:0:0:
276,203,83627,1,8,0:0:0:0:
381,221,83760,6,0,P|399:260|413:324,1,103.499996841431,6|2,0:0|0:0,0:0:0:0:
305,365,84158,2,0,L|310:300,1,51.7499984207154,8|2,0:0|0:0,0:0:0:0:
267,210,84424,2,0,L|262:272,1,51.7499984207154,8|2,0:0|0:0,0:0:0:0:
219,160,84689,2,0,P|246:146|281:145,1,51.7499984207154,8|2,0:0|0:0,0:0:0:0:
199,228,84955,6,0,L|132:231,1,51.7499984207154,8|2,0:0|0:0,0:0:0:0:
63,175,85220,2,0,L|135:172,1,51.7499984207154,8|2,0:0|0:0,0:0:0:0:
146,307,85486,1,8,0:0:0:0:
81,267,85618,1,8,0:3:0:0:
78,340,85751,1,4,0:3:0:0:
219,317,85884,5,6,0:0:0:0:
168,287,90132,6,0,B|204:284|204:284|223:288|223:288|247:269|291:262,1,115,6|2,0:0|0:0,0:0:0:0:
336,354,90530,2,0,P|305:344|279:321,1,57.5,8|0,0:0|0:0,0:0:0:0:
306,206,90795,1,2,0:0:0:0:
339,291,90928,1,2,0:0:0:0:
410,245,91061,2,0,L|481:240,1,57.5,8|0,0:0|0:0,0:0:0:0:
485,132,91326,6,0,P|443:146|421:162,1,57.5,2|2,0:0|0:0,0:0:0:0:
355,177,91592,2,0,L|242:168,1,86.25,8|0,0:0|0:0,0:0:0:0:
249,151,91857,2,0,B|225:146|225:146|172:153,1,57.5,2|2,0:0|0:0,0:0:0:0:
148,211,92123,1,8,0:0:0:0:
148,211,92189,1,0,0:0:0:0:
148,211,92256,6,0,P|151:157|157:96,1,115,6|2,0:0|0:0,0:0:0:0:
85,158,92654,2,0,P|54:164|19:166,1,57.5,8|0,0:0|0:0,0:0:0:0:
5,66,92919,1,2,0:0:0:0:
77,87,93052,1,2,0:0:0:0:
127,23,93185,2,0,P|174:16|209:15,1,57.5,8|0,0:0|0:0,0:0:0:0:
264,79,93450,5,2,0:0:0:0:
264,79,93583,1,8,0:3:0:0:
336,27,93716,1,8,0:0:0:0:
332,117,93849,1,8,0:0:0:0:
409,82,93981,2,0,B|437:77|437:77|474:73,1,57.5,8|8,0:0|0:3,0:0:0:0:
403,162,94247,1,4,0:3:0:0:
321,107,94380,6,0,P|287:95|214:144,1,115,6|2,0:0|0:0,0:0:0:0:
196,213,94778,2,0,L|123:209,1,57.5,8|0,0:0|0:0,0:0:0:0:
272,234,95043,1,2,0:0:0:0:
217,285,95176,1,2,0:0:0:0:
325,270,95309,2,0,L|416:268,1,86.25,8|0,0:0|0:0,0:0:0:0:
437,278,95574,6,0,P|470:289|508:289,1,57.5,2|2,0:0|0:0,0:0:0:0:
372,326,95840,2,0,L|309:329,1,57.5,8|0,0:0|0:0,0:0:0:0:
234,292,96105,1,2,0:0:0:0:
261,360,96238,1,2,0:0:0:0:
158,291,96371,1,8,0:0:0:0:
272,234,96503,6,0,B|276:193|276:193|273:171|273:171|279:109,1,115,6|2,0:0|0:0,0:0:0:0:
214,199,96902,2,0,P|176:209|144:209,1,57.5,8|0,0:0|0:0,0:0:0:0:
51,177,97167,1,2,0:0:0:0:
95,237,97300,2,0,L|100:308,1,57.5,2|8,0:0|0:0,0:0:0:0:
114,157,97565,6,0,P|50:147|-13:144,1,115,2|2,0:0|0:0,0:0:0:0:
67,81,97964,2,0,L|134:80,1,57.5,8|2,0:0|0:0,0:0:0:0:
136,88,98163,1,0,0:0:0:0:
148,95,98229,2,0,P|191:108|221:104,1,57.5,2|2,0:0|0:0,0:0:0:0:
289,65,98495,1,8,0:0:0:0:
320,143,98627,1,6,0:0:0:0:
320,143,98694,1,0,0:0:0:0:
320,143,98760,6,0,P|368:174|439:152,1,115,2|8,0:0|0:0,0:0:0:0:
447,98,99158,1,0,0:0:0:0:
493,179,99291,2,0,L|497:237,1,57.5,2|2,0:0|0:0,0:0:0:0:
465,317,99557,2,0,P|436:291|404:280,1,57.5,8|0,0:0|0:0,0:0:0:0:
331,308,99822,5,2,0:0:0:0:
331,308,99955,1,2,0:0:0:0:
264,238,100087,2,0,L|198:236,1,55.7750013191414,8|0,0:0|0:0,0:0:0:0:
131,288,100353,2,0,L|197:292,1,50.0250004198265,2|0,0:0|0:0,0:0:0:0:
242,355,100618,2,0,L|191:353,1,44.2749991217423,8|2,0:0|0:0,0:0:0:0:
93,341,100884,6,0,P|69:304|84:239,1,100.050000839653,8|2,0:0|2:1,0:0:0:0:
136,220,101282,1,8,0:3:0:0:
58,182,101415,2,0,L|3:175,1,50.0250004198265,4|2,0:3|0:0,0:0:0:0:
82,95,101680,2,0,P|113:83|148:78,1,54.0499991752625,8|2,0:0|0:0,0:0:0:0:
220,103,101946,6,0,L|276:109,1,54.0499991752625,8|8,0:3|0:3,0:0:0:0:
179,165,102211,2,0,L|247:172,1,54.0499991752625,8|4,0:3|0:3,0:0:0:0:
341,138,102477,6,0,B|360:130|381:131|381:131|393:138|393:138|418:140|439:162,1,100.625,8|0,0:0|0:0,0:0:0:0:
390,199,103008,6,0,L|395:249,1,43.1250016450883,6|0,0:0|0:0,0:0:0:0:
465,287,103273,2,0,L|460:237,1,43.1250016450883,2|0,0:0|0:0,0:0:0:0:
392,347,103539,2,0,P|348:353|297:322,1,86.2500032901765,8|2,0:0|0:0,0:0:0:0:
283,138,104070,5,2,0:0:0:0:
283,138,104335,2,0,L|222:142,1,43.1250016450883,2|0,0:0|0:0,0:0:0:0:
179,99,104601,2,0,B|144:91|144:91|77:97,1,86.2500032901765,8|2,0:0|0:0,0:0:0:0:
31,128,104999,1,0,0:0:0:0:
119,170,105132,6,0,P|145:220|129:262,1,86.2500032901765,2|2,0:0|0:0,0:0:0:0:
108,32,105663,2,0,L|212:23,1,86.2500032901765,8|2,0:0|0:0,0:0:0:0:
287,194,106194,6,0,P|333:214|381:200,1,86.2500032901765,2|2,0:0|0:0,0:0:0:0:
403,153,106592,1,0,0:0:0:0:
444,229,106725,2,0,L|456:326,1,86.2500032901765,8|2,0:0|0:0,0:0:0:0:
487,371,107123,1,0,0:0:0:0:
389,334,107256,5,6,0:0:0:0:
389,334,107521,2,0,P|365:339|335:342,1,43.1250016450883,2|0,0:0|0:0,0:0:0:0:
283,300,107787,1,8,0:0:0:0:
283,300,108052,1,2,0:0:0:0:
147,371,108318,6,0,P|107:375|59:335,1,86.2500032901765,2|2,0:0|0:0,0:0:0:0:
54,286,108716,1,0,0:0:0:0:
150,253,108849,1,8,0:0:0:0:
150,253,109114,2,0,L|154:305,1,43.1250016450883,2|0,0:0|0:0,0:0:0:0:
191,201,109380,6,0,B|161:190|161:190|91:197,1,86.2500032901765,2|2,0:0|0:0,0:0:0:0:
292,145,109910,2,0,L|391:138,1,86.2500032901765,8|2,0:0|0:0,0:0:0:0:
338,343,110441,6,0,P|299:359|257:350,1,86.2500032901765,2|2,0:0|0:0,0:0:0:0:
220,288,110840,1,0,0:0:0:0:
297,230,110972,2,0,B|303:196|303:196|291:137,1,86.2500032901765,8|2,0:0|0:0,0:0:0:0:
242,103,111371,1,0,0:0:0:0:
180,167,111503,6,0,L|119:171,1,43.1250016450883,6|0,0:0|0:0,0:0:0:0:
106,107,111769,2,0,L|167:104,1,43.1250016450883,2|0,0:0|0:0,0:0:0:0:
221,40,112034,2,0,P|251:22|308:29,1,86.2500032901765,8|2,0:0|0:0,0:0:0:0:
394,209,112566,5,2,0:0:0:0:
394,209,112831,1,2,0:0:0:0:
260,154,113096,2,0,L|156:160,1,86.2500032901765,8|2,0:0|0:0,0:0:0:0:
109,194,113495,1,0,0:0:0:0:
183,238,113627,6,0,P|203:230|242:223,2,43.1250016450883,2|0|2,0:0|0:0|0:0,0:0:0:0:
137,302,114026,1,0,0:0:0:0:
43,274,114158,1,8,0:0:0:0:
43,274,114424,2,0,L|48:332,1,43.1250016450883,2|0,0:0|0:0,0:0:0:0:
14,210,114689,6,0,B|12:176|12:176|25:112,1,86.2500032901765,2|2,0:0|0:0,0:0:0:0:
40,63,115087,1,0,0:0:0:0:
120,125,115220,2,0,L|223:121,1,86.2500032901765,8|2,0:0|0:0,0:0:0:0:
271,93,115618,1,0,0:0:0:0:
294,191,115751,6,0,P|328:207|387:199,1,86.2500032901765,6|2,0:0|0:0,0:0:0:0:
402,38,116282,1,8,0:0:0:0:
402,38,116548,1,2,0:0:0:0:
445,180,116813,6,0,L|448:230,1,43.1250016450883,6|0,0:0|0:0,0:0:0:0:
512,170,117079,2,0,L|509:115,1,43.1250016450883,2|0,0:0|0:0,0:0:0:0:
390,108,117344,1,8,0:0:0:0:
390,108,117610,2,0,L|334:114,1,43.1250016450883,2|0,0:0|0:0,0:0:0:0:
284,62,117875,6,0,P|248:46|191:58,1,86.2500032901765,8|2,0:0|0:0,0:0:0:0:
136,240,118406,2,0,L|231:235,1,86.2500032901765,8|2,0:0|0:0,0:0:0:0:
442,310,118937,6,0,L|382:306,1,43.1250016450883,14|0,0:0|0:0,0:0:0:0:
319,268,119203,2,0,L|315:241,3,21.5625008225441,4|0|4|0,0:3|0:0|0:3|0:0,0:0:0:0:
310,293,119468,2,0,P|285:302|245:304,1,48.8750009322167,8|8,0:3|0:3,0:0:0:0:
172,239,119733,2,0,P|197:255|213:270,1,48.8750009322167,4|4,0:3|0:3,0:0:0:0:
210,371,119999,6,0,L|108:364,1,86.2500032901765,6|2,0:0|0:0,0:0:0:0:
64,339,120397,1,0,0:0:0:0:
46,222,120530,1,8,0:0:0:0:
46,222,120795,1,2,0:0:0:0:
223,308,121061,6,0,P|267:308|308:277,1,86.2500032901765,2|2,0:0|0:0,0:0:0:0:
310,220,121459,1,0,0:0:0:0:
378,265,121592,2,0,L|430:267,1,43.1250016450883,8|0,0:0|0:0,0:0:0:0:
480,209,121857,2,0,L|419:206,1,43.1250016450883,2|0,0:0|0:0,0:0:0:0:
338,132,122123,6,0,P|308:117|245:129,1,86.2500032901765,2|2,0:0|0:0,0:0:0:0:
178,261,122654,2,0,L|172:163,1,86.2500032901765,8|2,0:0|0:0,0:0:0:0:
135,17,123185,6,0,P|127:36|122:59,1,43.1250016450883,2|0,0:0|0:0,0:0:0:0:
129,133,123450,2,0,L|76:131,1,43.1250016450883,2|0,0:0|0:0,0:0:0:0:
201,57,123716,2,0,B|233:48|233:48|304:42,1,86.2500032901765,8|2,0:0|0:0,0:0:0:0:
405,177,124247,6,0,L|350:173,1,43.1250016450883,6|0,0:0|0:0,0:0:0:0:
396,115,124512,2,0,L|457:119,1,43.1250016450883,2|0,0:0|0:0,0:0:0:0:
498,231,124778,2,0,P|451:234|394:248,1,86.2500032901765,8|2,0:0|0:0,0:0:0:0:
251,365,125309,6,0,P|192:367|161:342,1,86.2500032901765,2|2,0:0|0:0,0:0:0:0:
147,289,125707,1,0,0:0:0:0:
274,246,125840,1,8,0:0:0:0:
274,246,126105,2,0,L|221:249,1,43.1250016450883,2|0,0:0|0:0,0:0:0:0:
152,199,126371,6,0,P|149:158|176:118,1,86.2500032901765,2|2,0:0|0:0,0:0:0:0:
369,269,126902,2,0,L|456:275,1,86.2500032901765,8|2,0:0|0:0,0:0:0:0:
335,96,127433,5,2,0:0:0:0:
335,96,127698,2,0,P|303:89|276:74,1,46,8|0,0:0|0:0,0:0:0:0:
395,133,127964,2,0,L|400:193,1,46,8|0,0:0|0:0,0:0:0:0:
370,269,128229,1,8,0:3:0:0:
309,211,128362,1,4,0:3:0:0:
299,317,128495,6,0,L|250:320,1,43.1250016450883,6|0,0:0|0:0,0:0:0:0:
189,262,128760,2,0,L|240:259,1,43.1250016450883,2|0,0:0|0:0,0:0:0:0:
156,343,129026,2,0,P|115:349|68:319,1,86.2500032901765,8|2,0:0|0:0,0:0:0:0:
45,147,129557,6,0,L|40:244,1,86.2500032901765,2|2,0:0|0:0,0:0:0:0:
17,301,129955,1,0,0:0:0:0:
126,286,130087,1,8,0:0:0:0:
126,286,130353,2,0,L|185:290,1,43.1250016450883,2|0,0:0|0:0,0:0:0:0:
240,229,130618,6,0,P|282:211|337:224,1,86.2500032901765,2|2,0:0|0:0,0:0:0:0:
368,263,131017,1,0,0:0:0:0:
405,190,131149,2,0,L|409:100,1,86.2500032901765,8|2,0:0|0:0,0:0:0:0:
420,305,131680,6,0,P|384:324|324:309,1,86.2500032901765,2|2,0:0|0:0,0:0:0:0:
291,273,132079,1,0,0:0:0:0:
263,346,132211,2,0,L|171:352,1,86.2500032901765,8|2,0:0|0:0,0:0:0:0:
112,373,132610,1,0,0:0:0:0:
182,280,132742,6,0,L|186:223,1,43.1250016450883,6|0,0:0|0:0,0:0:0:0:
122,196,133008,2,0,L|118:251,1,43.1250016450883,2|0,0:0|0:0,0:0:0:0:
219,148,133273,1,8,0:0:0:0:
219,148,133539,1,2,0:0:0:0:
344,239,133804,6,0,L|401:243,1,43.1250016450883,6|0,0:0|0:0,0:0:0:0:
339,170,134070,2,0,L|289:167,1,43.1250016450883,2|0,0:0|0:0,0:0:0:0:
236,270,134335,2,0,P|259:266|290:255,1,43.1250016450883,8|0,0:0|0:0,0:0:0:0:
148,191,134601,2,0,P|128:208|116:232,1,43.1250016450883,2|0,0:0|0:0,0:0:0:0:
132,340,134866,5,10,0:0:0:0:
161,136,136990,6,0,L|240:132,1,57.5,6|0,0:0|0:0,0:0:0:0:
330,176,137256,1,10,0:0:0:0:
316,179,137322,1,8,0:0:0:0:
302,183,137388,1,8,0:0:0:0:
289,191,137455,1,8,0:0:0:0:
279,201,137521,2,0,L|238:196,3,28.75,10|8|8|8,0:0|0:0|0:0|0:0,0:0:0:0:
336,245,137787,2,0,L|375:241,3,28.75,10|8|8|8,0:0|0:0|0:0|0:0,0:0:0:0:
274,275,138052,6,0,P|261:316|256:369,1,92,10|0,0:0|0:0,0:0:0:0:
