osu file format v14

[General]
AudioFilename: king.mp3
AudioLeadIn: 0
PreviewTime: 26415
Countdown: 0
SampleSet: Normal
StackLeniency: 0.7
Mode: 0
LetterboxInBreaks: 0
WidescreenStoryboard: 1

[Editor]
Bookmarks: 17189,25685,33052,33915,34180,38163,38694,40552,68163,77057,77189,119269,119402,124380
DistanceSpacing: 1.4
BeatDivisor: 4
GridSize: 8
TimelineZoom: 1.7

[Metadata]
Title:King For A Day (feat Kellin Quinn)
TitleUnicode:King For A Day (feat Kellin Quinn)
Artist:Pierce The Veil
ArtistUnicode:Pierce The Veil
Creator:pishifat
Version:Easy
Source:
Tags:collide the sky metal punk sleeping with sirens
BeatmapID:670515
BeatmapSetID:297909

[Difficulty]
HPDrainRate:2
CircleSize:2.8
OverallDifficulty:2.5
ApproachRate:3
SliderMultiplier:0.7
SliderTickRate:1

[Events]
//Background and Video events
0,0,"ptvnotflip.png",0,0
//Break Periods
2,60597,63205
2,69093,75019
2,86084,88692
//Storyboard Layer 0 (Background)
//Storyboard Layer 1 (Fail)
//Storyboard Layer 2 (Pass)
//Storyboard Layer 3 (Foreground)
//Storyboard Sound Samples

[TimingPoints]
721,276.497695852535,4,1,1,20,1,0
9292,265.486725663717,4,1,1,50,1,8
9557,265.486725663717,4,1,1,50,1,0
20043,-100,4,1,1,50,0,0
22167,-100,4,1,1,50,0,0
43539,-100,4,1,1,45,0,1
59999,-100,4,1,1,45,0,1
60397,-100,4,1,1,50,0,0
64645,-100,4,1,1,50,0,0
68893,-100,4,1,1,50,0,0
76459,-100,4,1,1,50,0,0
77388,-100,4,1,1,50,0,0
84424,-100,4,1,1,50,0,0
100087,-100,4,1,1,50,0,0
103008,-100,4,1,1,45,0,1
119335,-100,4,1,1,45,0,1
119866,-100,4,1,1,45,0,0
119999,-100,4,1,1,45,0,1
127698,-100,4,1,1,45,0,1
128495,-100,4,1,1,45,0,1
134866,-100,4,1,1,45,0,0
136990,-100,4,1,1,45,0,1
138052,-100,4,1,1,45,0,0

[Colours]
Combo1 : 185,174,130
Combo2 : 168,191,145
Combo3 : 116,167,155
SliderBorder : 90,95,120
SliderTrackOverride : 20,20,20

[HitObjects]
455,224,9424,6,0,L|337:216,1,105,6|8,0:0|0:0,0:0:0:0:
184,112,10353,2,0,B|113:108|113:108|45:120,1,140,8|8,0:0|0:0,0:0:0:0:
272,213,11548,6,0,L|282:108,1,105,6|8,0:0|0:0,0:0:0:0:
438,226,12477,2,0,B|431:294|431:294|409:362,1,140,8|8,0:0|0:0,0:0:0:0:
184,264,13672,6,0,L|74:270,1,105,6|8,0:0|0:0,0:0:0:0:
120,78,14601,2,0,B|171:76|171:76|201:85|201:85|268:80,1,140,8|8,0:0|0:0,0:0:0:0:
445,239,15795,6,0,L|326:246,1,105,6|8,0:0|0:0,0:0:0:0:
160,329,16725,2,0,P|204:346|265:341,2,105,8|8|8,0:0|0:0|0:0,0:0:0:0:
101,193,17919,6,0,B|117:153|117:153|164:93,1,105,6|8,0:0|0:0,0:0:0:0:
237,53,18583,2,0,P|317:57|381:69,2,140,2|2|2,0:0|0:0|0:0,0:0:0:0:
167,183,20043,6,0,L|171:297,1,105,6|8,0:0|0:0,0:0:0:0:
264,259,20707,2,0,P|358:223|405:240,2,140,2|2|2,0:0|0:0|0:0,0:0:0:0:
379,355,22167,6,0,B|443:360|443:360|488:351,1,105,6|8,0:0|0:0,0:0:0:0:
485,252,22831,2,0,B|493:184|493:184|523:106,2,140,8|8|8,0:0|0:0|0:0,0:0:0:0:
306,169,24424,2,0,P|227:130|168:122,1,140,8|8,0:0|0:0,0:0:0:0:
291,281,25486,2,0,L|363:277,2,70,8|8|8,0:0|0:0|0:0,0:0:0:0:
155,337,26415,6,0,P|90:337|53:312,1,105,6|8,0:0|0:0,0:0:0:0:
64,218,27079,2,0,L|50:69,2,140,2|2|2,0:0|0:0|0:0,0:0:0:0:
204,173,28539,6,0,B|243:159|243:159|312:155,1,105,6|8,0:0|0:0,0:0:0:0:
343,246,29203,2,0,L|261:252,1,70,2|8,0:0|0:0,0:0:0:0:
206,322,29733,2,0,P|274:311|337:339,1,140,2|2,0:0|0:0,0:0:0:0:
463,263,30663,6,0,L|452:146,1,105,6|8,0:0|0:0,0:0:0:0:
360,126,31326,2,0,P|303:155|225:149,2,140,2|2|2,0:0|0:0|0:0,0:0:0:0:
269,9,32787,6,0,L|158:18,1,105,6|8,0:0|0:0,0:0:0:0:
85,75,33450,2,0,P|137:131|162:202,1,140,2|6,0:0|0:0,0:0:0:0:
210,273,34247,2,0,B|244:280|244:280|290:283,1,70,8|8,0:0|0:0,0:0:0:0:
366,163,34910,6,0,P|413:143|471:149,1,105,6|8,0:0|0:0,0:0:0:0:
431,239,35574,2,0,B|423:280|423:280|439:386,2,140,2|2|2,0:0|0:0|0:0,0:0:0:0:
319,142,37034,6,0,L|199:135,1,105,6|8,0:0|0:0,0:0:0:0:
125,94,37698,2,0,P|162:60|250:44,2,140,2|6|2,0:0|0:0|0:0,0:0:0:0:
102,239,39158,6,0,B|162:236|162:236|217:251,1,105,6|8,0:0|0:0,0:0:0:0:
267,323,39822,2,0,P|308:347|406:336,1,140,2|2,0:0|0:0,0:0:0:0:
461,265,40618,2,0,L|469:193,2,70,8|2|8,0:0|0:0|0:0,0:0:0:0:
496,357,41415,5,14,0:0:0:0:
67,304,43539,6,0,L|207:298,1,140,6|8,0:0|0:0,0:0:0:0:
365,181,44601,2,0,L|217:190,1,140,2|8,0:0|0:0,0:0:0:0:
61,81,45663,2,0,B|128:63|128:63|211:57,2,140,2|8|2,0:0|0:0|0:0,0:0:0:0:
31,275,47256,1,8,0:0:0:0:
194,167,47787,6,0,P|263:157|328:187,1,140,6|8,0:0|0:0,0:0:0:0:
450,336,48849,2,0,L|439:182,1,140,2|8,0:0|0:0,0:0:0:0:
258,270,49910,2,0,B|188:285|188:285|111:289,2,140,2|8|2,0:0|0:0|0:0,0:0:0:0:
324,85,51503,1,8,0:0:0:0:
152,179,52034,6,0,L|8:186,1,140,6|8,0:0|0:0,0:0:0:0:
133,340,53096,2,0,L|283:331,1,140,2|8,0:0|0:0,0:0:0:0:
386,171,54158,2,0,B|398:101|398:101|425:37,2,140,2|8|2,0:0|0:0|0:0,0:0:0:0:
466,350,55751,1,8,0:0:0:0:
298,247,56282,6,0,L|145:236,1,140,6|8,0:0|0:0,0:0:0:0:
79,57,57344,2,0,L|226:70,1,140,6|8,0:0|0:0,0:0:0:0:
379,182,58406,2,0,P|457:186|507:154,2,140,6|8|6,0:0|0:0|0:0,0:0:0:0:
205,89,59999,2,0,B|168:93|168:93|139:104|139:104|88:109,1,105,8|14,0:0|0:3,0:0:0:0:
171,343,64645,6,0,L|289:349,1,105,6|8,0:0|0:0,0:0:0:0:
333,269,65309,2,0,B|285:263|285:263|261:242|261:242|226:246|226:246|138:215|74:279,1,280,2|2,0:0|0:0,0:0:0:0:
21,142,66769,6,0,L|139:131,1,105,6|8,0:0|0:0,0:0:0:0:
214,90,67433,2,0,B|259:62|290:60|290:60|325:66|325:66|354:46|354:46|425:44,1,210,2|8,0:0|0:0,0:0:0:0:
389,140,68495,2,0,B|433:166|433:166|495:187,1,105,8|6,0:0|0:0,0:0:0:0:
118,89,76459,6,0,P|124:56|122:13,2,70,2|8|8,0:0|0:0|0:3,0:0:0:0:
26,204,77388,6,0,L|140:212,1,105,6|8,0:0|0:0,0:0:0:0:
214,159,78052,2,0,B|249:121|249:121|290:112|290:112|350:37|463:68,1,280,2|2,0:0|0:0,0:0:0:0:
404,203,79512,6,0,L|396:319,1,105,6|8,0:0|0:0,0:0:0:0:
301,329,80176,2,0,B|257:286|211:279|211:279|179:246|179:246|113:268|42:232,1,280,2|2,0:0|0:0,0:0:0:0:
128,110,81636,6,0,L|243:96,1,105,6|8,0:0|0:0,0:0:0:0:
317,145,82300,2,0,B|356:162|356:162|399:158|399:158|419:175|419:175|481:182|513:263|461:313,1,280,2|2,0:0|0:0,0:0:0:0:
334,363,83760,6,0,L|225:355,1,105,6|8,0:0|0:0,0:0:0:0:
156,288,84424,2,0,B|90:260|90:260|12:252,1,140,8|8,0:0|0:0,0:0:0:0:
195,160,85486,2,0,P|255:158|309:182,1,105,8|6,0:0|0:0,0:0:0:0:
196,328,90132,6,0,L|303:338,1,105,6|8,0:0|0:0,0:0:0:0:
277,242,90795,2,0,P|267:175|312:112,2,140,2|2|2,0:0|0:0|0:0,0:0:0:0:
420,275,92256,6,0,L|426:165,1,105,6|8,0:0|0:0,0:0:0:0:
386,81,92919,2,0,B|321:60|321:60|237:49,1,140,2|2,0:0|0:0,0:0:0:0:
164,100,93716,2,0,L|83:109,1,70,8|8,0:0|0:0,0:0:0:0:
219,185,94380,6,0,P|248:241|246:286,1,105,6|8,0:0|0:0,0:0:0:0:
172,344,95043,2,0,L|325:335,2,140,2|2|2,0:0|0:0|0:0,0:0:0:0:
49,262,96503,6,0,B|41:219|41:219|46:154,1,105,6|8,0:0|0:0,0:0:0:0:
136,194,97167,2,0,B|202:200|202:200|283:182,2,140,2|2|2,0:0|0:0|0:0,0:0:0:0:
228,79,98627,6,0,L|337:84,1,105,6|8,0:0|0:0,0:0:0:0:
396,158,99291,2,0,P|346:228|356:281,2,140,2|2|2,0:0|0:0|0:0,0:0:0:0:
494,158,100618,5,8,0:0:0:0:
446,243,100884,2,0,L|454:354,2,105,8|8|8,0:0|0:3|0:0,0:0:0:0:
397,158,101946,2,0,B|316:141|316:141|250:147,1,140,8|8,0:3|0:0,0:0:0:0:
156,313,103008,6,0,P|77:322|30:284,1,140,6|8,0:0|0:0,0:0:0:0:
92,100,104070,2,0,L|108:247,1,140,2|8,0:0|0:0,0:0:0:0:
279,145,105132,2,0,P|326:113|409:96,2,140,2|8|2,0:0|0:0|0:0,0:0:0:0:
237,336,106725,1,8,0:0:0:0:
89,206,107256,6,0,L|77:61,1,140,6|8,0:0|0:0,0:0:0:0:
193,224,108318,2,0,B|239:239|239:239|337:234,1,140,2|8,0:0|0:0,0:0:0:0:
468,94,109380,2,0,B|406:61|406:61|339:43,2,140,2|8|2,0:0|0:0|0:0,0:0:0:0:
419,284,110972,1,8,0:0:0:0:
287,139,111503,6,0,L|132:130,1,140,6|8,0:0|0:0,0:0:0:0:
14,275,112565,2,0,L|163:283,1,140,2|8,0:0|0:0,0:0:0:0:
340,343,113627,2,0,P|406:370|483:358,2,140,2|8|2,0:0|0:0|0:0,0:0:0:0:
316,148,115220,1,8,0:0:0:0:
158,265,115751,6,0,L|3:250,1,140,6|8,0:0|0:0,0:0:0:0:
100,72,116813,2,0,L|250:87,1,140,6|8,0:0|0:0,0:0:0:0:
364,237,117875,2,0,P|414:251|493:214,2,140,8|8|14,0:0|0:0|0:0,0:0:0:0:
169,206,119468,2,0,P|147:246|141:281,1,70,8|4,0:3|0:3,0:0:0:0:
199,349,119999,6,0,L|341:338,1,140,6|8,0:0|0:0,0:0:0:0:
423,161,121061,2,0,B|375:135|375:135|288:115,1,140,2|8,0:0|0:0,0:0:0:0:
157,259,122123,2,0,P|99:290|23:284,2,140,2|8|2,0:0|0:0|0:0,0:0:0:0:
195,66,123716,1,8,0:0:0:0:
346,190,124247,6,0,L|497:179,1,140,6|8,0:0|0:0,0:0:0:0:
357,328,125309,2,0,L|210:338,1,140,2|8,0:0|0:0,0:0:0:0:
133,159,126371,2,0,B|68:132|68:132|-6:119,2,140,2|8|2,0:0|0:0|0:0,0:0:0:0:
218,337,127964,1,8,0:0:0:0:
340,184,128495,6,0,B|358:136|358:136|350:48,1,140,6|8,0:0|0:0,0:0:0:0:
165,115,129557,2,0,B|138:199|138:199|144:259,1,140,2|8,0:0|0:0,0:0:0:0:
325,321,130618,2,0,L|476:310,2,140,2|8|2,0:0|0:0|0:0,0:0:0:0:
134,367,132211,1,8,0:0:0:0:
262,219,132742,6,0,P|275:153|235:86,1,140,6|8,0:0|0:0,0:0:0:0:
51,140,133804,2,0,L|196:166,1,140,6|8,0:0|0:0,0:0:0:0:
375,102,134866,5,10,0:0:0:0:
357,215,136990,5,6,0:0:0:0:
289,286,137256,2,0,B|220:289|220:289|135:299,1,140,10|10,0:0|0:0,0:0:0:0:
64,346,138052,1,10,0:0:0:0:
