osu file format v14

[General]
AudioFilename: 05 Pierce The Veil - Bulls In The Bronx.mp3
AudioLeadIn: 0
PreviewTime: 37714
Countdown: 0
SampleSet: Soft
StackLeniency: 0.3
Mode: 0
LetterboxInBreaks: 0
WidescreenStoryboard: 0

[Editor]
Bookmarks: 1714,13714,25714,37714,49714,55714,64714,76714,88714,100714,106714,118714,130714,142714,154714,166714,178714,190714,202714,214714,226714,238714
DistanceSpacing: 1
BeatDivisor: 4
GridSize: 4
TimelineZoom: 0.9

[Metadata]
Title:Bulls in the Bronx
TitleUnicode:Bulls in the Bronx
Artist:Pierce The Veil
ArtistUnicode:Pierce The Veil
Creator:Avena
Version:Normal
Source:
Tags:Collide with the Sky Post Hardcore HB24 pishifat Aia Priti
BeatmapID:1163092
BeatmapSetID:424713

[Difficulty]
HPDrainRate:4
CircleSize:3.3
OverallDifficulty:5
ApproachRate:5
SliderMultiplier:0.999999999999999
SliderTickRate:1

[Events]
//Background and Video events
0,0,"huh.jpg",0,0
//Break Periods
2,52914,54514
2,102414,105514
2,130914,135514
2,142914,153514
//Storyboard Layer 0 (Background)
//Storyboard Layer 1 (Fail)
//Storyboard Layer 2 (Pass)
//Storyboard Layer 3 (Foreground)
//Storyboard Sound Samples

[TimingPoints]
214,375,4,3,1,80,1,0
1714,375,4,3,1,85,1,0
13714,-100,4,3,1,80,0,0
25714,-100,4,3,1,85,0,0
31714,-100,4,3,1,60,0,0
34714,-100,4,3,1,70,0,0
35464,-100,4,3,1,80,0,0
37714,-100,4,3,1,80,0,1
52151,-100,4,3,1,60,0,0
52714,-100,4,3,1,80,0,0
55714,-100,4,3,1,85,0,0
64714,-100,4,3,1,85,0,0
64901,-100,4,3,1,70,0,0
70714,-100,4,3,1,80,0,0
75214,-100,4,3,1,60,0,0
76714,-100,4,3,1,80,0,1
87214,-100,4,3,1,80,0,0
88714,-100,4,3,1,80,0,1
94151,-100,4,3,1,90,0,0
94714,-100,4,3,1,90,0,1
100714,-100,4,3,1,90,0,0
100807,-100,4,3,1,5,0,0
102214,-100,4,3,1,20,0,0
106714,-100,4,2,2,40,0,0
118339,-100,4,2,1,80,0,0
118526,-100,4,2,1,40,0,0
118714,-100,4,2,1,40,0,0
119464,-100,4,2,1,60,0,0
119557,-100,4,2,1,40,0,0
120964,-100,4,2,1,60,0,0
121057,-100,4,2,1,40,0,0
122464,-100,4,2,1,60,0,0
122557,-100,4,2,1,40,0,0
123964,-100,4,2,1,60,0,0
124057,-100,4,2,1,40,0,0
125464,-100,4,2,1,60,0,0
125557,-100,4,2,1,40,0,0
126964,-100,4,2,1,60,0,0
127057,-100,4,2,1,40,0,0
127714,-100,4,2,1,60,0,0
130339,-100,4,2,2,60,0,0
130714,-100,4,2,1,80,0,0
141214,-100,4,3,1,70,0,0
154714,-100,4,3,1,60,0,0
165214,-100,4,3,1,40,0,0
165589,-100,4,3,1,45,0,0
165964,-100,4,3,1,50,0,0
166339,-100,4,3,1,55,0,0
166714,-100,4,3,1,70,0,0
178714,-100,4,3,1,80,0,1
189214,-100,4,3,1,80,0,0
190339,-100,4,3,1,60,0,0
190714,-100,4,3,1,80,0,1
196151,-100,4,3,1,90,0,0
196714,-100,4,3,1,90,0,1
201214,-100,4,3,1,90,0,0
202714,-100,4,3,1,80,0,1
213401,-100,4,3,1,60,0,1
213964,-100,4,3,1,80,0,1
214714,-100,4,2,1,70,0,0
225214,-100,4,3,1,80,0,0
226714,-100,4,2,1,50,0,0
227276,-100,4,2,1,40,0,0
238714,-100,4,2,1,70,0,0

[Colours]
Combo1 : 255,94,55
Combo2 : 173,255,95
Combo3 : 17,254,176
Combo4 : 255,88,100

[HitObjects]
91,263,214,6,0,L|82:100,2,150,4|4|2,0:0|0:0|1:2,0:0:0:0:
155,339,1714,6,0,P|194:323|316:325,1,150,4|0,1:0|3:0,0:0:0:0:
396,347,2651,2,0,L|403:290,1,50,0|8,3:0|1:0,0:0:0:0:
337,220,3214,2,0,L|323:47,1,150,0|0,1:0|0:0,0:0:0:0:
414,26,4151,1,0,0:0:0:0:
414,26,4339,1,8,1:0:0:0:
478,102,4714,6,0,P|473:157|441:257,2,150,0|0|8,1:0|0:0|1:0,0:0:0:0:
378,114,6214,2,0,L|210:105,1,150,0|0,1:0|0:0,0:0:0:0:
152,40,7151,2,0,L|84:48,1,50,0|8,0:0|1:0,0:0:0:0:
59,136,7714,6,0,P|155:164|201:196,1,150,0|0,1:0|0:0,0:0:0:0:
282,241,8651,2,0,P|305:233|350:232,2,50,0|8|0,0:0|1:0|0:0,0:0:0:0:
263,287,9214,2,0,L|421:296,1,150,0|0,1:0|0:0,0:0:0:0:
495,238,10151,2,0,L|488:178,1,50,0|8,0:0|1:0,0:0:0:0:
428,108,10714,6,0,L|313:100,1,99.9999999999999,4|8,0:2|1:0,0:0:0:0:
244,155,11464,2,0,L|128:166,1,99.9999999999999,4|8,0:2|1:0,0:0:0:0:
59,96,12214,2,0,P|49:203|50:308,1,200,0|0,1:0|1:0,0:0:0:0:
139,338,13339,1,4,0:0:0:0:
225,287,13714,6,0,P|287:281|375:297,1,150,0|0,1:0|0:0,0:0:0:0:
465,334,14651,1,0,1:0:0:0:
465,334,14839,1,0,0:0:0:0:
508,243,15214,2,0,L|500:135,1,99.9999999999999
429,72,15964,2,0,L|316:61,1,99.9999999999999
247,120,16714,6,0,P|159:118|94:92,1,150
16,148,17651,2,0,L|22:216,1,50,0|0,1:0|0:0,0:0:0:0:
86,272,18214,2,0,L|199:283,1,99.9999999999999
267,225,18964,2,0,L|379:217,1,99.9999999999999
458,258,19714,6,0,P|474:200|479:57,1,200,2|0,1:2|0:0,0:0:0:0:
388,18,20839,2,0,P|347:24|336:29,1,50,0|0,0:0|1:0,0:0:0:0:
302,61,21214,2,0,P|236:58|139:38,1,150,0|0,0:0|1:0,0:0:0:0:
106,24,21964,1,0,0:0:0:0:
52,108,22339,1,0,0:0:0:0:
100,195,22714,6,0,L|213:184,1,99.9999999999999
235,278,23464,2,0,L|121:270,1,99.9999999999999
99,364,24214,2,0,P|187:370|300:349,1,200,8|8,1:0|1:0,0:0:0:0:
352,266,25339,1,8,1:0:0:0:
447,296,25714,6,0,L|466:133,1,150,4|0,1:0|1:0,0:0:0:0:
404,66,26651,1,0,1:0:0:0:
404,66,26839,2,0,L|346:72,1,50,0|0,0:0|1:0,0:0:0:0:
310,96,27214,2,0,P|211:86|100:67,1,200
19,106,28339,2,0,L|23:175,1,50,0|0,0:0|1:0,0:0:0:0:
46,199,28714,6,0,P|86:190|211:180,2,150,0|0|0,0:0|1:0|0:0,0:0:0:0:
17,295,30214,2,0,L|127:299,1,99.9999999999999
153,333,30776,1,0,1:0:0:0:
153,333,30964,2,0,L|273:320,1,99.9999999999999
319,247,31714,6,0,L|331:138,1,99.9999999999999,0|4,1:0|0:0,0:0:0:0:
428,128,32464,2,0,L|454:240,1,99.9999999999999,0|4,1:0|0:0,0:0:0:0:
440,325,33214,2,0,P|392:347|339:341,1,99.9999999999999,0|4,1:0|0:0,0:0:0:0:
248,319,33964,2,0,P|198:316|153:337,1,99.9999999999999,0|4,1:0|0:0,0:0:0:0:
69,284,34714,6,0,L|78:218,1,50,4|0,0:0|1:0,0:0:0:0:
111,199,35089,2,0,L|102:133,1,50,4|0,0:0|1:0,0:0:0:0:
68,114,35464,2,0,L|280:120,1,200,4|2,0:0|1:2,0:0:0:0:
267,119,37714,6,0,L|272:232,1,99.9999999999999,4|8,1:0|1:0,0:0:0:0:
306,254,38276,2,0,P|357:235|457:239,1,150,0|8,0:0|1:0,0:0:0:0:
441,337,39214,2,0,L|338:330,1,99.9999999999999,0|8,1:0|1:0,0:0:0:0:
305,365,39776,1,0,0:0:0:0:
220,312,40151,1,0,0:0:0:0:
220,312,40339,2,0,L|162:317,1,50,8|0,1:0|0:0,0:0:0:0:
130,344,40714,6,0,B|159:218|99:274|127:148,1,200,0|0,1:0|1:0,0:0:0:0:
182,66,41839,1,8,1:0:0:0:
273,105,42214,2,0,P|311:106|383:88,1,99.9999999999999,0|8,1:0|1:0,0:0:0:0:
461,50,42964,2,0,L|464:111,1,50,0|4,1:0|0:0,0:0:0:0:
497,136,43339,1,8,1:0:0:0:
459,226,43714,6,0,L|342:221,1,99.9999999999999,4|8,1:0|1:0,0:0:0:0:
323,186,44276,2,0,P|274:180|220:211,1,99.9999999999999
194,236,44839,1,8,1:0:0:0:
112,177,45214,2,0,L|125:68,1,99.9999999999999,0|8,1:0|1:0,0:0:0:0:
204,17,45964,2,0,L|216:124,1,99.9999999999999,0|8,1:0|1:0,0:0:0:0:
308,152,46714,5,0,0:0:0:0:
403,121,47089,2,0,L|453:127,2,50,8|0|0,1:0|0:0|0:0,0:0:0:0:
382,219,47839,1,8,1:0:0:0:
361,317,48214,2,0,L|251:310,1,99.9999999999999,0|8,1:0|1:0,0:0:0:0:
181,249,48964,2,0,P|126:257|77:290,1,99.9999999999999,0|8,1:0|1:0,0:0:0:0:
38,365,49714,6,0,L|22:157,1,200,4|8,1:0|1:0,0:0:0:0:
72,78,50839,1,8,1:0:0:0:
164,115,51214,1,8,1:0:0:0:
240,48,51589,2,0,L|352:38,1,99.9999999999999,8|8,1:0|1:0,0:0:0:0:
369,79,52151,2,0,L|427:87,2,50,4|4|4,0:0|0:0|0:0,0:0:0:0:
350,125,52714,5,8,1:0:0:0:
463,117,55714,6,0,L|474:272,1,150,4|0,1:0|1:0,0:0:0:0:
486,314,56464,2,0,P|428:296|366:302,1,99.9999999999999
298,339,57214,2,0,P|240:357|155:322,1,150,0|0,0:0|1:0,0:0:0:0:
71,278,58151,2,0,L|64:327,2,50,8|2|8,1:0|0:0|1:0,0:0:0:0:
100,238,58714,6,0,L|186:230,2,74.9999999999999,4|2|0,1:0|0:0|1:0,0:0:0:0:
63,203,59464,1,0,0:0:0:0:
86,105,59839,1,0,1:0:0:0:
181,133,60214,6,0,L|353:117,1,150,0|8,0:0|1:0,0:0:0:0:
380,112,60964,1,0,0:0:0:0:
448,184,61339,2,0,P|445:208|437:232,1,50,0|0,0:0|1:0,0:0:0:0:
256,192,61714,12,2,63214,1:0:0:0:
196,248,64714,6,0,L|184:88,1,150,4|8,1:2|1:0,0:0:0:0:
220,62,65464,1,4,1:2:0:0:
316,96,65839,1,0,0:0:0:0:
396,37,66214,2,0,P|412:79|371:179,1,150,4|8,1:2|1:0,0:0:0:0:
337,203,66964,1,4,1:2:0:0:
250,254,67339,2,0,L|258:318,1,50,0|8,0:0|1:0,0:0:0:0:
291,339,67714,6,0,L|446:342,1,150,4|8,1:2|1:0,0:0:0:0:
476,306,68464,1,4,1:2:0:0:
428,220,68839,1,0,0:0:0:0:
445,121,69214,2,0,P|380:132|358:145,2,74.9999999999999,4|4|8,1:2|0:0|1:0,0:0:0:0:
491,140,69964,2,0,L|496:22,1,99.9999999999999,4|0,1:2|0:0,0:0:0:0:
396,21,70714,6,0,L|286:36,1,99.9999999999999,0|0,1:0|0:0,0:0:0:0:
261,69,71276,2,0,P|200:56|151:53,1,99.9999999999999,0|0,1:0|1:0,0:0:0:0:
87,118,72025,1,0,1:0:0:0:
87,118,72214,2,0,L|92:183,1,50,0|0,0:0|1:0,0:0:0:0:
156,243,72776,1,0,1:0:0:0:
241,191,73151,2,0,P|290:191|350:218,1,99.9999999999999,0|0,1:0|1:0,0:0:0:0:
379,236,73714,6,0,P|422:204|434:94,1,150,8|0,1:0|2:0,0:0:0:0:
416,69,74464,1,8,1:0:0:0:
325,26,74839,1,0,1:0:0:0:
237,75,75214,2,0,L|168:69,1,50
143,45,75589,2,0,L|151:159,1,99.9999999999999
158,244,76339,1,0,0:0:0:0:
165,343,76714,6,0,P|213:342|276:348,1,99.9999999999999,4|8,1:0|1:0,0:0:0:0:
311,362,77276,2,0,P|360:297|350:213,1,150,0|8,0:0|1:0,0:0:0:0:
296,152,78214,2,0,L|193:160,1,99.9999999999999,0|8,1:0|1:0,0:0:0:0:
146,165,78776,1,0,0:0:0:0:
53,127,79151,1,0,0:0:0:0:
53,127,79339,2,0,P|58:92|76:70,1,50,8|0,1:0|0:0,0:0:0:0:
100,44,79714,6,0,L|203:52,1,99.9999999999999,0|8,1:0|1:0,0:0:0:0:
277,114,80464,2,0,L|376:106,1,99.9999999999999,0|8,1:0|1:0,0:0:0:0:
470,70,81214,1,0,1:0:0:0:
455,168,81589,1,8,1:0:0:0:
440,266,81964,2,0,P|376:268|336:278,1,99.9999999999999,0|8,1:0|1:0,0:0:0:0:
261,337,82714,6,0,P|197:335|166:311,1,99.9999999999999,4|8,1:0|1:0,0:0:0:0:
140,274,83276,2,0,L|149:114,1,150,0|8,0:0|1:0,0:0:0:0:
212,48,84214,1,0,1:0:0:0:
300,96,84589,1,8,1:0:0:0:
396,72,84964,2,0,P|408:132|400:184,1,99.9999999999999,0|8,1:0|1:0,0:0:0:0:
350,255,85714,6,0,L|238:245,1,99.9999999999999,0|8,1:0|1:0,0:0:0:0:
201,242,86276,1,0,0:0:0:0:
150,238,86464,1,0,1:0:0:0:
62,286,86839,2,0,P|53:327|56:343,1,50,8|0,1:0|0:0,0:0:0:0:
91,367,87214,2,0,L|210:356,1,99.9999999999999,0|8,1:0|1:0,0:0:0:0:
286,327,87964,2,0,L|385:330,1,99.9999999999999,0|8,1:0|1:0,0:0:0:0:
480,363,88714,6,0,P|490:287|498:147,1,200,4|0,1:0|1:0,0:0:0:0:
439,82,89839,1,8,1:0:0:0:
342,109,90214,2,0,P|279:108|223:84,1,99.9999999999999,0|8,1:0|1:0,0:0:0:0:
163,36,90964,2,0,P|100:37|44:61,1,99.9999999999999,0|8,1:0|1:0,0:0:0:0:
23,139,91714,5,0,1:0:0:0:
86,216,92089,1,8,1:0:0:0:
47,308,92464,2,0,L|187:300,1,99.9999999999999,0|8,1:0|1:0,0:0:0:0:
241,335,93214,2,0,P|266:286|262:234,1,99.9999999999999,0|4,1:0|1:2,0:0:0:0:
228,148,93964,1,0,1:0:0:0:
228,148,94151,2,0,L|234:91,2,50,8|8|8,1:0|1:0|1:0,0:0:0:0:
276,159,94714,6,0,P|335:156|385:141,1,99.9999999999999,4|8,1:0|1:0,0:0:0:0:
462,97,95464,2,0,L|473:201,1,99.9999999999999,0|8,1:0|1:0,0:0:0:0:
456,243,96026,1,0,0:0:0:0:
439,289,96214,2,0,L|330:284,1,99.9999999999999,0|8,1:0|1:0,0:0:0:0:
253,232,96964,2,0,P|173:240|149:250,1,99.9999999999999,0|8,1:0|1:0,0:0:0:0:
69,299,97714,5,0,1:0:0:0:
69,299,97901,2,0,L|59:174,1,99.9999999999999,8|4,1:0|0:0,0:0:0:0:
28,160,98464,2,0,P|27:83|47:53,1,99.9999999999999,8|0,1:0|0:0,0:0:0:0:
131,31,99214,2,0,L|192:37,1,50,0|8,0:0|1:0,0:0:0:0:
230,43,99589,1,0,0:0:0:0:
264,136,99964,2,0,L|160:145,1,99.9999999999999,8|0,1:0|0:0,0:0:0:0:
64,154,100714,5,4,1:0:0:0:
256,192,100901,12,2,102214,2:0:0:0:
336,210,106714,6,0,L|341:119,2,74.9999999999999,8|0|0,1:2|0:0|0:0,0:0:0:0:
305,249,107464,2,0,P|239:261|194:257,1,99.9999999999999,8|8,1:2|1:2,0:0:0:0:
129,195,108214,2,0,P|117:129|121:84,1,99.9999999999999,8|8,1:2|1:2,0:0:0:0:
201,38,108964,1,8,1:2:0:0:
292,78,109339,1,8,1:2:0:0:
385,41,109714,6,8,L|494:48,1,99.9999999999999,8|8,1:2|1:2,0:2:0:0:
493,96,110276,1,0,0:0:0:0:
501,145,110464,2,8,L|399:154,1,99.9999999999999,8|8,1:2|1:2,0:2:0:0:
303,132,111214,2,8,P|294:184|297:239,1,99.9999999999999,8|8,1:2|1:2,0:2:0:0:
348,316,111964,2,8,L|458:306,1,99.9999999999999,8|8,1:2|1:2,0:2:0:0:
491,217,112714,6,8,P|503:117|506:17,1,200,8|8,1:2|1:2,0:2:0:0:
415,57,113839,2,0,P|375:54|357:48,1,50,8|0,1:2|0:0,0:0:0:0:
322,25,114214,2,8,L|201:36,1,99.9999999999999,8|8,1:2|1:2,0:2:0:0:
143,95,114964,1,8,1:2:0:0:
191,182,115339,1,8,1:2:0:0:
111,242,115714,6,8,L|115:357,1,99.9999999999999,8|8,1:2|1:2,0:2:0:0:
159,363,116276,1,0,0:0:0:0:
159,363,116464,2,8,L|260:371,1,99.9999999999999,8|8,1:2|1:2,0:2:0:0:
338,310,117214,2,8,P|330:262|330:208,1,99.9999999999999,8|8,1:2|1:2,0:2:0:0:
400,139,117964,1,8,1:2:0:0:
494,173,118339,2,0,P|490:203|479:221,1,50,8|0,1:0|0:0,0:0:0:0:
437,246,118714,6,0,L|429:42,1,200,4|8,3:3|1:0,0:0:0:0:
230,27,120214,2,0,P|231:88|226:139,1,99.9999999999999,4|0,3:0|0:0,0:0:0:0:
219,176,120776,1,0,0:0:0:0:
219,176,120964,1,8,1:0:0:0:
317,158,121339,1,0,3:0:0:0:
395,219,121714,6,0,L|391:333,1,99.9999999999999,4|0,3:0|0:0,0:0:0:0:
298,354,122464,2,0,P|258:337|189:336,1,99.9999999999999,8|0,1:0|0:0,0:0:0:0:
104,358,123214,2,0,L|91:150,1,200,4|8,3:0|1:0,0:0:0:0:
149,76,124339,2,0,P|187:87|203:87,1,50,0|0,3:0|0:0,0:0:0:0:
241,63,124714,6,0,P|308:53|353:51,1,99.9999999999999,4|0,3:0|0:0,0:0:0:0:
438,66,125464,1,8,1:0:0:0:
338,239,126214,2,0,P|271:229|226:227,1,99.9999999999999,4|0,3:0|0:0,0:0:0:0:
141,242,126964,1,8,1:0:0:0:
305,355,127714,6,0,L|411:347,1,99.9999999999999,4|8,3:0|1:0,0:0:0:0:
472,273,128464,2,0,P|485:215|485:168,1,99.9999999999999,4|8,3:0|1:0,0:0:0:0:
438,85,129214,2,0,L|325:93,1,99.9999999999999,4|0,3:0|3:0,0:0:0:0:
291,73,129776,1,0,3:0:0:0:
291,73,129964,2,0,P|292:122|304:171,1,99.9999999999999,2|12,3:2|1:2,0:0:0:0:
358,255,130714,5,4,1:0:0:0:
145,230,136714,6,0,L|138:122,1,99.9999999999999,4|8,1:0|1:0,0:0:0:0:
203,54,137464,2,0,L|311:61,1,99.9999999999999,0|8,1:0|1:0,0:0:0:0:
371,132,138214,1,0,1:0:0:0:
316,215,138589,2,0,P|305:274|309:327,2,99.9999999999999,8|0|8,1:0|1:0|1:0,0:0:0:0:
386,144,139714,5,4,1:2:0:0:
256,192,141214,12,4,142714,1:2:0:0:
189,315,154714,6,0,P|183:266|180:107,1,200,4|0,1:0|0:0,0:0:0:0:
260,56,155839,1,0,0:0:0:0:
352,93,156214,2,0,L|456:87,1,99.9999999999999
486,181,156964,2,0,L|386:186,1,99.9999999999999,0|4,0:0|0:0,0:0:0:0:
350,221,157526,1,4,0:0:0:0:
350,221,157714,6,0,L|242:212,1,99.9999999999999
161,165,158464,2,0,P|153:119|153:63,1,99.9999999999999
241,19,159214,2,0,L|363:24,1,99.9999999999999,4|0,0:0|0:0,0:0:0:0:
383,49,159776,1,4,0:0:0:0:
383,49,159964,2,0,P|389:101|363:159,1,99.9999999999999,0|4,0:0|0:0,0:0:0:0:
297,210,160714,6,0,P|291:262|317:320,1,99.9999999999999
347,334,161276,1,0,0:0:0:0:
347,334,161464,1,0,0:0:0:0:
444,312,161839,1,4,0:0:0:0:
422,214,162214,2,0,L|431:103,1,99.9999999999999,4|0,0:0|0:0,0:0:0:0:
377,28,162964,2,0,L|276:33,1,99.9999999999999,4|0,0:0|0:0,0:0:0:0:
207,104,163714,6,0,P|158:97|2:90,1,200
56,177,164839,1,0,0:0:0:0:
17,269,165214,2,0,L|26:368,1,99.9999999999999,0|0,1:0|1:0,0:0:0:0:
124,353,165964,2,0,L|133:248,1,99.9999999999999,0|0,1:0|1:0,0:0:0:0:
174,225,166526,1,0,1:0:0:0:
174,225,166714,6,0,P|216:237|285:228,1,99.9999999999999,4|0,1:0|0:0,0:0:0:0:
310,200,167276,1,0,0:0:0:0:
310,200,167464,1,8,1:0:0:0:
405,229,167839,2,0,L|411:175,1,50
386,135,168214,2,0,L|376:29,1,99.9999999999999
279,9,168964,2,0,P|261:53|261:120,1,99.9999999999999,8|0,1:0|0:0,0:0:0:0:
304,193,169714,6,0,L|101:183,1,200,0|8,1:0|1:0,0:0:0:0:
78,280,170839,2,0,L|131:274,1,50
169,302,171214,2,0,P|236:306|277:318,1,99.9999999999999
352,367,171964,2,0,P|419:363|460:351,1,99.9999999999999,12|0,1:0|0:0,0:0:0:0:
484,317,172526,1,8,1:0:0:0:
484,317,172714,5,0,1:0:0:0:
256,192,172901,12,0,174964,1:0:0:0:
256,192,175714,12,4,177214,1:2:0:0:
191,262,177964,6,0,L|185:150,1,99.9999999999999,8|8,1:0|1:0,0:0:0:0:
237,76,178714,2,0,P|278:94|438:93,1,200,4|8,0:1|1:0,0:0:0:0:
495,284,180214,2,0,P|396:273|301:303,1,200,0|8,0:0|1:0,0:0:0:0:
213,352,181339,2,0,L|151:344,1,50
118,322,181714,6,0,L|110:205,1,99.9999999999999,4|0,0:1|0:0,0:0:0:0:
142,127,182464,1,8,1:0:0:0:
233,167,182839,1,0,0:0:0:0:
313,107,183214,2,0,L|433:117,1,99.9999999999999
424,214,183964,2,0,P|375:223|325:221,1,99.9999999999999,8|0,1:0|0:0,0:0:0:0:
277,208,184526,1,8,0:1:0:0:
277,208,184714,6,0,L|282:321,1,99.9999999999999,4|0,0:1|0:0,0:0:0:0:
197,362,185464,2,0,L|85:353,1,99.9999999999999,8|0,1:0|0:0,0:0:0:0:
33,276,186214,2,0,B|61:140|3:215|35:79,1,200,0|8,0:0|1:0,0:0:0:0:
228,28,187714,6,0,P|214:61|219:133,1,99.9999999999999
294,187,188464,1,8,1:0:0:0:
309,88,188838,1,0,0:0:0:0:
387,150,189214,2,0,L|381:263,1,99.9999999999999,4|8,0:0|0:1,0:0:0:0:
406,293,189776,2,0,P|369:294|298:311,1,99.9999999999999,4|8,0:0|0:1,0:0:0:0:
261,327,190339,1,8,1:0:0:0:
171,282,190714,6,0,L|177:172,1,99.9999999999999,4|8,1:0|1:0,0:0:0:0:
152,85,191464,1,0,1:0:0:0:
250,102,191838,2,0,P|274:113|303:116,1,50,8|0,1:0|0:0,0:0:0:0:
342,93,192214,2,0,P|385:83|455:78,1,99.9999999999999,0|8,1:0|1:0,0:0:0:0:
510,150,192964,1,0,1:0:0:0:
446,227,193339,1,8,1:0:0:0:
485,318,193714,6,0,L|373:323,1,99.9999999999999,0|8,1:0|1:0,0:0:0:0:
288,349,194464,2,0,L|179:342,1,99.9999999999999,0|8,1:0|1:0,0:0:0:0:
94,307,195214,2,0,P|84:274|84:253,1,50,0|0,1:0|1:0,0:0:0:0:
103,212,195589,1,4,1:2:0:0:
192,166,195964,1,0,1:0:0:0:
192,166,196151,2,0,L|251:164,2,50,8|8|8,1:0|1:0|1:0,0:0:0:0:
152,134,196714,6,0,P|149:87|171:34,1,99.9999999999999,4|8,1:0|1:0,0:0:0:0:
264,65,197464,2,0,L|384:60,1,99.9999999999999,0|8,1:0|1:0,0:0:0:0:
456,22,198214,2,0,L|446:231,1,200,0|0,1:0|1:0,0:0:0:0:
376,293,199339,1,8,1:0:0:0:
292,237,199714,6,0,P|238:252|198:279,1,99.9999999999999,0|8,1:0|1:0,0:0:0:0:
104,251,200464,2,0,P|117:196|113:148,1,99.9999999999999,0|8,1:0|1:0,0:0:0:0:
185,81,201214,2,0,P|227:120|364:147,1,200,4|4,0:0|0:0,0:0:0:0:
455,109,202339,1,4,0:2:0:0:
507,194,202714,6,0,L|497:305,1,99.9999999999999,4|0,1:0|0:0,0:0:0:0:
408,338,203464,1,8,1:0:0:0:
242,225,204214,2,0,P|187:227|135:248,1,99.9999999999999,0|0,1:0|0:0,0:0:0:0:
51,277,204964,2,0,L|44:172,1,99.9999999999999,8|0,1:0|0:0,0:0:0:0:
70,135,205526,1,0,1:0:0:0:
70,135,205714,6,0,L|172:142,1,99.9999999999999,0|0,1:0|0:0,0:0:0:0:
256,192,206464,2,0,P|302:188|353:171,1,99.9999999999999,8|0,1:0|0:0,0:0:0:0:
406,86,207214,2,0,P|393:160|391:302,1,200,0|8,1:0|1:0,0:0:0:0:
483,318,208339,1,0,1:0:0:0:
483,318,208526,1,8,1:0:0:0:
483,318,208714,6,0,L|481:215,1,99.9999999999999,4|0,1:0|0:0,0:0:0:0:
497,119,209464,2,0,L|481:16,1,99.9999999999999,8|0,1:0|0:0,0:0:0:0:
390,60,210214,2,0,P|336:59|277:43,1,99.9999999999999,0|0,1:0|0:0,0:0:0:0:
196,17,210964,1,8,1:0:0:0:
102,52,211339,2,0,L|108:112,1,50,0|0,1:0|1:0,0:0:0:0:
137,141,211714,6,0,L|127:254,1,99.9999999999999,0|0,1:0|0:0,0:0:0:0:
74,325,212464,1,8,1:0:0:0:
271,359,213214,2,0,P|300:343|422:344,1,150,8|0,1:0|0:0,0:0:0:0:
459,362,213964,2,0,P|490:319|486:221,1,150,4|0,1:3|0:0,0:0:0:0:
455,186,214714,6,0,L|347:196,1,99.9999999999999,4|0,1:0|0:0,0:0:0:0:
268,148,215464,1,8,1:0:0:0:
120,282,216214,2,0,P|109:230|105:180,1,99.9999999999999,0|0,1:0|0:0,0:0:0:0:
129,86,216964,1,8,1:0:0:0:
219,43,217339,2,0,P|245:52|277:53,1,50,0|0,0:0|1:0,0:0:0:0:
314,36,217714,6,0,P|360:20|425:19,1,99.9999999999999,0|0,1:0|0:0,0:0:0:0:
480,89,218464,1,8,1:0:0:0:
425,173,218839,2,0,L|431:229,1,50,0|0,0:0|1:0,0:0:0:0:
456,265,219214,2,0,L|338:257,1,99.9999999999999,8|0,1:0|1:0,0:0:0:0:
311,235,219776,1,8,1:0:0:0:
311,235,219964,2,0,L|322:347,1,99.9999999999999,8|4,1:0|1:3,0:0:0:0:
222,354,220714,6,0,P|184:345|122:345,1,99.9999999999999,4|0,1:0|0:0,0:0:0:0:
25,369,221464,1,8,1:0:0:0:
17,269,221839,2,0,L|23:211,1,50
56,182,222214,2,0,L|164:175,1,99.9999999999999,0|0,1:0|0:0,0:0:0:0:
230,108,222964,2,0,L|342:118,1,99.9999999999999,8|0,1:0|0:0,0:0:0:0:
417,69,223714,6,0,P|411:114|411:188,1,99.9999999999999,0|0,1:0|0:0,0:0:0:0:
434,211,224276,1,0,0:0:0:0:
434,211,224464,2,0,L|425:320,1,99.9999999999999,8|0,1:0|0:0,0:0:0:0:
332,347,225214,6,0,P|262:349|189:315,1,133.333333333333,8|2,1:0|0:0,0:0:0:0:
169,289,225964,2,0,P|99:287|26:321,1,133.333333333333,8|2,1:0|0:0,0:0:0:0:
31,359,226714,6,0,L|43:152,1,200,4|0,1:0|0:0,0:0:0:0:
150,54,228214,2,0,P|203:81|346:73,1,200
484,33,229714,6,0,P|462:133|466:243,1,200
351,328,231214,2,0,P|352:228|331:130,1,200
225,23,232714,6,0,B|146:83|146:83|48:59,1,200,0|0,0:0|0:0,0:3:0:0:
21,207,234214,2,0,L|230:222,1,200
350,296,235714,6,0,L|340:84,1,200
209,22,237214,2,0,B|236:144|171:93|209:218,1,200
267,300,238339,1,0,0:0:0:0:
184,355,238714,5,4,1:0:0:0:
