osu file format v14

[General]
AudioFilename: 05 Pierce The Veil - Bulls In The Bronx.mp3
AudioLeadIn: 0
PreviewTime: 37714
Countdown: 0
SampleSet: None
StackLeniency: 0.3
Mode: 0
LetterboxInBreaks: 0
WidescreenStoryboard: 0

[Editor]
Bookmarks: 1714,13714,25714,37714,49714,55714,64714,76714,88714,100714,106714,118714,130714,142714,154714,166714,178714,190714,202714,214714,226714,238714
DistanceSpacing: 1.6
BeatDivisor: 4
GridSize: 4
TimelineZoom: 1.2

[Metadata]
Title:Bulls in the Bronx
TitleUnicode:Bulls in the Bronx
Artist:Pierce The Veil
ArtistUnicode:Pierce The Veil
Creator:Avena
Version:Extreme
Source:
Tags:Collide with the Sky Post Hardcore HB24 pishifat Aia Priti
BeatmapID:1163090
BeatmapSetID:424713

[Difficulty]
HPDrainRate:5.7
CircleSize:4.2
OverallDifficulty:9
ApproachRate:9.3
SliderMultiplier:1.9
SliderTickRate:1

[Events]
//Background and Video events
0,0,"huh.jpg",0,0
//Break Periods
2,52914,54972
2,102414,106160
2,142914,154160
//Storyboard Layer 0 (Background)
//Storyboard Layer 1 (Fail)
//Storyboard Layer 2 (Pass)
//Storyboard Layer 3 (Foreground)
//Storyboard Sound Samples

[TimingPoints]
214,375,4,3,1,80,1,0
1714,375,4,2,1,85,1,0
13714,-83.3333333333333,4,3,1,80,0,0
24214,-66.6666666666667,4,3,1,90,0,0
25714,-66.6666666666667,4,3,1,85,0,0
31714,-133.333333333333,4,3,1,50,0,0
32464,-100,4,3,1,60,0,0
33214,-80,4,3,1,70,0,0
33964,-66.6666666666667,4,3,1,80,0,0
34714,-83.3333333333333,4,3,1,75,0,0
35464,-83.3333333333333,4,3,1,80,0,0
37714,-83.3333333333333,4,3,1,80,0,1
52151,-83.3333333333333,4,3,1,60,0,0
52714,-83.3333333333333,4,3,1,80,0,0
55714,-66.6666666666667,4,3,1,85,0,0
61760,-66.6666666666667,4,2,1,5,0,0
61901,-66.6666666666667,4,2,1,85,0,0
61948,-66.6666666666667,4,2,1,5,0,0
62089,-66.6666666666667,4,2,1,85,0,0
62135,-66.6666666666667,4,2,1,5,0,0
62276,-66.6666666666667,4,2,1,85,0,0
62323,-66.6666666666667,4,2,1,5,0,0
62464,-66.6666666666667,4,2,1,60,0,0
63214,-200,4,2,1,60,0,0
63260,-200,4,2,1,5,0,0
63964,-200,4,2,1,60,0,0
64010,-200,4,2,1,5,0,0
64714,-100,4,3,1,85,0,0
64901,-100,4,3,1,70,0,0
70714,-83.3333333333333,4,3,1,80,0,0
75214,-83.3333333333333,4,3,1,60,0,0
76714,-83.3333333333333,4,3,1,80,0,1
87214,-83.3333333333333,4,3,1,80,0,0
88714,-83.3333333333333,4,3,1,80,0,1
94151,-66.6666666666667,4,3,1,90,0,0
94714,-83.3333333333333,4,3,1,90,0,1
100714,-83.3333333333333,4,3,1,90,0,0
100807,-83.3333333333333,4,3,1,5,0,0
102214,-83.3333333333333,4,3,1,20,0,0
106714,-133.333333333333,4,2,2,40,0,0
118339,-66.6666666666667,4,2,1,80,0,0
118385,-66.6666666666667,4,2,1,5,0,0
118714,-133.333333333333,4,2,1,40,0,0
119464,-133.333333333333,4,2,1,60,0,0
119557,-133.333333333333,4,2,1,40,0,0
120964,-133.333333333333,4,2,1,60,0,0
121057,-133.333333333333,4,2,1,40,0,0
122464,-133.333333333333,4,2,1,60,0,0
122557,-133.333333333333,4,2,1,40,0,0
123964,-133.333333333333,4,2,1,60,0,0
124057,-133.333333333333,4,2,1,40,0,0
125464,-133.333333333333,4,2,1,60,0,0
125557,-133.333333333333,4,2,1,40,0,0
126964,-133.333333333333,4,2,1,60,0,0
127057,-133.333333333333,4,2,1,40,0,0
127714,-133.333333333333,4,2,1,60,0,0
130339,-100,4,2,2,60,0,0
130714,-83.3333333333333,4,3,1,80,0,0
141214,-83.3333333333333,4,3,1,70,0,0
154714,-133.333333333333,4,3,1,60,0,0
165214,-133.333333333333,4,3,1,40,0,0
165589,-133.333333333333,4,3,1,45,0,0
165964,-133.333333333333,4,3,1,50,0,0
166339,-133.333333333333,4,3,1,55,0,0
166714,-100,4,3,1,70,0,0
172901,-100,4,2,1,5,0,0
173089,-100,4,3,1,70,0,0
173276,-100,4,2,1,5,0,0
173464,-100,4,3,1,70,0,0
173651,-100,4,2,1,5,0,0
173839,-100,4,3,1,70,0,0
174026,-100,4,2,1,5,0,0
174214,-100,4,3,1,70,0,0
174401,-100,4,2,1,5,0,0
174589,-100,4,3,1,70,0,0
174776,-100,4,3,1,5,0,0
174964,-100,4,3,1,70,0,0
175151,-100,4,3,1,5,0,0
175339,-100,4,3,1,70,0,0
175526,-100,4,3,1,5,0,0
175714,-100,4,3,1,70,0,0
177214,-50,4,3,1,90,0,0
177401,-50,4,3,1,5,0,0
177589,-50,4,3,1,90,0,0
177776,-50,4,3,1,5,0,0
177964,-50,4,3,1,90,0,0
178151,-50,4,3,1,5,0,0
178339,-50,4,3,1,90,0,0
178526,-50,4,3,1,5,0,0
178714,-83.3333333333333,4,3,1,80,0,1
189214,-83.3333333333333,4,3,1,80,0,0
190339,-83.3333333333333,4,3,1,60,0,0
190714,-83.3333333333333,4,3,1,80,0,1
196151,-66.6666666666667,4,3,1,90,0,0
196714,-83.3333333333333,4,3,1,90,0,1
201214,-83.3333333333333,4,3,1,90,0,0
202714,-66.6666666666667,4,3,1,80,0,1
213401,-66.6666666666667,4,3,1,60,0,1
213964,-66.6666666666667,4,3,1,80,0,1
214714,-100,4,2,1,70,0,0
225214,-66.6666666666667,4,3,1,80,0,1
226714,-133.333333333333,4,2,1,50,0,0
227276,-133.333333333333,4,2,1,40,0,0
228214,-133.333333333333,4,2,1,35,0,0
238714,-133.333333333333,4,2,1,70,0,0

[Colours]
Combo1 : 255,94,55
Combo2 : 173,255,95
Combo3 : 17,254,176
Combo4 : 255,88,100

[HitObjects]
384,120,214,6,0,L|392:60,2,47.5,8|0|0,1:0|1:0|1:0,0:0:0:0:
272,148,495,2,0,L|278:195,2,47.5,8|0|0,1:0|1:0|1:0,0:0:0:0:
356,260,776,2,0,L|404:212,2,47.5,8|0|0,1:0|1:0|1:0,0:0:0:0:
224,312,1057,2,0,L|132:300,2,47.5,8|4|4,1:0|1:3|1:3,0:0:0:0:
264,200,1339,1,6,1:2:0:0:
264,200,1714,6,0,P|268:132|276:80,1,95,0|0,1:0|0:0,0:0:0:0:
248,20,1995,2,0,P|192:32|168:32,1,47.5,8|0,1:0|0:0,0:0:0:0:
42,270,2276,2,0,P|98:270|246:326,1,190,0|0,1:0|3:0,0:0:0:0:
382,250,2839,2,0,L|370:154,1,95,8|0,1:0|0:0,0:0:0:0:
192,116,3214,6,0,L|180:224,1,95,0|0,1:0|0:0,0:0:0:0:
224,311,3495,2,0,B|137:298|169:327|83:309,1,142.5,8|0,1:0|1:0,0:0:0:0:
45,146,4151,1,0,1:0:0:0:
82,308,4339,1,8,1:0:0:0:
149,100,4526,1,0,0:0:0:0:
338,228,4714,6,0,L|234:233,1,95,0|0,1:0|0:0,0:0:0:0:
267,144,4995,2,0,L|315:151,1,47.5,8|0,1:0|0:0,0:0:0:0:
461,355,5276,2,0,P|467:294|509:132,1,190,0|0,1:0|3:0,0:0:0:0:
362,319,5839,2,0,P|355:272|337:227,1,95,8|0,1:0|0:0,0:0:0:0:
54,13,6214,6,0,B|59:109,1,95,0|0,1:0|0:0,0:0:0:0:
130,238,6495,2,0,P|137:191|155:146,1,95,8|0,1:0|0:0,0:0:0:0:
246,108,6776,2,0,B|127:130|189:77|59:108,1,190,0|0,1:0|3:0,0:0:0:0:
130,238,7339,1,8,1:0:0:0:
216,15,7526,1,0,3:0:0:0:
216,15,7620,1,0,3:0:0:0:
216,15,7714,6,0,P|275:13|312:36,1,95,0|0,1:0|0:0,0:0:0:0:
389,110,7995,2,0,L|336:116,1,47.5,8|0,1:0|0:0,0:0:0:0:
311,245,8276,2,0,P|411:257|527:265,1,190,0|0,1:0|3:0,0:0:0:0:
357,349,8839,2,0,L|247:343,1,95,8|0,1:0|0:0,0:0:0:0:
106,228,9214,6,0,P|111:166|136:133,1,95,0|0,1:0|0:0,0:0:0:0:
299,150,9495,2,0,L|312:259,1,95,8|0,1:0|0:0,0:0:0:0:
201,284,9776,2,0,L|220:54,1,190,0|0,1:0|3:0,0:0:0:0:
386,161,10339,2,0,P|374:91|374:52,1,95,8|0,1:0|0:0,0:0:0:0:
507,98,10714,5,4,1:2:0:0:
463,341,10901,1,2,0:0:0:0:
322,120,11089,1,8,1:0:0:0:
278,363,11276,1,2,0:0:0:0:
38,138,11464,5,4,1:2:0:0:
200,193,11651,1,2,0:0:0:0:
334,87,11839,1,8,1:0:0:0:
172,32,12026,1,2,0:0:0:0:
67,298,12214,5,4,1:2:0:0:
326,366,12401,1,4,1:3:0:0:
310,321,12495,1,0,1:3:0:0:
311,274,12589,1,4,1:3:0:0:
328,229,12683,1,0,1:3:0:0:
359,194,12776,1,4,1:3:0:0:
459,302,12964,5,4,1:2:0:0:
414,52,13151,1,4,1:3:0:0:
357,56,13244,1,0,1:3:0:0:
300,60,13338,1,4,1:3:0:0:
243,64,13432,1,0,1:3:0:0:
186,68,13526,1,4,1:3:0:0:
129,72,13621,1,4,1:3:0:0:
72,76,13714,6,0,L|56:160,1,56.9999982604981,4|0,1:3|0:0,0:0:0:0:
61,246,13901,2,0,L|86:314,1,56.9999982604981,8|0,1:0|0:0,0:0:0:0:
192,331,14089,1,0,0:0:0:0:
192,331,14182,1,0,0:0:0:0:
192,331,14276,2,0,P|267:313|316:309,1,113.999996520996,8|0,1:0|0:0,0:0:0:0:
277,174,14557,1,0,0:0:0:0:
296,186,14651,2,0,P|371:204|420:208,1,113.999996520996,8|0,1:0|0:0,0:0:0:0:
417,202,14932,1,0,0:0:0:0:
426,196,15026,1,8,1:0:0:0:
334,31,15214,6,0,L|199:44,1,113.999996520996,0|8,0:0|1:0,0:0:0:0:
163,141,15495,2,0,P|199:151|226:153,1,56.9999982604981
271,255,15682,1,0,0:0:0:0:
249,245,15776,2,0,P|192:251|138:268,1,113.999996520996,8|0,1:0|0:0,0:0:0:0:
131,278,16057,1,0,0:0:0:0:
126,288,16151,2,0,L|70:283,1,56.9999982604981,8|0,1:0|0:0,0:0:0:0:
32,138,16339,2,0,L|151:130,1,113.999996520996,0|8,0:0|1:0,0:0:0:0:
307,165,16714,6,0,P|291:124|293:100,1,56.9999982604981
352,20,16901,2,0,L|488:32,1,113.999996520996,8|0,1:0|0:0,0:0:0:0:
389,162,17182,1,0,0:0:0:0:
411,160,17276,2,0,L|468:156,1,56.9999982604981,8|0,1:0|0:0,0:0:0:0:
492,318,17464,2,0,L|430:306,1,56.9999982604981
294,363,17651,1,8,1:0:0:0:
102,219,17839,1,0,0:0:0:0:
96,252,17932,1,0,0:0:0:0:
90,285,18026,1,8,1:0:0:0:
250,228,18214,6,0,P|246:158|226:115,1,113.999996520996,0|8,0:0|1:0,0:0:0:0:
9,91,18589,2,0,P|15:63|28:38,1,56.9999982604981
151,168,18776,2,0,L|38:176,1,113.999996520996,8|0,1:0|0:0,0:0:0:0:
216,51,19057,1,0,0:0:0:0:
195,45,19151,2,0,L|120:36,1,56.9999982604981,8|0,1:0|0:0,0:0:0:0:
270,128,19339,1,0,0:0:0:0:
298,126,19433,1,0,0:0:0:0:
326,124,19527,1,0,0:0:0:0:
355,122,19621,1,0,0:0:0:0:
383,120,19714,6,0,L|376:186,1,56.9999982604981,2|0,0:2|0:0,0:0:0:0:
487,300,19901,2,0,L|473:141,1,113.999996520996,8|0,1:0|0:0,0:0:0:0:
316,240,20182,1,0,0:0:0:0:
334,253,20276,2,0,P|360:264|388:263,1,56.9999982604981,8|0,1:0|0:0,0:0:0:0:
427,359,20464,2,0,P|388:369|370:377,1,56.9999982604981
234,320,20651,2,0,P|234:255|228:189,1,113.999996520996,8|0,1:0|0:0,0:0:0:0:
76,226,20932,1,0,0:0:0:0:
64,207,21026,2,0,P|72:158|78:143,1,56.9999982604981,8|0,1:0|0:0,0:0:0:0:
169,66,21214,6,0,P|231:92|281:74,1,113.999996520996,0|8,0:0|1:0,0:0:0:0:
397,22,21495,1,0,0:0:0:0:
407,42,21589,2,0,P|405:71|383:122,1,56.9999982604981
263,224,21776,1,8,1:0:0:0:
266,234,21870,1,0,0:0:0:0:
269,244,21964,2,0,P|306:252|327:266,1,56.9999982604981
422,357,22151,1,8,1:0:0:0:
135,303,22339,2,0,L|116:180,1,113.999996520996,0|8,0:0|1:0,0:0:0:0:
293,8,22714,6,0,L|265:159,1,113.999996520996,0|8,0:0|1:0,0:0:0:0:
121,46,23089,2,0,L|190:39,1,56.9999982604981
200,174,23276,2,0,P|141:161|65:161,1,113.999996520996,8|0,1:0|0:0,0:0:0:0:
9,325,23558,1,0,0:0:0:0:
30,317,23651,2,0,P|85:305|142:302,1,113.999996520996,8|0,1:0|0:0,0:0:0:0:
291,356,23932,1,0,0:0:0:0:
313,352,24026,2,0,L|389:332,1,56.9999982604981,8|0,1:0|0:0,0:0:0:0:
383,129,24214,6,0,B|314:145|314:145|250:103,1,142.500005435944,4|0,1:2|0:0,0:0:0:0:
476,17,24495,2,0,L|486:192,1,142.500005435944,4|0,1:2|0:0,0:0:0:0:
379,315,24776,2,0,L|388:236,1,71.2500027179719,8|0,1:0|0:0,0:0:0:0:
336,54,24964,5,4,1:2:0:0:
254,105,25057,2,0,P|267:211|280:258,1,142.500005435944,8|0,1:0|0:0,0:0:0:0:
461,339,25339,1,8,1:0:0:0:
488,244,25432,1,8,1:0:0:0:
141,163,25620,1,8,1:0:0:0:
168,259,25714,6,0,P|161:314|146:349,1,71.2500027179719,6|0,1:0|0:0,0:0:0:0:
34,105,25901,1,8,1:0:0:0:
57,120,25995,2,0,P|141:121|205:92,1,142.500005435944,2|0,1:0|0:0,0:0:0:0:
395,66,26276,2,0,P|312:49|256:7,1,142.500005435944,10|0,1:0|0:0,0:0:0:0:
334,289,26651,2,0,L|414:283,1,71.2500027179719,10|0,1:0|0:0,0:0:0:0:
467,199,26839,2,0,L|309:188,1,142.500005435944,2|10,1:0|1:0,0:0:0:0:
65,323,27214,6,0,B|88:252|88:252|37:193,1,142.500005435944,2|8,1:0|1:0,0:0:0:0:
212,111,27496,2,0,L|193:260,1,142.500005435944,2|0,1:0|0:0,0:0:0:0:
54,82,27776,2,0,L|142:63,1,71.2500027179719,10|0,1:0|0:0,0:0:0:0:
314,162,27963,2,0,P|326:93|290:25,1,142.500005435944,0|10,1:0|1:0,0:0:0:0:
49,255,28339,1,2,1:0:0:0:
57,289,28432,1,0,1:0:0:0:
65,323,28526,1,8,1:0:0:0:
484,229,28714,6,0,B|393:246|441:206|344:228,1,142.500005435944,2|8,1:0|1:0,0:0:0:0:
214,77,28996,2,0,P|298:69|354:113,1,142.500005435944,2|0,1:0|0:0,0:0:0:0:
240,321,29276,2,0,L|263:181,1,142.500005435944,10|0,1:0|0:0,0:0:0:0:
423,363,29651,2,0,L|416:283,1,71.2500027179719,10|0,1:0|0:0,0:0:0:0:
343,99,29839,2,0,P|403:133|472:121,1,142.500005435944,2|8,1:0|1:0,0:0:0:0:
263,30,30120,1,0,3:0:0:0:
250,45,30214,6,0,L|261:151,1,71.2500027179719,2|0,1:0|0:0,0:0:0:0:
395,216,30401,2,0,L|378:314,1,71.2500027179719,8|2,1:0|0:1,0:0:0:0:
154,359,30589,2,0,P|110:299|137:211,1,142.500005435944,0|10,1:0|1:0,0:0:0:0:
196,144,30964,2,0,L|55:132,1,142.500005435944,0|10,1:0|1:0,0:0:0:0:
288,33,31245,1,0,1:0:0:0:
271,16,31339,2,0,L|129:41,1,142.500005435944,2|8,1:0|1:0,0:0:0:0:
201,241,31620,1,0,0:0:0:0:
179,252,31714,6,0,L|109:245,1,71.2500027179719,0|0,1:0|0:0,0:0:0:0:
56,368,32089,2,0,L|126:361,1,71.2500027179719,2|0,1:0|0:0,0:0:0:0:
336,118,32464,6,0,P|359:179|353:230,1,95,2|0,1:0|0:0,0:0:0:0:
177,135,32839,2,0,P|179:87|199:45,1,95,2|0,1:0|0:0,0:0:0:0:
249,279,33214,6,0,L|119:284,1,118.75,2|0,1:0|0:0,0:0:0:0:
58,130,33589,2,0,L|188:135,1,118.75,2|0,1:0|0:0,0:0:0:0:
448,304,33964,6,0,P|483:232|463:153,1,142.500005435944,2|0,1:0|0:0,0:0:0:0:
321,59,34339,2,0,P|287:120|295:190,1,142.500005435944,2|0,1:0|0:0,0:0:0:0:
474,173,34714,6,0,L|417:162,1,56.9999982604981,8|0,1:0|0:0,0:0:0:0:
329,293,34901,2,0,L|385:287,1,56.9999982604981,4|0,3:0|0:0,0:0:0:0:
295,191,35089,2,0,L|238:180,1,56.9999982604981,8|0,1:0|0:0,0:0:0:0:
150,311,35276,2,0,L|206:305,1,56.9999982604981,4|0,3:0|0:0,0:0:0:0:
116,209,35464,5,8,1:0:0:0:
88,203,35557,1,8,1:0:0:0:
60,208,35651,1,8,1:0:0:0:
34,221,35745,1,8,1:0:0:0:
15,242,35839,5,8,1:0:0:0:
12,185,35932,1,8,1:0:0:0:
8,128,36026,1,8,1:0:0:0:
5,71,36120,1,8,1:0:0:0:
68,14,36214,5,6,1:2:0:0:
68,14,37714,6,2,L|289:18,1,170.999994781494,6|0,1:0|2:0,0:0:0:0:
296,80,38089,1,10,1:0:0:0:
93,230,38276,2,0,L|234:220,1,113.999996520996,2|0,1:1|0:0,0:0:0:0:
393,173,38651,2,0,P|394:144|387:117,1,56.9999982604981,2|0,1:0|2:0,0:0:0:0:
296,80,38839,1,8,1:0:0:0:
419,7,39026,5,2,1:0:0:0:
308,233,39214,1,0,1:0:0:0:
66,96,39401,2,0,P|131:83|193:81,1,113.999996520996,2|8,1:0|1:0,0:0:0:0:
125,327,39776,2,0,P|68:323|12:311,1,113.999996520996,2|0,1:0|0:0,0:0:0:0:
206,172,40151,2,0,L|213:247,1,56.9999982604981,2|0,1:0|2:0,0:0:0:0:
55,209,40339,2,0,L|67:82,1,113.999996520996,8|0,1:0|0:0,0:0:0:0:
345,39,40714,6,2,B|288:44|288:44|240:19|240:19|177:26,1,170.999994781494,2|0,1:0|2:0,0:0:0:0:
157,117,41089,1,8,1:0:0:0:
336,245,41276,1,0,0:0:0:0:
225,295,41464,2,0,L|241:159,1,113.999996520996,0|0,0:0|0:0,0:0:0:0:
472,130,41839,2,0,L|486:250,1,113.999996520996,10|0,1:0|0:0,0:0:0:0:
365,121,42214,6,0,P|346:68|362:15,1,113.999996520996,2|0,1:0|0:0,0:0:0:0:
472,130,42589,1,8,1:0:0:0:
399,271,42776,1,0,0:0:0:0:
289,156,42964,1,0,0:0:0:0:
449,43,43152,1,12,0:0:0:0:
286,64,43339,1,8,1:0:0:0:
495,217,43526,1,4,0:0:0:0:
292,248,43714,6,2,P|175:226|118:223,1,170.999994781494,6|0,1:0|2:0,0:0:0:0:
41,248,44089,1,10,1:0:0:0:
286,64,44276,2,0,P|225:79|174:82,1,113.999996520996,2|0,1:0|0:0,0:0:0:0:
16,12,44651,2,0,L|4:80,1,56.9999982604981,2|0,1:0|0:0,0:0:0:0:
90,137,44839,1,8,1:0:0:0:
47,361,45026,6,0,L|41:248,1,113.999996520996,2|0,1:0|1:0,1:0:0:0:
284,136,45401,2,0,P|275:213|235:241,1,113.999996520996,2|8,1:0|1:0,0:0:0:0:
90,137,45776,1,2,1:0:0:0:
231,3,45964,1,0,1:0:0:0:
408,79,46151,2,0,L|391:223,1,113.999996520996,2|8,1:0|1:0,0:0:0:0:
503,137,46526,1,0,0:0:0:0:
444,332,46714,6,0,P|344:315|299:318,1,113.999996520996,0|0,1:0|0:0,0:0:0:0:
105,356,47089,2,0,P|67:308|76:258,1,113.999996520996,10|0,1:0|0:0,0:0:0:0:
257,96,47464,1,2,1:0:0:0:
218,288,47651,1,2,1:0:0:0:
81,158,47839,2,0,L|97:34,1,113.999996520996,8|2,1:0|0:1,0:0:0:0:
299,189,48214,6,0,L|171:212,1,113.999996520996,2|0,1:0|0:0,0:0:0:0:
277,13,48589,2,0,P|371:24|406:43,1,113.999996520996,10|0,1:0|0:0,0:0:0:0:
439,260,48964,1,2,1:0:0:0:
320,112,49151,1,0,1:0:0:0:
305,353,49339,2,2,P|227:337|132:338,1,170.999994781494,10|0,1:0|2:0,0:0:0:0:
55,367,49714,5,10,1:0:0:0:
75,197,49901,1,4,0:0:0:0:
169,261,50089,5,8,1:0:0:0:
127,95,50276,1,4,0:0:0:0:
234,134,50464,5,8,1:0:0:0:
388,62,50651,1,4,0:0:0:0:
285,41,50839,5,8,1:0:0:0:
305,210,51026,1,4,0:0:0:0:
400,165,51214,5,8,1:0:0:0:
127,95,51401,1,4,0:0:0:0:
367,96,51589,5,8,1:0:0:0:
95,172,51777,1,4,0:0:0:0:
304,53,51964,5,8,1:0:0:0:
107,255,52152,1,8,1:0:0:0:
163,263,52246,1,8,1:0:0:0:
219,272,52339,1,8,1:0:0:0:
275,281,52433,1,8,1:0:0:0:
332,290,52527,1,8,1:0:0:0:
388,299,52621,1,8,1:0:0:0:
458,251,52714,5,8,1:0:0:0:
458,251,55526,5,8,1:0:0:0:
384,105,55714,6,0,P|310:108|250:144,1,142.500005435944,6|8,1:0|1:0,0:0:0:0:
98,243,55995,2,0,L|107:100,1,142.500005435944,2|0,1:0|0:0,0:0:0:0:
266,150,56276,2,0,L|279:247,1,71.2500027179719,10|0,1:0|0:0,0:0:0:0:
189,344,56464,2,0,L|374:333,1,142.500005435944,0|10,1:0|1:0,0:0:0:0:
415,167,56745,1,0,3:0:0:0:
399,180,56839,2,0,P|328:182|266:150,1,142.500005435944,0|10,1:0|1:0,0:0:0:0:
68,27,57214,6,0,L|52:120,1,71.2500027179719,2|0,1:0|0:0,0:0:0:0:
79,179,57401,1,8,1:0:0:0:
182,82,57495,2,0,L|197:256,1,142.500005435944,2|0,1:0|0:0,0:0:0:0:
61,314,57776,2,0,P|52:244|79:178,1,142.500005435944,10|0,1:0|0:0,0:0:0:0:
271,147,58057,1,4,3:0:0:0:
282,164,58151,2,0,P|292:197|295:233,1,71.2500027179719,10|0,1:0|0:0,0:0:0:0:
259,352,58339,2,0,L|423:345,1,142.500005435944,2|8,1:0|1:0,0:0:0:0:
503,129,58714,6,0,L|349:121,1,142.500005435944,6|8,1:0|1:0,0:0:0:0:
170,263,58995,2,0,P|237:264|283:206,1,142.500005435944,2|0,1:0|0:0,0:0:0:0:
199,117,59276,2,0,L|204:188,1,71.2500027179719,10|0,1:0|0:0,0:0:0:0:
379,368,59464,2,0,B|401:278|355:308|385:203,1,142.500005435944,0|10,1:0|1:0,0:0:0:0:
418,155,59745,1,0,3:0:0:0:
508,264,59839,2,0,P|506:300|489:331,1,71.2500027179719,2|0,1:0|0:0,0:0:0:0:
279,246,60026,2,0,L|294:151,1,71.2500027179719,8|0,1:0|0:0,0:0:0:0:
371,48,60214,6,0,L|195:37,1,142.500005435944,2|8,1:0|1:0,0:0:0:0:
143,114,60495,1,2,1:1:0:0:
208,250,60589,2,0,L|303:244,1,71.2500027179719
101,320,60776,2,0,L|21:303,1,71.2500027179719,10|0,1:0|0:0,0:0:0:0:
7,138,60964,2,0,P|14:61|47:-18,1,142.500005435944,2|8,1:0|1:0,0:0:0:0:
331,75,61339,2,0,P|354:141|360:212,1,142.500005435944,2|8,1:0|1:0,0:0:0:0:
199,320,61714,6,0,L|138:312,1,35.625001358986,2|0,1:2|0:0,0:0:0:0:
146,191,61901,2,0,L|207:183,1,35.625001358986,2|0,1:2|0:0,0:0:0:0:
338,279,62089,2,0,L|277:271,1,35.625001358986,2|0,1:2|0:0,0:0:0:0:
285,150,62276,2,0,L|346:142,1,35.625001358986,2|0,1:2|0:0,0:0:0:0:
477,238,62464,5,8,1:0:0:0:
432,210,62557,1,8,1:0:0:0:
379,207,62651,1,8,1:0:0:0:
331,230,62745,1,8,1:0:0:0:
302,274,62839,1,8,1:0:0:0:
257,301,62933,1,8,1:0:0:0:
204,304,63027,1,8,1:0:0:0:
156,281,63121,1,8,1:0:0:0:
126,237,63214,6,2,B|118:137|118:137|156:96,1,142.5,0|0,1:1|0:1,0:1:0:0:
253,190,63964,2,0,B|323:197|323:197|384:148,1,142.5,4|0,0:0|0:0,0:0:0:0:
284,60,64714,6,0,L|481:48,1,190,4|0,1:2|0:0,0:0:0:0:
473,48,65276,1,8,1:0:0:0:
357,213,65464,2,0,P|299:194|154:173,1,190,4|0,1:2|1:0,0:0:0:0:
80,253,66026,1,0,1:0:0:0:
201,357,66214,6,0,P|269:348|309:333,1,95,4|0,1:2|0:0,0:0:0:0:
357,213,66589,1,0,0:0:0:0:
201,357,66777,1,8,1:0:0:0:
43,319,66963,2,0,L|38:225,1,95,4|4,1:2|1:3,0:0:0:0:
267,129,67338,2,0,L|262:223,1,95,0|8,1:2|1:0,0:0:0:0:
24,53,67714,6,0,B|139:16|95:88|210:46,1,190,4|0,1:2|0:0,0:0:0:0:
208,48,68276,1,8,1:0:0:0:
75,159,68464,2,0,P|86:237|105:265,1,95,4|0,1:2|1:0,0:0:0:0:
197,347,68839,1,0,1:0:0:0:
295,185,69026,1,0,1:0:0:0:
387,292,69213,6,0,L|292:284,1,95,4|0,1:2|0:0,0:0:0:0:
206,240,69495,2,0,P|201:179|186:147,1,95,0|0,1:0|0:0,0:0:0:0:
114,87,69776,2,0,L|61:98,1,47.5,8|0,1:0|0:0,0:0:0:0:
13,199,69964,2,0,L|108:210,1,95,4|0,1:2|0:0,0:0:0:0:
336,111,70339,2,0,P|268:108|223:137,1,95,0|0,1:0|3:0,0:0:0:0:
274,302,70620,1,8,1:0:0:0:
290,316,70714,6,0,L|298:203,1,113.999996520996,4|8,1:3|1:0,0:0:0:0:
445,265,70995,2,0,L|427:133,1,113.999996520996,0|0,1:0|1:0,0:0:0:0:
356,58,71276,2,0,P|341:83|336:111,1,56.9999982604981,8|0,1:0|0:0,0:0:0:0:
485,203,71464,1,0,0:0:0:0:
290,316,71651,2,0,L|139:302,1,113.999996520996,8|0,1:0|0:0,0:0:0:0:
93,133,72026,2,0,L|148:121,1,56.9999982604981,8|0,1:0|2:0,0:0:0:0:
247,184,72213,6,0,P|262:130|255:74,1,113.999996520996,0|8,0:0|1:0,0:0:0:0:
236,51,72495,1,0,0:0:0:0:
345,114,72589,2,0,L|355:57,1,56.9999982604981,0|0,0:0|2:0,0:0:0:0:
456,29,72776,2,0,P|473:134|461:186,1,113.999996520996,8|0,1:0|0:0,0:0:0:0:
374,279,73151,2,0,L|250:268,1,113.999996520996,8|0,1:0|0:0,0:0:0:0:
179,157,73526,1,8,1:0:0:0:
56,350,73714,6,0,L|43:284,1,56.9999982604981,8|0,1:0|0:0,0:0:0:0:
63,153,73901,1,0,0:0:0:0:
75,140,73996,2,0,P|124:167|179:157,1,113.999996520996,8|0,1:0|0:0,0:0:0:0:
243,110,74276,2,0,L|308:119,1,56.9999982604981,8|0,1:0|0:0,0:0:0:0:
431,197,74464,5,8,1:0:0:0:
463,103,74557,1,8,1:0:0:0:
463,103,74651,1,4,0:0:0:0:
268,281,74839,5,8,1:0:0:0:
254,182,74932,1,8,1:0:0:0:
430,367,75120,1,8,1:0:0:0:
430,367,75214,5,4,1:2:0:0:
346,218,75401,1,0,0:0:0:0:
215,328,75589,5,0,0:0:0:0:
364,244,75776,1,0,0:0:0:0:
254,113,75964,5,0,0:0:0:0:
337,262,76152,1,0,0:0:0:0:
469,152,76339,5,0,0:0:0:0:
320,236,76526,1,0,0:0:0:0:
430,367,76714,6,2,P|387:287|444:192,1,170.999994781494,6|0,1:0|2:0,0:0:0:0:
469,152,77089,1,10,1:0:0:0:
320,236,77276,2,0,L|198:221,1,113.999996520996,2|0,1:0|0:0,0:0:0:0:
128,36,77651,2,0,L|228:28,1,56.9999982604981,2|0,1:0|2:0,0:0:0:0:
256,84,77839,1,8,1:0:0:0:
48,243,78026,6,0,P|52:176|68:120,1,113.999996520996,2|0,1:0|1:0,0:0:0:0:
217,244,78401,2,0,L|203:357,1,113.999996520996,2|8,1:0|1:0,0:0:0:0:
48,243,78776,1,2,1:0:0:0:
158,111,78964,1,0,1:0:0:0:
310,187,79151,2,0,L|381:178,1,56.9999982604981,2|0,1:0|2:0,0:0:0:0:
424,115,79339,2,0,P|370:94|314:88,1,113.999996520996,8|0,1:0|0:0,0:0:0:0:
165,330,79714,6,2,B|263:361|240:303|338:338,1,170.999994781494,2|0,1:0|2:0,0:0:0:0:
411,368,80089,2,0,L|426:250,1,113.999996520996,8|0,1:0|0:0,0:0:0:0:
252,104,80464,2,0,L|272:248,1,113.999996520996
424,115,80839,1,10,1:0:0:0:
296,4,81026,1,0,0:0:0:0:
144,80,81214,6,0,L|24:72,1,113.999996520996,2|0,1:0|0:0,0:0:0:0:
104,324,81589,2,0,L|224:308,1,113.999996520996,10|0,1:0|0:0,0:0:0:0:
380,172,81964,1,0,1:0:0:0:
268,148,82151,1,12,0:0:0:0:
370,361,82339,1,8,1:0:0:0:
482,337,82526,1,4,0:0:0:0:
380,172,82714,6,2,P|284:173|181:205,1,170.999994781494,2|0,1:0|2:0,0:0:0:0:
143,243,83089,1,10,1:0:0:0:
7,139,83276,2,0,L|23:5,1,113.999996520996,2|0,1:0|0:0,0:0:0:0:
236,101,83651,1,2,1:0:0:0:
143,243,83839,1,8,1:0:0:0:
339,332,84026,6,0,P|332:252|315:212,1,113.999996520996,2|0,1:0|0:0,0:0:0:0:
143,243,84401,2,0,L|134:299,1,56.9999982604981,2|0,1:0|2:0,0:0:0:0:
196,359,84589,1,8,1:0:0:0:
207,131,84776,2,0,L|80:139,1,113.999996520996,2|0,1:0|0:0,0:0:0:0:
24,18,85151,1,2,1:0:0:0:
195,27,85339,1,8,1:0:0:0:
366,36,85527,1,4,0:0:0:0:
240,234,85714,6,0,P|209:187|207:131,1,113.999996520996,0|0,1:0|0:0,0:0:0:0:
440,92,86089,2,0,L|420:236,1,113.999996520996,10|0,1:0|0:0,0:0:0:0:
323,259,86464,1,2,1:0:0:0:
366,36,86651,1,2,1:0:0:0:
152,111,86839,2,0,L|275:118,1,113.999996520996,8|2,1:0|1:0,0:0:0:0:
197,320,87214,6,0,L|116:324,1,56.9999982604981,2|0,1:0|0:0,0:0:0:0:
36,202,87401,1,4,0:0:0:0:
87,224,87494,1,4,0:0:0:0:
144,226,87588,1,10,1:0:0:0:
197,206,87682,1,4,0:0:0:0:
239,168,87776,1,4,0:0:0:0:
265,117,87869,1,4,0:0:0:0:
269,61,87964,6,0,L|336:68,1,56.9999982604981,2|0,1:0|2:0,0:0:0:0:
481,9,88151,1,4,0:0:0:0:
433,40,88244,1,4,0:0:0:0:
399,85,88338,1,10,1:0:0:0:
381,139,88432,1,4,0:0:0:0:
381,196,88526,1,4,0:0:0:0:
400,250,88619,1,4,0:0:0:0:
434,295,88714,6,0,L|277:306,1,113.999996520996,6|0,1:0|0:0,0:0:0:0:
125,153,89089,2,0,L|251:169,1,113.999996520996,8|0,1:0|0:0,0:0:0:0:
411,17,89464,1,0,1:0:0:0:
185,56,89651,2,0,L|190:122,1,56.9999982604981,2|0,1:2|2:0,0:0:0:0:
294,233,89839,2,0,P|321:183|314:128,1,113.999996520996,10|0,1:0|0:0,0:0:0:0:
35,173,90214,6,0,L|53:295,1,113.999996520996,2|0,1:0|0:0,0:0:0:0:
272,344,90589,2,0,L|297:215,1,113.999996520996,10|0,1:0|0:0,0:0:0:0:
185,56,90964,1,2,1:0:0:0:
193,169,91151,1,0,0:0:0:0:
447,141,91339,2,0,P|397:114|340:110,1,113.999996520996,10|0,1:0|0:0,0:0:0:0:
79,163,91714,6,0,L|193:169,1,113.999996520996,2|0,1:0|0:0,0:0:0:0:
385,334,92089,2,0,L|271:343,1,113.999996520996,10|0,1:0|0:0,0:0:0:0:
340,111,92464,2,0,P|390:138|447:142,1,113.999996520996,2|0,1:0|0:0,0:0:0:0:
429,10,92839,1,10,1:0:0:0:
368,257,93026,1,0,0:0:0:0:
227,119,93214,6,0,L|341:112,1,113.999996520996,2|4,1:0|0:0,0:0:0:0:
286,320,93588,2,0,P|191:292|98:299,1,170.999994781494,4|0,1:2|2:0,0:0:0:10:normal-hitclap.wav
41,331,93964,1,2,1:0:0:0:
0,159,94151,6,0,L|8:71,1,71.2500027179719,8|0,1:0|2:0,0:0:0:0:
212,48,94339,2,0,L|228:127,1,71.2500027179719,8|0,1:0|2:0,0:0:0:0:
368,257,94526,2,0,L|402:193,1,71.2500027179719,8|0,1:0|2:0,0:0:0:0:
353,30,94714,5,6,1:0:0:0:
103,157,94901,1,0,0:0:0:0:
254,264,95089,2,0,L|270:134,1,113.999996520996,8|0,1:0|0:0,0:0:0:0:
22,238,95464,2,0,L|44:377,1,113.999996520996,0|0,1:0|0:0,0:0:0:0:
151,42,95839,2,0,P|85:23|32:19,1,113.999996520996,10|0,1:0|0:0,0:0:0:0:
143,287,96214,6,0,P|199:280|253:263,1,113.999996520996,2|0,1:0|0:0,0:0:0:0:
419,124,96589,1,10,1:0:0:0:
151,42,96776,1,0,0:0:0:0:
296,6,96964,2,0,L|311:171,1,113.999996520996,2|0,1:0|0:0,0:0:0:0:
143,287,97339,2,0,L|156:161,1,113.999996520996,10|0,1:0|0:0,0:0:0:0:
419,124,97714,5,6,1:0:0:0:
151,42,97901,1,8,1:0:0:0:
374,61,98089,5,2,1:0:0:0:
97,100,98276,1,4,0:0:0:0:
308,23,98464,5,10,1:0:0:0:
73,176,98651,1,0,0:0:0:0:
232,16,98839,5,2,1:0:0:0:
83,254,99026,1,4,0:0:0:0:
168,240,99120,1,8,1:0:0:0:
252,225,99214,5,2,1:0:0:0:
232,16,99401,1,8,1:0:0:0:
328,266,99589,5,2,1:0:0:0:
308,23,99776,1,0,0:0:0:0:
404,307,99964,5,10,1:0:0:0:
385,29,100151,1,0,0:0:0:0:
480,348,100339,5,2,1:0:0:0:
461,35,100526,1,0,0:0:0:0:
200,208,100714,5,6,1:0:0:0:
256,192,100807,12,2,102214,2:0:0:0:
130,273,106714,6,0,L|121:189,1,71.25,8|8,1:2|0:0,0:0:0:0:
261,127,107089,2,8,L|245:212,1,71.2500027179719,8|8,1:2|0:0,0:0:0:0:
36,86,107464,2,0,L|124:78,1,71.2500027179719,8|8,1:2|0:0,0:0:0:0:
119,66,107746,1,0,0:0:0:0:
131,53,107839,2,0,L|217:59,1,71.2500027179719,8|8,1:2|0:0,0:0:0:0:
413,136,108214,5,8,1:2:0:0:
385,201,108401,1,8,0:0:0:0:
318,68,108589,1,8,1:2:0:0:
327,139,108776,1,8,0:0:0:0:
202,57,108964,1,8,1:2:0:0:
246,114,109152,1,8,0:0:0:0:
97,106,109339,1,8,1:2:0:0:
163,133,109527,1,8,0:0:0:0:
30,200,109714,6,0,P|31:238|53:273,1,71.2500027179719,8|8,1:2|0:0,0:0:0:0:
144,310,110089,2,0,L|234:300,1,71.2500027179719,8|8,1:2|0:0,0:0:0:0:
290,226,110464,1,8,1:2:0:0:
389,264,110651,1,8,0:0:0:0:
382,89,110839,2,0,L|373:160,1,71.2500027179719,8|8,1:2|0:0,0:0:0:0:
290,226,111214,6,8,P|241:213|206:221,1,71.2500027179719,8|8,1:2|0:0,0:0:0:0:
206,228,111495,1,0,0:0:0:0:
197,243,111589,2,0,L|113:236,1,71.2500027179719,8|8,1:2|0:0,0:0:0:0:
40,98,111964,2,0,L|127:90,1,71.2500027179719,8|8,1:2|0:0,0:0:0:0:
188,17,112339,1,8,1:2:0:0:
238,110,112526,1,8,0:0:0:0:
315,35,112714,6,0,L|328:120,1,71.2500027179719,8|8,1:2|0:0,0:0:0:0:
457,159,113089,2,0,P|471:126|467:91,1,71.2500027179719,8|8,1:2|0:0,0:0:0:0:
305,239,113464,1,8,1:2:0:0:
387,258,113651,1,8,0:0:0:0:
363,178,113839,1,8,1:2:0:0:
329,319,114027,1,8,0:0:0:0:
281,159,114214,6,0,L|181:167,1,71.2500027179719,8|8,1:2|0:0,0:0:0:0:
197,177,114495,1,0,0:0:0:0:
184,189,114589,2,0,L|99:180,1,71.2500027179719,8|8,1:2|0:0,0:0:0:0:
16,69,114964,2,0,P|60:64|98:39,1,71.2500027179719,8|8,1:2|0:0,0:0:0:0:
161,15,115339,1,8,1:2:0:0:
245,28,115526,1,8,0:0:0:0:
184,189,115714,6,0,L|170:104,1,71.2500027179719,8|8,1:2|0:0,0:0:0:0:
317,78,116089,2,0,L|305:161,1,71.2500027179719,8|8,1:2|0:0,0:0:0:0:
279,273,116464,2,0,L|380:265,1,71.2500027179719,8|8,1:2|0:0,0:0:0:0:
489,236,116839,1,8,1:2:0:0:
478,320,117026,1,8,0:0:0:0:
408,207,117214,6,0,P|395:171|399:135,1,71.2500027179719,8|8,1:2|0:0,0:0:0:0:
452,39,117589,2,0,L|361:31,1,71.2500027179719,8|8,1:2|0:0,0:0:0:0:
238,142,117964,2,0,L|320:135,1,71.2500027179719,8|8,1:2|0:0,0:0:0:0:
189,21,118339,2,0,L|143:17,1,35.625001358986,8|0,1:1|0:0,0:1:0:0:
189,21,118714,6,0,P|139:40|87:33,2,106.875004076958,4|2|0,3:0|0:0|0:0,0:0:0:0:
279,48,119464,2,0,L|261:273,1,213.750008153916,8|2,1:0|0:0,0:0:0:0:
178,328,120214,6,0,L|166:222,1,106.875004076958,4|2,3:0|0:0,0:0:0:0:
150,62,120776,1,0,0:0:0:0:
95,107,120964,2,0,L|207:114,2,106.875004076958,8|2|2,1:0|0:0|0:0,0:0:0:0:
19,182,121714,6,0,P|22:239|31:260,1,71.2500027179719,4|0,3:0|0:0,0:0:0:0:
43,256,121995,1,2,0:0:0:0:
60,261,122089,1,0,0:0:0:0:
158,220,122276,2,0,L|154:268,1,35.625001358986,2|0,0:0|0:0,0:0:0:0:
221,327,122464,2,0,L|335:313,2,106.875004076958,8|0|2,1:0|0:0|0:0,0:0:0:0:
262,176,123214,6,0,L|380:189,2,106.875004076958,4|2|0,3:0|0:0|0:0,0:0:0:0:
125,133,123964,2,0,P|124:73|152:25,2,106.875004076958,8|2|2,1:0|0:0|0:0,0:0:0:0:
157,274,124714,6,0,L|38:283,1,106.875004076958,4|2,3:0|0:0,0:0:0:0:
77,127,125214,2,0,L|131:133,1,47.5000018119813,0|2,0:0|0:0,0:0:0:0:
196,98,125464,2,0,P|248:89|329:88,2,106.875004076958,8|2|2,1:0|0:0|0:0,0:0:0:0:
147,168,126214,6,0,L|144:283,1,106.875004076958,4|2,3:0|0:0,0:0:0:0:
294,338,126714,2,0,L|286:273,1,47.5000018119813,2|0,0:0|0:0,0:0:0:0:
322,228,126964,2,0,P|375:231|429:244,2,106.875004076958,8|2|2,1:0|0:0|0:0,0:0:0:0:
217,251,127714,6,0,L|207:161,1,71.2500027179719,4|0,3:0|0:0,0:0:0:0:
40,92,128089,2,0,L|27:167,1,71.2500027179719,8|0,1:0|0:0,0:0:0:0:
219,48,128464,2,0,L|145:37,1,71.2500027179719,4|0,3:0|0:0,0:0:0:0:
36,288,128839,2,0,L|121:272,1,71.2500027179719,8|0,1:0|0:0,0:0:0:0:
129,151,129214,5,2,3:2:0:0:
239,207,129401,1,0,3:0:0:0:
272,219,129494,1,2,3:2:0:0:
307,223,129588,1,0,3:0:0:0:
342,217,129682,1,0,3:0:0:0:
375,203,129776,1,2,3:2:0:0:
402,181,129869,1,0,3:0:0:0:
424,152,129964,2,0,L|497:159,1,71.2500027179719,2|0,3:2|0:0,0:0:0:0:
512,304,130339,6,2,P|450:298|371:326,1,142.5,14|0,1:2|0:0,0:0:0:0:
385,333,130714,6,0,L|271:323,1,113.999996520996,6|0,1:2|0:0,0:0:0:0:
160,296,130995,2,0,L|167:352,2,56.9999982604981,2|4|0,1:2|3:0|0:0,0:0:0:0:
214,195,131276,1,2,1:2:0:0:
221,167,131370,1,0,0:0:0:0:
228,139,131464,1,4,3:0:0:0:
197,91,131557,2,0,L|326:83,1,113.999996520996,2|0,1:2|0:0,0:0:0:0:
388,205,131839,2,0,L|315:194,1,56.9999982604981,2|0,1:2|0:0,0:0:0:0:
470,90,132026,1,4,3:0:0:0:
478,146,132120,1,6,3:0:0:0:
486,202,132214,6,0,L|471:325,1,113.999996520996,6|0,1:2|0:0,0:0:0:0:
334,357,132495,1,2,1:2:0:0:
331,344,132589,2,0,L|319:280,1,56.9999982604981,4|0,3:0|0:0,0:0:0:0:
340,128,132776,2,0,L|401:111,2,56.9999982604981,2|0|4,1:2|0:0|3:0,0:0:0:0:
250,170,133057,1,2,1:2:0:0:
221,167,133150,1,0,0:0:0:0:
193,164,133244,1,0,0:0:0:0:
149,126,133339,1,2,1:2:0:0:
107,163,133432,1,4,3:0:0:0:
100,219,133526,1,4,3:0:0:0:
131,265,133620,1,6,3:0:0:0:
185,280,133714,6,0,L|313:269,1,113.999996520996,6|0,1:2|0:0,0:0:0:0:
451,194,133995,2,0,L|396:183,1,56.9999982604981,2|4,1:2|3:0,0:0:0:0:
313,160,134182,1,0,0:0:0:0:
365,44,134276,2,0,L|377:122,2,56.9999982604981,2|0|0,1:2|0:0|0:0,0:0:0:0:
242,81,134557,1,2,1:2:0:0:
235,108,134650,1,0,0:0:0:0:
229,136,134744,1,0,0:0:0:0:
176,111,134839,2,0,L|89:120,1,56.9999982604981,2|0,1:2|0:0,0:0:0:0:
47,259,135026,1,4,3:0:0:0:
103,263,135119,1,6,3:0:0:0:
160,267,135214,6,0,P|196:276|226:300,2,56.9999982604981,6|0|0,1:2|0:0|0:0,0:0:0:0:
263,215,135495,2,0,P|289:240|303:275,2,56.9999982604981,2|4|0,1:2|3:0|0:0,0:0:0:0:
377,220,135777,2,0,P|387:254|381:292,1,56.9999982604981,2|0,1:2|0:0,0:0:0:0:
320,342,135964,1,4,3:0:0:0:
471,370,136057,2,0,L|486:211,1,113.999996520996,2|8,1:2|3:0,0:0:0:0:
400,126,136339,1,2,1:2:0:0:
343,129,136432,1,4,3:0:0:0:
286,133,136526,1,4,3:0:0:0:
229,136,136620,1,6,3:0:0:0:
182,102,136714,6,0,P|160:198|166:242,1,113.999996520996,4|0,1:2|0:0,0:0:0:0:
41,367,137089,2,0,P|21:275|0:253,1,113.999996520996,8|0,1:0|0:0,0:0:0:0:
108,31,137464,2,0,L|272:13,1,113.999996520996,2|0,1:2|0:0,0:0:0:0:
343,129,137839,1,8,1:0:0:0:
220,284,138026,1,0,0:0:0:0:
156,138,138214,6,0,L|271:194,1,113.999996520996,4|0,1:2|0:0,0:0:0:0:
467,141,138589,2,0,P|455:57|464:8,1,113.999996520996,8|0,1:0|0:0,0:0:0:0:
271,210,138964,2,0,P|260:274|230:329,1,113.999996520996,2|0,1:2|0:0,0:0:0:0:
43,240,139339,2,0,P|26:178|32:108,1,113.999996520996,8|0,1:0|0:0,0:0:0:0:
86,30,139714,1,4,1:2:0:0:
349,94,139901,5,2,1:2:0:0:
241,133,140089,1,2,1:2:0:0:
260,19,140276,1,0,1:2:0:0:
438,169,140464,5,2,1:2:0:0:
330,208,140652,1,2,1:2:0:0:
152,58,140839,5,0,1:2:0:0:
260,19,141027,1,2,1:2:0:0:
222,247,141214,5,12,1:3:0:0:
193,215,141307,1,0,0:0:0:0:
154,198,141401,1,0,0:0:0:0:
112,197,141495,1,0,0:0:0:0:
73,214,141589,5,12,1:3:0:0:
37,192,141683,1,0,0:0:0:0:
24,152,141777,1,0,0:0:0:0:
42,114,141871,1,0,0:0:0:0:
80,97,141964,6,0,L|67:31,1,56.9999982604981,12|4,1:3|0:0,0:0:0:0:
267,6,142152,2,0,L|245:70,1,56.9999982604981,4|4,0:0|0:0,0:0:0:0:
154,198,142339,5,8,1:0:0:0:
210,260,142432,1,8,1:0:0:0:
286,225,142527,1,8,1:0:0:0:
276,141,142621,1,8,1:0:0:0:
193,124,142714,1,4,1:2:0:0:
128,156,154714,6,0,L|140:240,1,71.2500027179719,4|0,1:0|0:0,0:0:0:0:
260,268,155089,2,0,L|284:188,1,71.2500027179719
204,48,155464,2,0,L|104:56,1,71.2500027179719
332,112,155839,2,0,L|424:124,1,71.2500027179719
484,292,156214,5,0,0:0:0:0:
420,260,156401,1,0,0:0:0:0:
358,296,156589,1,0,0:0:0:0:
316,238,156776,2,0,L|214:248,1,71.2500027179719
115,175,157151,2,0,L|14:170,1,71.2500027179719
42,377,157526,2,0,L|51:319,1,35.625001358986,4|4,3:0|3:0,0:0:0:0:
111,307,157714,6,0,P|166:319|199:333,1,71.2500027179719,4|0,3:0|0:0,0:0:0:0:
255,363,158089,1,0,0:0:0:0:
371,208,158276,2,0,L|365:296,1,71.2500027179719
289,239,158651,1,0,0:0:0:0:
331,88,158839,2,0,L|426:84,1,71.2500027179719
248,158,159214,6,0,P|195:138|127:143,1,106.875004076958,4|0,0:0|0:0,0:0:0:0:
158,151,159589,2,4,L|152:244,1,71.2500027179719,8|4,0:0|0:0,0:0:0:0:
32,292,159964,2,0,L|24:240,1,35.625001358986,4|4,0:0|0:0,0:0:0:0:
44,188,160151,1,8,0:0:0:0:
153,222,160339,2,0,L|145:334,1,106.875004076958,2|4,0:0|3:0,0:0:0:0:
158,341,160714,6,0,P|201:341|233:321,1,71.2500027179719,4|0,3:0|0:0,0:0:0:0:
272,256,161089,1,0,0:0:0:0:
419,312,161276,2,0,L|434:222,1,71.2500027179719
395,163,161651,1,0,0:0:0:0:
272,256,161838,2,0,L|261:129,1,106.875004076958,4|4,0:0|0:0,0:0:0:0:
250,136,162214,6,0,L|263:56,1,71.2500027179719,4|0,0:0|0:0,0:0:0:0:
332,20,162589,1,0,0:0:0:0:
472,104,162776,2,0,P|484:144|488:196,1,71.2500027179719,0|2,0:0|1:2,0:0:0:0:
337,365,163151,2,0,L|349:277,1,71.2500027179719
417,190,163527,1,4,0:0:0:0:
406,176,163621,1,0,0:0:0:0:
395,163,163714,6,0,L|323:167,1,71.2500027179719,4|0,0:0|0:0,0:0:0:0:
207,43,164089,2,0,L|281:55,1,71.2500027179719
185,178,164464,2,0,P|115:149|32:157,1,142.500005435944,2|2,0:2|0:2,0:0:0:0:
15,230,165026,1,0,0:0:0:0:
152,346,165214,5,4,0:0:0:0:
185,332,165307,1,4,0:0:0:0:
220,326,165401,1,4,0:0:0:0:
255,326,165495,1,4,0:0:0:0:
290,334,165589,1,4,0:0:0:0:
323,345,165682,1,4,0:0:0:0:
357,336,165776,1,4,0:0:0:0:
379,309,165870,1,4,0:0:0:0:
382,274,165964,5,4,0:0:0:0:
369,241,166057,1,4,0:0:0:0:
364,206,166151,1,4,0:0:0:0:
366,171,166245,1,4,0:0:0:0:
376,137,166339,1,4,0:0:0:0:
393,106,166432,1,4,0:0:0:0:
417,79,166526,1,4,0:0:0:0:
446,59,166620,1,4,0:0:0:0:
479,45,166714,6,0,L|286:39,1,190,4|0,1:0|1:0,0:0:0:0:
72,26,167276,1,0,0:0:0:0:
152,182,167464,2,0,L|260:171,1,95,10|0,1:0|0:0,0:0:0:0:
18,129,167839,2,0,P|7:196|7:241,1,95,0|0,1:0|0:0,0:0:0:0:
263,359,168214,6,0,P|269:284|245:169,1,190,0|0,1:0|1:0,0:0:0:0:
184,76,168776,1,0,0:0:0:0:
392,39,168964,2,0,P|375:119|358:144,1,95,10|0,1:0|0:0,0:0:0:0:
433,332,169339,2,0,P|413:288|409:241,1,95,0|0,1:0|0:0,0:0:0:0:
447,154,169620,1,8,1:0:0:0:
463,137,169714,6,0,L|363:129,1,95,0|0,1:0|0:0,0:0:0:0:
250,307,170089,2,0,L|350:296,1,95
222,184,170464,2,0,B|119:149|146:214|36:183,1,190,10|0,1:0|1:0,0:0:0:0:
88,93,171026,1,0,0:0:0:0:
169,273,171214,6,0,L|176:367,1,95,0|0,1:0|0:0,0:0:0:0:
408,198,171589,1,0,1:0:0:0:
392,291,171776,1,0,0:0:0:0:
260,88,171964,2,0,B|338:92|338:92|363:72|363:72|442:76,1,190,14|0,1:0|1:0,0:0:0:0:
495,156,172526,2,0,L|502:219,1,47.5,0|8,1:0|1:0,0:0:0:0:
404,292,172714,6,0,P|400:244|408:198,1,95,6|0,1:0|0:0,0:0:0:0:
206,265,173089,2,0,P|233:322|232:360,1,95,2|0,1:0|0:0,0:0:0:0:
73,147,173464,2,0,L|197:136,1,95,10|0,1:0|0:0,0:0:0:0:
381,40,173839,2,0,L|281:28,1,95,2|0,1:0|0:0,0:0:0:0:
357,248,174214,6,0,L|343:138,1,95,6|0,1:0|0:0,0:0:0:0:
87,53,174589,2,0,L|72:156,1,95,2|0,1:0|0:0,0:0:0:0:
256,259,174964,2,0,P|257:195|236:163,1,95,10|0,1:0|0:0,0:0:0:0:
27,273,175339,2,0,P|7:315|13:362,1,95,2|0,1:0|0:0,0:0:0:0:
310,346,175714,5,2,1:0:0:0:
242,169,175901,1,0,3:0:0:0:
453,190,176089,1,2,1:0:0:0:
276,258,176277,1,0,3:0:0:0:
297,47,176464,1,6,1:0:0:0:
365,224,176652,1,0,3:0:0:0:
154,203,176839,1,6,1:0:0:0:
331,135,177027,1,0,3:0:0:0:
0,253,177214,6,2,L|19:26,1,190,6|0,1:2|2:1,0:1:0:0:
473,218,177589,2,2,L|458:29,1,190,6|0,1:2|2:1,0:1:0:0:
170,333,177964,2,2,P|102:265|119:177,1,190,10|0,1:0|2:1,0:1:0:0:
473,218,178339,2,2,P|486:308|419:371,1,190,10|0,1:0|2:1,0:1:0:0:
297,31,178714,6,2,P|381:24|460:55,1,170.999994781494,4|0,1:0|2:0,0:1:0:0:
492,135,179089,1,2,3:1:0:0:
361,342,179275,1,2,3:1:0:0:
250,213,179464,2,0,L|364:223,1,113.999996520996,8|2,1:0|0:1,0:0:0:0:
493,358,179839,1,0,0:0:0:0:
233,318,180026,6,0,P|225:263|250:212,1,113.999996520996,2|0,0:1|0:0,0:0:0:0:
492,135,180401,2,0,P|516:185|509:240,1,113.999996520996,2|0,0:1|0:0,0:0:0:0:
361,236,180776,1,2,0:1:0:0:
293,45,180964,2,0,L|441:38,1,113.999996520996,8|2,1:0|0:1,0:0:0:0:
361,236,181339,2,0,L|249:212,1,113.999996520996
54,338,181714,6,2,B|191:300|135:379|276:336,1,227.999993041992,4|0,0:1|0:0,0:1:0:0:
361,236,182276,1,0,0:0:0:0:
264,99,182464,2,0,L|247:229,1,113.999996520996,8|0,1:0|0:0,0:0:0:0:
73,261,182839,2,0,L|57:132,1,113.999996520996,2|0,0:1|0:0,0:0:0:0:
330,38,183214,6,0,P|254:71|121:-13,1,227.999993041992,2|2,0:1|0:1,0:0:0:0:
428,23,183776,1,0,0:0:0:0:
317,244,183964,2,0,L|185:230,1,113.999996520996,8|0,1:0|0:0,0:0:0:0:
18,22,184339,2,0,L|144:8,1,113.999996520996
240,150,184620,1,8,0:1:0:0:
240,150,184714,6,0,P|165:104|30:126,1,227.999993041992,6|2,0:1|0:1,0:0:0:0:
120,269,185277,1,2,0:1:0:0:
333,215,185464,2,0,L|324:83,1,113.999996520996,8|2,1:0|0:1,0:0:0:0:
136,133,185839,1,0,0:0:0:0:
271,346,186026,6,0,P|340:350|408:365,1,113.999996520996,2|0,0:1|0:0,0:0:0:0:
441,192,186401,2,0,P|380:217|326:213,1,113.999996520996,2|0,0:1|0:0,0:0:0:0:
136,133,186776,1,2,0:1:0:0:
247,11,186964,2,0,L|391:30,1,113.999996520996,8|2,1:0|0:1,0:0:0:0:
156,245,187339,2,0,L|136:133,1,113.999996520996
327,88,187714,6,0,P|299:183|286:332,1,227.999993041992,4|2,0:1|0:1,0:0:0:0:
419,379,188276,1,0,0:0:0:0:
493,234,188464,2,0,P|434:220|364:228,1,113.999996520996,10|2,1:0|0:1,0:0:0:0:
205,315,188839,2,0,L|186:177,1,113.999996520996,0|2,0:0|0:1,0:0:0:0:
342,19,189214,5,4,1:3:0:0:
361,38,189307,2,0,L|349:168,1,113.999996520996,4|0,1:3|2:0,0:0:0:0:
275,108,189589,1,8,1:0:0:0:
496,64,189776,1,4,1:3:0:0:
476,83,189869,2,0,L|488:213,1,113.999996520996,4|0,1:3|2:0,0:0:0:0:
427,259,190151,1,8,1:0:0:0:
275,108,190339,5,10,1:0:0:0:
292,161,190432,1,8,1:0:0:0:
283,217,190526,1,8,1:1:0:0:
251,263,190620,1,8,1:0:0:0:
201,290,190714,6,0,L|76:282,1,113.999996520996,6|0,1:0|0:0,0:0:0:0:
18,48,191089,2,0,L|166:37,1,113.999996520996,8|0,1:0|0:0,0:0:0:0:
292,161,191464,1,0,0:0:0:0:
93,196,191651,2,0,L|103:130,1,56.9999982604981,2|0,1:2|2:0,0:0:0:0:
205,4,191839,2,0,P|225:85|225:135,1,113.999996520996,10|0,1:0|0:0,0:0:0:0:
108,348,192214,6,0,L|258:360,1,113.999996520996,2|0,1:0|0:0,0:0:0:0:
456,203,192589,2,0,P|383:206|341:233,1,113.999996520996,10|0,1:0|0:0,0:0:0:0:
428,334,192964,1,2,1:0:0:0:
493,49,193151,1,0,0:0:0:0:
234,125,193339,2,0,L|352:133,1,113.999996520996,10|0,1:0|0:0,0:0:0:0:
199,333,193714,6,0,L|172:214,1,113.999996520996,2|0,1:0|0:0,0:0:0:0:
220,16,194089,1,10,1:0:0:0:
52,105,194276,1,0,0:0:0:0:
338,159,194464,2,0,P|290:129|233:124,1,113.999996520996,2|0,1:0|0:0,0:0:0:0:
337,341,194839,2,0,P|393:335|441:306,1,113.999996520996,10|0,1:0|0:0,0:0:0:0:
467,58,195214,6,0,L|341:68,1,113.999996520996,2|4,1:0|0:0,0:0:0:0:
133,202,195589,2,0,P|209:202|311:253,1,170.999994781494,4|0,1:2|2:0,0:0:0:0:
244,308,195964,1,10,1:0:0:0:
25,250,196151,6,0,L|14:158,1,71.2500027179719,8|0,1:0|2:0,0:0:0:0:
218,85,196339,2,0,L|195:163,1,71.2500027179719,8|0,1:0|2:0,0:0:0:0:
32,17,196526,2,0,L|109:12,1,71.2500027179719,8|0,1:0|2:0,0:0:0:0:
246,209,196714,6,0,L|133:202,1,113.999996520996,6|0,1:0|0:0,0:0:0:0:
310,34,197089,2,0,L|477:21,1,113.999996520996,8|0,1:0|0:0,0:0:0:0:
488,183,197464,1,0,1:0:0:0:
218,85,197651,1,0,0:0:0:0:
359,319,197839,2,0,P|348:244|336:207,1,113.999996520996,10|0,1:0|0:0,0:0:0:0:
57,154,198214,6,0,P|41:209|35:266,1,113.999996520996,2|0,1:0|0:0,0:0:0:0:
163,379,198589,1,10,1:0:0:0:
218,85,198776,1,0,0:0:0:0:
359,319,198964,2,0,L|528:305,1,113.999996520996,2|0,1:0|0:0,0:0:0:0:
331,97,199339,2,0,L|218:85,1,113.999996520996,10|0,1:0|0:0,0:0:0:0:
59,285,199714,6,0,P|138:259|190:259,1,113.999996520996,2|0,1:0|0:0,0:0:0:0:
472,309,200089,2,0,L|493:187,1,113.999996520996,8|0,1:0|0:0,0:0:0:0:
278,32,200464,2,0,L|301:155,1,113.999996520996,2|0,1:0|0:0,0:0:0:0:
456,86,200839,1,8,1:0:0:0:
131,119,201026,1,0,0:0:0:0:
284,314,201214,5,10,1:0:0:0:
287,271,201307,1,8,1:0:0:0:
291,229,201401,1,8,1:0:0:0:
295,186,201495,1,8,1:0:0:0:
298,144,201589,2,0,L|366:155,1,56.9999982604981,8|4,1:0|0:0,0:0:0:0:
468,214,201776,5,8,1:0:0:0:
464,171,201869,1,8,1:0:0:0:
460,128,201963,1,8,1:0:0:0:
456,86,202057,1,8,1:0:0:0:
453,43,202151,2,0,L|385:53,1,56.9999982604981,8|4,1:0|0:0,0:0:0:0:
298,144,202339,6,0,P|296:87|304:30,1,113.999996520996,4|0,1:2|1:1,0:1:0:0:
468,214,202714,6,2,P|386:206|255:295,1,213.750008153916,6|0,1:1|2:0,0:1:0:0:
227,339,203089,1,0,1:0:0:0:
46,148,203276,2,2,L|145:135,1,71.2500027179719,2|0,1:1|2:0,0:1:0:0:
223,122,203464,1,8,1:0:0:0:
28,292,203651,2,2,B|114:280|114:280|227:338,1,213.750008153916,2|0,1:1|2:0,0:1:0:0:
311,328,204026,1,0,3:0:0:0:
272,9,204214,6,0,P|219:53|223:122,1,142.500005435944,2|0,1:0|0:0,0:0:0:0:
450,190,204589,1,0,1:0:0:0:
311,328,204776,2,2,L|323:244,1,71.2500027179719,2|0,1:1|2:1,0:1:0:0:
345,103,204964,1,8,1:0:0:0:
65,154,205151,1,0,0:0:0:0:
210,263,205339,2,2,L|227:77,1,142.500005435944,2|0,0:1|2:1,0:1:0:0:
104,314,205620,1,8,1:0:0:0:
83,295,205714,6,2,L|65:154,1,142.500005435944,2|0,1:0|0:1,0:1:0:0:
164,58,206089,1,0,0:0:0:0:
304,288,206276,2,2,P|348:280|384:256,1,71.2500027179719,2|2,1:1|1:2,0:1:0:0:
396,142,206464,1,8,1:0:0:0:
404,356,206651,2,2,L|396:120,1,213.750008153916,2|0,1:1|2:1,0:1:0:0:
472,66,207026,1,0,0:0:0:0:
226,171,207214,6,2,B|112:196|144:135|16:170,1,213.750008153916,2|0,1:1|2:1,0:1:0:0:
37,253,207589,1,0,1:0:0:0:
219,242,207776,2,2,L|228:157,1,71.2500027179719,2|0,1:1|2:1,0:1:0:0:
170,63,207964,2,0,L|329:43,1,142.500005435944,8|0,1:0|0:0,0:0:0:0:
419,300,208339,1,2,1:0:0:0:
491,123,208526,1,8,1:0:0:0:
308,175,208714,6,2,B|225:170|225:170|191:205|191:205|88:200,1,213.750008153916,6|0,1:1|2:0,0:1:0:0:
23,196,209089,1,2,1:2:0:0:
276,328,209276,2,2,L|260:240,1,71.2500027179719,2|0,1:1|2:1,0:1:0:0:
153,120,209464,1,8,1:1:0:0:
60,370,209651,2,2,P|32:285|119:200,1,213.750008153916,2|0,1:0|2:1,0:1:0:0:
186,238,210026,1,0,3:0:0:0:
384,300,210214,6,2,P|404:228|392:112,1,142.500005435944,2|0,1:0|0:1,0:1:0:0:
244,56,210589,1,0,0:0:0:0:
186,238,210776,2,2,L|272:228,1,71.2500027179719,2|0,1:1|2:0,0:1:0:0:
312,136,210964,1,8,1:0:0:0:
25,115,211151,1,0,0:0:0:0:
144,306,211339,2,2,L|158:164,1,142.500005435944,2|0,1:1|0:1,0:1:0:0:
296,115,211620,1,8,1:0:0:0:
311,135,211714,6,2,P|412:149|471:67,1,213.750008153916,2|0,1:1|2:0,0:1:0:0:
375,60,212089,1,0,1:0:0:0:
380,338,212276,2,2,L|470:330,1,71.2500027179719,2|2,1:1|0:2,0:1:0:0:
487,229,212464,1,8,1:0:0:0:
312,136,212652,2,2,L|294:304,1,142.500005435944,2|0,1:1|0:0,0:1:0:0:
375,60,213026,1,0,0:0:0:0:
103,0,213214,6,0,L|113:70,1,71.2500027179719,6|4,1:0|0:0,0:0:0:0:
209,154,213401,1,8,1:0:0:0:
258,133,213494,1,8,1:0:0:0:
312,136,213588,1,8,1:0:0:0:
358,158,213682,1,8,1:0:0:0:
392,199,213776,1,10,1:0:0:0:
406,250,213869,1,8,1:0:0:0:
398,303,213964,6,0,L|487:316,1,71.2500027179719,0|8,1:3|0:0,0:0:0:0:
428,146,214151,2,0,L|343:160,1,71.2500027179719,8|8,1:3|0:0,0:0:0:0:
212,23,214339,1,8,1:0:0:0:
283,27,214432,1,8,1:0:0:0:
354,32,214526,1,8,1:0:0:0:
425,36,214620,1,8,1:0:0:0:
496,41,214714,6,0,L|505:166,1,95,4|0,1:0|0:0,0:0:0:0:
429,223,215089,1,2,1:2:0:0:
323,179,215276,1,0,0:0:0:0:
235,251,215464,2,0,P|184:254|132:227,1,95,8|0,1:0|0:0,0:0:0:0:
64,63,215839,2,0,P|107:45|154:49,1,95,0|0,3:0|0:0,0:0:0:0:
323,179,216214,6,0,L|336:70,1,95,0|0,1:0|0:0,0:0:0:0:
487,23,216589,1,0,1:0:0:0:
501,116,216776,1,0,0:0:0:0:
334,84,216964,2,0,P|261:79|227:79,1,95,8|0,1:0|0:0,0:0:0:0:
113,141,217339,2,0,L|122:236,1,95,4|0,3:0|0:0,0:0:0:0:
138,252,217620,1,8,1:0:0:0:
228,216,217714,6,0,P|271:217|326:245,1,95,0|0,1:0|0:0,0:0:0:0:
411,343,218089,1,0,1:0:0:0:
453,118,218276,1,0,0:0:0:0:
432,231,218464,1,8,1:0:0:0:
258,134,218651,2,0,L|355:127,2,95,0|0|0,3:0|3:0|3:0,0:0:0:0:
129,225,219214,6,0,L|20:217,1,95,8|0,1:0|0:0,0:0:0:0:
17,105,219589,1,2,1:2:0:0:
209,12,219776,2,0,L|195:70,1,47.5,8|0,1:0|0:0,0:0:0:0:
258,134,219964,2,0,L|268:216,1,47.5,8|0,1:0|0:0,0:0:0:0:
218,265,220151,1,0,1:0:0:0:
389,188,220339,2,0,L|497:197,1,95,8|0,1:0|0:0,0:0:0:0:
409,31,220714,6,0,P|357:49|297:47,1,95,4|0,1:2|0:0,0:0:0:0:
209,12,221089,1,2,1:2:0:0:
135,98,221276,1,0,0:0:0:0:
28,56,221464,2,0,L|38:178,1,95,8|0,1:0|0:0,0:0:0:0:
201,223,221839,2,0,L|224:118,1,95,0|0,0:0|3:0,0:0:0:0:
106,257,222214,6,0,B|227:226|170:285|292:255,1,190,0|0,1:0|1:0,0:0:0:0:
402,158,222776,2,0,L|398:97,1,47.5,0|0,3:0|3:0,0:0:0:0:
315,137,222964,2,0,L|221:130,1,95,8|0,1:0|0:0,0:0:0:0:
100,208,223339,2,0,L|115:318,1,95
117,325,223620,1,8,1:0:0:0:
206,292,223714,6,0,P|254:296|306:324,1,95,0|0,1:0|0:0,0:0:0:0:
486,259,224089,2,0,P|500:194|498:158,1,95,0|0,3:0|0:0,0:0:0:0:
382,114,224464,2,0,L|399:330,1,190,8|0,1:0|0:0,0:0:0:0:
499,165,225026,1,0,0:0:0:0:
284,80,225214,6,0,B|226:93|226:93|184:74,1,95.0000036239625,8|0,1:1|2:1,0:1:0:0:
55,20,225464,2,0,B|95:63|95:63|99:98,1,95.0000036239625,2|0,1:3|2:1,0:1:0:0:
119,247,225714,2,0,B|136:190|136:190|165:169,1,95.0000036239625,4|0,1:2|2:1,0:1:0:0:
369,282,225964,6,0,P|311:295|265:285,1,95.0000036239625,4|0,1:3|2:0,0:0:0:0:
409,115,226214,2,0,P|449:158|464:202,1,95.0000036239625,2|0,1:3|2:0,0:0:0:0:
244,163,226464,2,0,P|261:106|292:71,1,95.0000036239625,4|0,1:2|2:0,0:0:0:0:
409,115,226714,5,6,1:2:0:0:
244,163,226901,1,0,0:0:0:0:
381,267,227089,1,0,0:0:0:0:
244,163,227276,1,2,0:0:0:0:
258,239,227463,1,0,0:0:0:0:
272,315,227651,1,0,0:0:0:0:
381,267,227839,2,0,L|463:276,1,71.2500027179719,0|2,0:0|0:0,0:0:0:0:
510,98,228214,6,0,L|360:109,1,142.500005435944
203,69,228776,1,0,0:0:0:0:
215,146,228964,1,2,0:0:0:0:
226,223,229151,1,0,0:0:0:0:
356,178,229339,2,0,L|370:97,1,71.2500027179719,0|2,0:0|0:0,0:0:0:0:
458,56,229714,6,0,L|471:126,2,71.2500027179719,0|0|2,0:0|0:0|0:0,0:0:0:0:
321,23,230276,2,0,L|241:31,1,71.2500027179719,0|2,0:0|0:0,0:0:0:0:
186,74,230651,1,2,0:0:0:0:
277,196,230839,2,0,L|281:109,1,71.2500027179719,0|2,0:0|0:0,0:0:0:0:
137,161,231214,6,0,L|157:256,2,71.2500027179719,0|2|0,0:0|0:0|0:0,0:0:0:0:
79,109,231776,1,0,0:0:0:0:
78,30,231964,1,2,0:0:0:0:
274,75,232151,2,0,L|203:71,2,71.2500027179719,0|2|0,0:0|0:0|0:0,0:0:0:0:
413,42,232714,6,0,P|419:102|422:190,1,142.500005435944,2|0,0:0|0:0,0:0:0:0:
268,270,233276,2,0,P|276:216|287:190,1,71.2500027179719,2|0,0:0|0:0,0:0:0:0:
325,134,233651,1,0,0:0:0:0:
453,257,233839,2,0,L|367:252,1,71.2500027179719,2|0,0:0|0:0,0:0:0:0:
279,346,234214,6,0,L|114:352,1,142.500005435944,2|0,0:0|0:0,0:0:0:0:
198,241,234776,2,0,L|205:312,2,71.2500027179719,2|0|0,0:0|0:0|0:0,0:0:0:0:
189,163,235339,1,0,0:0:0:0:
181,85,235526,1,2,0:0:0:0:
110,52,235714,6,0,P|68:43|34:45,2,71.2500027179719,2|0|0,0:0|0:0|0:0,0:0:0:0:
181,85,236276,1,2,0:0:0:0:
256,61,236464,1,2,0:0:0:0:
321,104,236651,1,0,0:0:0:0:
399,91,236839,2,0,L|392:166,1,71.2500027179719,0|2,0:0|0:0,0:0:0:0:
307,260,237214,6,0,L|153:256,1,142.500005435944,2|0,0:0|0:0,0:0:0:0:
98,216,237776,1,2,0:0:0:0:
173,133,237964,2,0,L|244:124,1,71.2500027179719,2|2,0:0|0:0,0:0:0:0:
451,177,238339,2,0,L|365:167,1,71.2500027179719,0|2,0:0|0:0,0:0:0:0:
315,23,238714,5,4,1:0:0:0:
