osu file format v14

[General]
AudioFilename: 05 Pierce The Veil - Bulls In The Bronx.mp3
AudioLeadIn: 0
PreviewTime: 37714
Countdown: 0
SampleSet: Soft
StackLeniency: 0.3
Mode: 0
LetterboxInBreaks: 0
WidescreenStoryboard: 0

[Editor]
Bookmarks: 1714,13714,25714,37714,49714,55714,64714,76714,88714,100714,106714,118714,130714,136714,142714,154714,166714,178714,190714,196245,202714,214714,238714
DistanceSpacing: 1.5
BeatDivisor: 4
GridSize: 4
TimelineZoom: 2.3

[Metadata]
Title:Bulls in the Bronx
TitleUnicode:Bulls in the Bronx
Artist:Pierce The Veil
ArtistUnicode:Pierce The Veil
Creator:Avena
Version:Aia's Hard
Source:
Tags:Collide with the Sky Post Hardcore HB24 pishifat Aia Priti
BeatmapID:1163089
BeatmapSetID:424713

[Difficulty]
HPDrainRate:6
CircleSize:3.8
OverallDifficulty:7
ApproachRate:7.8
SliderMultiplier:1.3
SliderTickRate:1

[Events]
//Background and Video events
0,0,"huh.jpg",0,0
//Break Periods
2,52914,54747
2,102414,105935
2,142914,153935
//Storyboard Layer 0 (Background)
//Storyboard Layer 1 (Fail)
//Storyboard Layer 2 (Pass)
//Storyboard Layer 3 (Foreground)
//Storyboard Sound Samples

[TimingPoints]
214,375,4,3,1,80,1,0
1714,375,4,2,1,85,1,0
13714,-100,4,3,1,80,0,0
24214,-100,4,3,1,90,0,0
25714,-100,4,3,1,85,0,0
31714,-125,4,3,1,60,0,0
34714,-100,4,3,1,70,0,0
35464,-100,4,3,1,80,0,0
37714,-100,4,3,1,80,0,1
52151,-100,4,3,1,60,0,0
52714,-100,4,3,1,80,0,0
55714,-100,4,3,1,85,0,0
61760,-100,4,2,1,5,0,0
61901,-100,4,2,1,85,0,0
61948,-100,4,2,1,5,0,0
62089,-100,4,2,1,85,0,0
62135,-100,4,2,1,5,0,0
62276,-100,4,2,1,85,0,0
62323,-100,4,2,1,5,0,0
62464,-100,4,2,1,60,0,0
63260,-100,4,2,1,5,0,0
63964,-100,4,2,1,60,0,0
64010,-100,4,2,1,5,0,0
64714,-100,4,3,1,85,0,0
64901,-100,4,3,1,70,0,0
70714,-100,4,3,1,80,0,0
75214,-133.333333333333,4,3,1,60,0,0
76714,-100,4,3,1,80,0,1
87214,-100,4,3,1,80,0,0
88714,-100,4,3,1,80,0,1
94151,-100,4,3,1,90,0,0
94714,-100,4,3,1,90,0,1
100714,-166.666666666667,4,3,1,90,0,0
100807,-166.666666666667,4,3,1,5,0,0
102214,-111.111111111111,4,3,1,20,0,0
106714,-100,4,2,2,40,0,0
118339,-100,4,2,1,80,0,0
118385,-100,4,2,1,5,0,0
118714,-100,4,2,1,40,0,0
119464,-100,4,2,1,60,0,0
119557,-100,4,2,1,40,0,0
120964,-100,4,2,1,60,0,0
121057,-100,4,2,1,40,0,0
122464,-100,4,2,1,60,0,0
122557,-100,4,2,1,40,0,0
123964,-100,4,2,1,60,0,0
124057,-100,4,2,1,40,0,0
125464,-100,4,2,1,60,0,0
125557,-100,4,2,1,40,0,0
126964,-100,4,2,1,60,0,0
127057,-100,4,2,1,40,0,0
127714,-100,4,2,1,60,0,0
130339,-100,4,2,2,60,0,0
130714,-100,4,3,1,80,0,0
141214,-100,4,3,1,70,0,0
154714,-100,4,3,1,60,0,0
165214,-100,4,3,1,40,0,0
165589,-100,4,3,1,45,0,0
165964,-100,4,3,1,50,0,0
166339,-100,4,3,1,55,0,0
166714,-100,4,3,1,70,0,0
172901,-100,4,2,1,5,0,0
173089,-100,4,3,1,70,0,0
173276,-100,4,2,1,5,0,0
173464,-100,4,3,1,70,0,0
173651,-100,4,2,1,5,0,0
173839,-100,4,3,1,70,0,0
174026,-100,4,2,1,5,0,0
174214,-100,4,3,1,70,0,0
174401,-100,4,2,1,5,0,0
174589,-100,4,3,1,70,0,0
174776,-100,4,3,1,5,0,0
174964,-100,4,3,1,70,0,0
175151,-100,4,3,1,5,0,0
175339,-100,4,3,1,70,0,0
175526,-100,4,3,1,5,0,0
175714,-100,4,3,1,70,0,0
177214,-100,4,3,1,90,0,0
177401,-100,4,3,1,5,0,0
177589,-100,4,3,1,90,0,0
177776,-100,4,3,1,5,0,0
177964,-100,4,3,1,90,0,0
178151,-100,4,3,1,5,0,0
178339,-100,4,3,1,90,0,0
178526,-100,4,3,1,5,0,0
178714,-100,4,3,1,80,0,1
189214,-100,4,3,1,80,0,0
190339,-100,4,3,1,60,0,0
190714,-100,4,3,1,80,0,1
196151,-100,4,3,1,90,0,0
196714,-100,4,3,1,90,0,1
201214,-100,4,3,1,90,0,0
202714,-100,4,3,1,80,0,1
213401,-100,4,3,1,60,0,1
213964,-100,4,3,1,80,0,1
214714,-100,4,2,1,70,0,0
225214,-100,4,3,1,80,0,0
226714,-133.333333333333,4,2,1,50,0,0
227276,-133.333333333333,4,2,1,40,0,0
228214,-133.333333333333,4,2,1,35,0,0
238714,-133.333333333333,4,2,1,70,0,0

[Colours]
Combo1 : 255,94,55
Combo2 : 173,255,95
Combo3 : 17,254,176
Combo4 : 255,88,100

[HitObjects]
276,96,214,6,0,L|279:128,5,32.5,8|0|0|8|0|0,1:0|1:0|1:0|1:0|1:0|1:0,0:0:0:0:
326,199,776,2,0,L|322:231,5,32.5,8|0|0|8|4|4,1:0|1:0|1:0|1:0|1:3|1:3,0:0:0:0:
276,303,1339,1,6,1:2:0:0:
276,303,1714,6,0,P|257:276|220:249,1,65,0|0,1:0|0:0,0:0:0:0:
183,255,1995,1,8,1:0:0:0:
64,169,2276,2,0,P|60:77|70:33,1,130,0|0,1:0|0:0,0:0:0:0:
162,65,2839,2,0,P|194:65|251:54,1,65,8|0,1:0|0:0,0:0:0:0:
320,89,3214,6,0,B|324:123|324:123|319:180,1,65,0|0,1:0|0:0,0:0:0:0:
302,198,3495,1,8,1:0:0:0:
176,264,3776,2,0,P|137:217|129:147,1,130,0|0,1:0|1:0,0:0:0:0:
208,93,4339,2,0,P|214:124|216:157,1,65,8|0,1:0|0:0,0:0:0:0:
289,222,4714,6,0,P|290:189|297:157,1,65,0|0,1:0|0:0,0:0:0:0:
334,127,4995,1,8,1:0:0:0:
447,221,5276,2,0,B|429:273|429:273|363:328,1,130,0|0,1:0|3:0,0:0:0:0:
273,308,5839,2,0,P|239:303|183:317,1,65,8|0,1:0|0:0,0:0:0:0:
120,352,6214,6,0,P|103:324|90:269,1,65,0|0,1:0|0:0,0:0:0:0:
106,246,6495,1,8,1:0:0:0:
240,189,6776,2,0,B|241:137|241:137|199:57,1,130,0|0,1:0|3:0,0:0:0:0:
110,39,7339,1,8,1:0:0:0:
61,123,7526,1,0,3:0:0:0:
61,123,7620,1,0,3:0:0:0:
61,123,7714,6,0,P|64:159|74:193,1,65,0|0,1:0|0:0,0:0:0:0:
111,215,7995,1,8,1:0:0:0:
240,144,8276,2,0,P|301:155|345:218,1,130,0|0,1:0|3:0,0:0:0:0:
305,297,8839,2,0,B|272:301|272:301|232:300,1,65,8|0,1:0|0:0,0:0:0:0:
160,356,9214,6,0,P|139:331|101:310,1,65,0|0,1:0|0:0,0:0:0:0:
63,308,9495,1,8,1:0:0:0:
169,208,9776,2,0,P|181:147|161:68,1,130,0|0,1:0|3:0,0:0:0:0:
224,0,10339,2,0,P|256:24|296:40,1,65,8|0,1:0|0:0,0:0:0:0:
440,44,10714,5,4,1:2:0:0:
353,88,10901,1,2,0:0:0:0:
464,179,11089,5,8,1:0:0:0:
367,165,11276,1,2,0:0:0:0:
447,263,11464,5,4,1:2:0:0:
353,289,11651,1,2,0:0:0:0:
433,384,11839,5,8,1:0:0:0:
336,370,12026,1,2,0:0:0:0:
447,263,12214,6,0,P|447:223|435:183,1,65,4|4,1:2|1:3,0:0:0:0:
399,170,12495,1,0,1:3:0:0:
399,170,12589,2,0,L|359:163,3,32.5,4|0|4|0,1:3|1:3|1:3|0:0,0:0:0:0:
311,216,12964,2,0,L|278:221,3,32.5,4|0|4|0,1:2|0:0|1:3|0:0,0:0:0:0:
219,173,13339,2,0,L|179:166,3,32.5,4|0|4|4,1:3|1:3|1:3|1:3,0:0:0:0:
118,204,13714,6,0,P|113:239|115:284,1,65,4|8,1:3|1:0,0:0:0:0:
149,359,14089,2,0,L|188:364,1,32.5,0|0,0:0|0:0,0:0:0:0:
223,338,14276,2,0,B|275:328|275:328|314:342|369:345,1,130,8|8,1:0|1:0,0:0:0:0:
404,262,14839,2,0,P|421:262|440:258,2,32.5,0|0|8,0:0|0:0|1:0,0:0:0:0:
320,212,15214,6,0,P|316:168|320:124,1,65,0|8,0:0|1:0,0:0:0:0:
216,120,15589,2,0,P|220:76|216:32,1,65,0|8,0:0|1:0,0:0:0:0:
185,20,15870,1,0,0:0:0:0:
185,20,15964,2,0,B|155:20|155:20|112:16,1,65,0|8,0:0|1:0,0:0:0:0:
36,67,16339,1,0,0:0:0:0:
36,67,16432,1,0,0:0:0:0:
36,67,16526,1,8,1:0:0:0:
79,154,16714,5,0,0:0:0:0:
28,236,16901,2,0,P|84:250|162:201,1,130,8|8,1:0|1:0,0:0:0:0:
216,284,17464,2,0,P|228:248|260:212,1,65,0|8,0:0|1:0,0:0:0:0:
338,201,17839,2,0,L|384:206,2,32.5,0|0|8,0:0|0:0|1:0,0:0:0:0:
284,124,18214,6,0,L|276:51,1,65,0|8,0:0|1:0,0:0:0:0:
184,91,18589,2,0,L|192:18,1,65,0|8,0:0|1:0,0:0:0:0:
100,62,18964,2,0,L|107:126,1,65,0|8,0:0|1:0,0:0:0:0:
20,171,19339,2,0,L|27:106,1,65,0|0,0:0|0:0,0:0:0:0:
96,224,19714,6,0,P|158:206|224:236,1,130,2|0,0:2|0:0,0:0:0:0:
312,204,20276,1,8,1:0:0:0:
312,204,20370,1,0,0:0:0:0:
312,204,20464,2,0,P|301:174|298:131,1,65,0|8,0:0|1:0,0:0:0:0:
360,64,20839,2,0,L|392:60,2,32.5,0|0|8,0:0|0:0|1:0,0:0:0:0:
268,28,21214,5,0,0:0:0:0:
268,28,21401,2,0,P|212:56|183:121,1,130,8|8,1:0|1:0,0:0:0:0:
224,203,21964,2,0,P|220:224|210:248,2,32.5,0|0|8,0:0|0:0|1:0,0:0:0:0:
315,162,22339,2,0,B|338:158|338:158|379:164,1,65,0|8,0:0|1:0,0:0:0:0:
449,231,22714,5,0,0:0:0:0:
472,136,22901,1,8,1:0:0:0:
363,250,23089,1,0,0:0:0:0:
363,250,23182,1,0,0:0:0:0:
363,250,23276,1,8,1:0:0:0:
284,191,23464,2,0,P|266:193|250:197,2,32.5,0|0|8,0:0|0:0|1:0,0:0:0:0:
355,124,23839,2,0,P|373:126|389:130,2,32.5,0|0|8,0:0|0:0|1:0,0:0:0:0:
280,64,24214,6,0,P|244:64|204:72,1,65,4|0,1:2|0:0,0:0:0:0:
180,103,24495,1,4,1:2:0:0:
180,103,24589,2,0,B|150:104|150:104|104:92,1,65,0|8,0:0|1:0,0:0:0:0:
40,156,24964,2,0,P|91:189|103:260,1,130,4|8,1:2|1:0,0:0:0:0:
77,346,25526,1,0,0:0:0:0:
171,320,25714,6,0,P|204:315|273:320,1,97.5,6|2,1:0|1:0,0:0:0:0:
303,352,26089,1,0,0:0:0:0:
363,275,26276,2,0,B|369:226|369:226|359:190|356:142,1,130,10|10,1:0|1:0,0:0:0:0:
401,59,26839,1,2,1:0:0:0:
401,59,26932,1,0,0:0:0:0:
401,59,27026,1,10,1:0:0:0:
308,28,27214,6,0,B|275:25|248:32|248:32|228:26|197:25,1,97.5,2|2,1:0|1:0,0:0:0:0:
169,50,27589,1,0,0:0:0:0:
112,128,27776,2,0,P|158:146|246:107,1,130,10|10,1:0|1:0,0:0:0:0:
324,152,28339,1,2,1:0:0:0:
324,152,28432,1,0,1:0:0:0:
324,152,28526,1,8,1:0:0:0:
264,228,28714,6,0,P|265:275|285:323,1,97.5,2|2,1:0|1:0,0:0:0:0:
328,341,29089,1,0,0:0:0:0:
414,296,29276,2,0,B|425:248|425:248|412:212|409:168,1,130,10|10,1:0|1:0,0:0:0:0:
350,90,29839,1,2,1:0:0:0:
350,90,29932,1,0,0:0:0:0:
350,90,30026,1,8,1:0:0:0:
280,156,30214,6,0,P|231:153|176:128,1,97.5,2|2,1:0|0:1,0:0:0:0:
166,90,30589,1,0,1:0:0:0:
112,171,30776,1,10,1:0:0:0:
72,58,30964,2,10,P|77:43|88:24,2,32.5,0|0|10,1:0|0:0|1:0,0:0:0:0:
20,141,31339,2,0,P|30:175|35:228,1,65,2|8,1:0|1:0,0:0:0:0:
118,257,31714,6,0,L|237:244,1,104,0|2,1:0|1:0,0:0:0:0:
153,82,32464,2,0,L|256:93,1,104,2|2,1:0|1:0,0:0:0:0:
390,172,33214,6,0,L|287:183,1,104,2|2,1:0|1:0,0:0:0:0:
425,347,33964,2,0,L|321:335,1,104,2|2,1:0|1:0,0:0:0:0:
256,192,34714,12,6,36214,1:2:0:0:
344,292,37714,6,0,P|405:275|442:195,1,130,6|10,1:0|1:0,0:0:0:0:
384,141,38277,2,0,P|351:142|318:153,2,65,2|0|2,0:1|1:0|0:1,0:0:0:0:
233,107,38839,1,8,1:0:0:0:
315,55,39026,1,2,1:0:0:0:
223,114,39214,6,0,P|191:112|139:91,1,65,0|2,1:0|1:0,0:0:0:0:
109,18,39589,2,0,P|139:8|172:6,1,65,8|2,1:0|1:0,0:0:0:0:
67,102,39964,2,0,P|91:163|162:193,1,130,0|8,1:0|1:0,0:0:0:0:
231,146,40526,1,0,0:0:0:0:
308,208,40714,6,0,B|303:251|311:289|311:289|296:352,1,130,2|8,1:0|1:0,0:0:0:0:
391,303,41276,1,0,0:0:0:0:
391,303,41464,2,0,P|424:296|460:296,2,65,0|0|10,0:0|0:0|1:0,0:0:0:0:
299,336,42026,1,0,0:0:0:0:
216,280,42214,6,0,P|184:270|129:268,2,65,2|0|8,1:0|0:0|1:0,0:0:0:0:
301,233,42776,1,0,0:0:0:0:
236,160,42964,2,0,P|224:116|276:44,1,130,0|8,0:0|1:0,0:0:0:0:
364,49,43526,1,4,0:0:0:0:
424,128,43714,6,0,B|426:180|426:180|392:271,1,130,6|10,1:0|1:0,0:0:0:0:
301,263,44276,2,0,P|326:320|410:350,1,130,2|2,1:0|1:0,0:0:0:0:
466,297,44839,2,0,L|494:223,1,65,8|2,1:0|1:0,0:0:0:0:
417,118,45214,5,0,1:0:0:0:
402,214,45401,1,2,1:0:0:0:
303,158,45589,1,8,1:0:0:0:
318,254,45776,1,2,1:0:0:0:
228,324,45964,2,0,P|195:326|151:315,1,65,0|2,1:0|1:0,0:0:0:0:
90,255,46339,2,0,P|117:233|171:225,1,65,8|0,1:0|0:0,0:0:0:0:
243,229,46714,6,0,P|228:170|171:128,1,130,0|10,1:0|1:0,0:0:0:0:
84,166,47276,1,0,0:0:0:0:
84,166,47464,2,0,P|77:135|86:88,1,65,2|2,1:0|1:0,0:0:0:0:
149,32,47839,1,8,1:0:0:0:
239,66,48026,1,2,0:1:0:0:
328,24,48214,6,0,P|337:86|283:157,1,130,2|10,1:0|1:0,0:0:0:0:
209,164,48776,1,0,0:0:0:0:
115,135,48964,2,0,P|110:173|123:211,1,65,2|0,1:0|1:0,0:0:0:0:
192,259,49339,1,10,1:0:0:0:
137,339,49526,1,0,0:0:0:0:
137,339,49620,1,0,2:0:0:0:
137,339,49714,6,0,P|169:352|223:347,1,65,10|4,1:0|0:0,0:0:0:0:
348,294,50089,2,0,P|315:296|286:309,2,65,8|4|8,1:0|0:0|1:0,0:0:0:0:
432,343,50651,1,4,0:0:0:0:
488,264,50839,2,0,L|476:196,1,65,8|4,1:0|0:0,0:0:0:0:
380,217,51214,6,0,L|392:149,1,65,8|4,1:0|0:0,0:0:0:0:
299,254,51589,2,0,L|288:190,1,65,8|4,1:0|0:0,0:0:0:0:
190,195,51964,6,0,L|202:127,1,65,8|8,1:0|1:0,0:0:0:0:
162,101,52245,1,8,1:0:0:0:
162,101,52339,2,0,L|159:60,4,32.5,8|8|8|8|8,1:0|1:0|1:0|1:0|1:0,0:0:0:0:
328,88,55526,5,8,1:0:0:0:
328,88,55714,2,0,P|328:124|339:167,1,65,6|8,1:0|1:0,0:0:0:0:
295,242,56089,1,0,0:0:0:0:
295,242,56182,1,0,0:0:0:0:
295,242,56276,2,0,P|247:210|157:227,1,130,10|10,1:0|1:0,0:0:0:0:
94,162,56839,2,0,L|57:168,2,32.5,0|0|10,1:0|0:0|1:0,0:0:0:0:
179,113,57214,6,0,P|192:83|196:51,2,65,2|8|0,1:0|1:0|0:0,0:0:0:0:
198,157,57682,1,0,0:0:0:0:
198,157,57776,2,0,P|259:136|333:155,1,130,10|10,1:0|1:0,0:0:0:0:
376,228,58339,2,0,L|422:217,2,32.5,2|0|8,1:0|0:0|1:0,0:0:0:0:
308,300,58714,6,0,L|203:279,2,97.5,6|2|10,1:0|1:0|1:0,0:0:0:0:
372,372,59464,2,0,L|440:356,1,65,0|10,1:0|1:0,0:0:0:0:
494,279,59839,1,2,1:0:0:0:
494,279,59932,1,0,0:0:0:0:
494,279,60026,1,8,1:0:0:0:
424,212,60214,6,0,P|421:163|440:113,2,97.5,2|2|10,1:0|1:1|1:0,0:0:0:0:
345,270,60964,2,0,P|328:210|268:148,1,130,2|2,1:0|1:0,0:0:0:0:
137,286,61714,6,0,L|215:269,1,65,2|2,1:2|1:2,0:0:0:0:
146,190,62089,2,0,L|68:173,1,65,2|2,1:2|1:2,0:0:0:0:
148,104,62464,2,0,L|183:99,3,32.5,8|8|8|8,1:0|1:0|1:0|1:0,0:0:0:0:
252,130,62839,2,0,L|284:134,3,32.5,8|8|8|8,1:0|1:0|1:0|1:0,0:0:0:0:
351,94,63214,5,2,3:1:0:0:
394,176,63964,5,4,0:0:0:0:
357,262,64714,6,0,L|241:247,1,97.5,4|0,1:2|0:0,0:0:0:0:
221,279,65089,1,0,0:0:0:0:
148,212,65276,2,0,P|136:156|152:84,1,130,8|0,1:0|0:0,0:0:0:0:
232,28,65839,1,0,1:0:0:0:
232,28,66026,1,0,1:0:0:0:
317,75,66214,6,0,B|326:115|326:115|316:193,1,97.5,4|0,1:2|0:0,0:0:0:0:
292,211,66589,1,0,0:0:0:0:
206,164,66776,2,0,B|154:152|154:152|121:163|74:164,1,130,8|4,1:0|1:3,0:0:0:0:
16,239,67339,1,0,1:0:0:0:
16,239,67526,1,4,1:3:0:0:
93,304,67714,6,0,B|145:325|189:296|189:296|218:305|218:305|234:279|234:279|249:299|277:309,2,195,4|8|0,1:2|1:0|1:0,0:0:0:0:
135,213,69026,1,0,1:0:0:0:
135,213,69214,6,0,P|132:182|120:140,1,65,4|0,1:2|0:0,0:0:0:0:
84,120,69495,1,0,1:0:0:0:
196,28,69776,2,0,B|244:25|244:25|277:38|341:42,1,130,8|0,1:0|0:0,0:0:0:0:
395,108,70339,1,0,1:0:0:0:
354,196,70526,1,0,3:0:0:0:
354,196,70620,1,8,1:0:0:0:
354,196,70714,6,0,P|266:201|235:103,2,195,4|8|0,1:3|1:0|0:0,0:0:0:0:
437,247,72026,1,8,1:0:0:0:
388,332,72214,6,0,B|356:330|329:344|329:344|264:325|264:325|233:341|175:341,2,195,0|8|0,0:0|1:0|0:0,0:0:0:0:
437,247,73526,1,8,1:0:0:0:
437,247,73714,6,0,P|432:216|433:171,1,65,8|0,1:0|0:0,0:0:0:0:
396,148,73995,2,0,L|400:112,1,32.5,8|0,1:0|0:0,0:0:0:0:
304,137,74276,1,8,1:0:0:0:
218,90,74464,2,0,L|210:50,2,32.5,8|8|4,1:0|1:0|0:0,0:0:0:0:
302,41,74839,2,0,L|310:1,2,32.5,8|8|4,1:0|1:0|0:0,0:0:0:0:
200,109,75214,6,0,L|192:174,1,48.750001859665,4|0,1:2|0:0,0:0:0:0:
275,161,75589,2,0,L|283:226,1,48.750001859665,0|0,0:0|0:0,0:0:0:0:
360,108,75964,2,0,L|352:173,1,48.750001859665,0|0,0:0|0:0,0:0:0:0:
434,161,76339,2,0,L|442:226,1,48.750001859665,0|0,0:0|0:0,0:0:0:0:
404,300,76714,6,0,P|346:287|272:316,1,130,6|10,1:0|1:0,0:0:0:0:
209,375,77276,1,2,1:0:0:0:
204,276,77464,2,0,P|212:244|211:201,1,65,0|2,0:0|1:0,0:0:0:0:
126,166,77839,2,0,P|126:198|134:229,1,65,8|2,1:0|1:0,0:0:0:0:
196,116,78214,5,0,1:0:0:0:
116,60,78401,1,2,1:0:0:0:
208,124,78589,2,0,P|242:120|271:109,1,65,8|2,1:0|1:0,0:0:0:0:
273,207,78964,2,0,P|334:190|396:219,1,130,0|8,1:0|1:0,0:0:0:0:
475,163,79526,1,0,0:0:0:0:
475,163,79714,6,0,P|467:131|464:84,1,65,2|0,1:0|0:0,0:0:0:0:
386,39,80089,2,0,P|382:71|374:102,1,65,8|0,1:0|0:0,0:0:0:0:
297,162,80464,1,0,0:0:0:0:
252,75,80651,1,0,0:0:0:0:
289,175,80839,2,0,P|257:183|225:185,1,65,10|0,1:0|0:0,0:0:0:0:
143,238,81214,6,0,P|201:273|217:348,1,130,2|10,1:0|1:0,0:0:0:0:
122,333,81776,1,0,0:0:0:0:
53,262,81964,2,0,P|51:230|59:189,1,65,0|12,1:0|0:0,0:0:0:0:
135,139,82339,2,0,P|137:107|129:66,1,65,8|4,1:0|0:0,0:0:0:0:
204,9,82714,6,0,P|245:47|337:39,1,130,2|10,1:0|1:0,0:0:0:0:
409,20,83276,2,0,L|421:98,1,65,2|0,0:1|1:0,0:0:0:0:
438,180,83651,1,2,0:1:0:0:
348,268,83839,1,8,1:0:0:0:
348,268,84026,1,2,1:0:0:0:
284,196,84214,6,0,P|262:225|253:272,1,65,0|2,0:0|1:0,0:0:0:0:
187,323,84589,2,0,P|176:292|156:266,1,65,8|2,1:0|1:0,0:0:0:0:
65,230,84964,1,0,0:0:0:0:
0,302,85151,1,2,1:0:0:0:
76,222,85339,2,0,P|81:190|80:147,1,65,8|4,1:0|0:0,0:0:0:0:
153,91,85714,5,0,1:0:0:0:
177,185,85901,1,0,0:0:0:0:
279,136,86089,1,10,1:0:0:0:
255,230,86276,1,0,0:0:0:0:
324,300,86464,2,0,L|400:280,1,65,2|2,1:0|1:0,0:0:0:0:
439,201,86839,1,8,1:0:0:0:
439,201,87026,1,2,1:0:0:0:
368,136,87214,6,0,L|360:96,3,32.5,2|0|4|0,1:0|0:0|0:0|0:0,0:0:0:0:
281,172,87589,2,0,L|289:132,3,32.5,10|4|4|0,1:0|0:0|0:0|0:0,0:0:0:0:
211,127,87964,2,0,L|203:87,3,32.5,2|0|4|0,1:0|2:0|0:0|0:0,0:0:0:0:
130,170,88339,2,0,L|138:130,3,32.5,10|4|4|0,1:0|0:0|0:0|0:0,0:0:0:0:
63,207,88714,6,0,P|32:195|1:165,2,65,6|0|8,1:0|0:0|1:0,0:0:0:0:
124,282,89276,1,0,0:0:0:0:
124,282,89464,2,0,P|148:261|178:249,2,65,0|2|10,1:0|1:2|1:0,0:0:0:0:
202,339,90026,1,0,0:0:0:0:
202,339,90120,1,0,0:0:0:0:
202,339,90214,6,0,P|233:347|284:347,1,65,2|0,1:0|0:0,0:0:0:0:
338,283,90589,1,10,1:0:0:0:
305,191,90776,1,0,0:0:0:0:
352,104,90964,2,0,L|416:91,1,65,2|0,1:0|0:0,0:0:0:0:
397,187,91339,6,2,P|460:177|504:130,2,130,10|2|10,1:0|1:0|1:0,0:0:0:0:
312,144,92276,1,0,0:0:0:0:
232,200,92464,2,0,P|203:191|160:184,1,65,2|0,1:0|0:0,0:0:0:0:
81,284,92839,2,0,P|112:278|144:268,1,65,10|0,1:0|0:0,0:0:0:0:
79,195,93214,6,0,P|90:140|175:95,1,130,2|4,1:0|1:2,0:0:0:0:
243,112,93776,1,0,0:0:0:0:
298,192,93964,1,2,1:0:0:0:
212,237,94151,1,8,1:0:0:0:
249,350,94339,1,8,1:0:0:0:
163,305,94526,1,8,1:0:0:0:
312,280,94714,6,0,P|344:273|397:278,1,65,6|0,1:0|0:0,0:0:0:0:
446,205,95089,2,0,P|418:192|376:157,1,65,8|0,1:0|0:0,0:0:0:0:
327,97,95464,2,0,P|296:109|255:117,1,65,0|0,1:0|0:0,0:0:0:0:
205,193,95839,2,0,P|178:182|142:175,1,65,10|0,1:0|0:0,0:0:0:0:
47,199,96214,6,0,P|40:266|82:324,1,130,2|10,1:0|1:0,0:0:0:0:
168,300,96776,1,0,0:0:0:0:
168,300,96964,2,0,B|199:297|199:297|245:303,1,65,2|0,1:0|0:0,0:0:0:0:
320,260,97339,1,10,1:0:0:0:
401,312,97526,1,0,0:0:0:0:
476,252,97714,6,0,P|483:219|484:172,1,65,6|8,1:0|1:0,0:0:0:0:
394,149,98089,2,0,P|392:116|385:84,1,65,2|4,1:0|0:0,0:0:0:0:
281,202,98464,2,0,P|282:169|289:137,1,65,10|0,1:0|0:0,0:0:0:0:
192,125,98839,2,0,P|190:92|183:60,1,65,2|4,1:0|0:0,0:0:0:0:
140,36,99120,1,8,1:0:0:0:
140,36,99214,6,0,L|56:56,1,65,2|8,1:0|1:0,0:0:0:0:
20,130,99589,1,2,1:0:0:0:
62,217,99776,1,0,0:0:0:0:
4,296,99964,2,0,P|63:314|142:271,1,130,10|2,1:0|1:0,0:0:0:0:
207,342,100526,1,0,0:0:0:0:
228,248,100714,6,0,P|232:184|359:266,1,311.999990478516,6|2,1:0|2:0,0:0:0:0:
160,319,106714,6,0,P|148:290|138:243,1,65,8|8,1:2|0:0,0:0:0:0:
140,258,106995,1,0,0:0:0:0:
140,258,107089,1,8,1:2:0:0:
197,179,107276,1,8,0:0:0:0:
278,233,107464,2,0,B|319:234|319:234|394:217,2,97.5,8|0|8,1:2|0:0|0:0,0:0:0:0:
197,179,108214,6,0,L|189:111,1,65,8|8,1:2|0:0,0:0:0:0:
212,72,108495,1,0,0:0:0:0:
212,72,108589,2,0,P|241:60|293:52,1,65,8|8,1:2|0:0,0:0:0:0:
352,112,108964,2,0,P|401:117|468:104,2,97.5,8|0|8,1:2|0:0|0:0,0:0:0:0:
288,188,109714,6,0,P|293:223|307:265,1,65,8|8,1:2|0:0,0:0:0:0:
203,258,110089,2,0,P|198:290|189:321,1,65,8|8,1:2|0:0,0:0:0:0:
111,246,110464,2,0,P|101:184|127:106,1,130,8|8,1:2|1:2,0:0:0:0:
204,68,111026,1,8,0:0:0:0:
204,68,111120,1,0,0:0:0:0:
204,68,111214,6,0,B|248:59|248:59|324:66,2,97.5,8|0|8,1:2|0:0|0:0,0:0:0:0:
127,125,111964,2,0,B|85:130|85:130|31:117,2,97.5,8|0|8,1:2|0:0|0:0,0:0:0:0:
200,188,112714,6,0,P|205:221|204:256,1,65,8|8,1:2|0:0,0:0:0:0:
302,250,113089,2,0,P|297:283|298:318,1,65,8|8,1:2|0:0,0:0:0:0:
391,286,113464,2,0,P|395:222|346:164,1,130,8|8,1:2|1:2,0:0:0:0:
436,113,114026,1,8,0:0:0:0:
436,113,114120,1,0,0:0:0:0:
436,113,114214,6,0,P|407:95|379:64,1,65,8|8,1:2|0:0,0:0:0:0:
319,1,114589,1,8,1:2:0:0:
256,75,114776,2,0,L|265:120,2,32.5,8|0|8,0:0|0:0|1:2,0:0:0:0:
168,32,115151,2,0,P|139:51|92:64,1,65,8|8,0:0|1:2,0:0:0:0:
39,128,115526,1,8,0:0:0:0:
102,203,115714,6,0,L|115:313,2,97.5,8|0|8,1:2|0:0|0:0,0:0:0:0:
212,253,116464,2,0,L|199:363,2,97.5,8|0|8,1:2|0:0|0:0,0:0:0:0:
261,168,117214,6,0,B|308:162|308:162|393:180,1,130,8|8,1:2|1:2,0:0:0:0:
454,251,117776,1,8,0:0:0:0:
412,339,117964,2,0,P|381:318|362:285,1,65,8|8,1:2|0:0,0:0:0:0:
502,329,118339,1,8,1:1:0:0:
388,179,118714,6,0,P|408:133|402:83,2,97.5,4|2|0,3:0|0:0|0:0,0:0:0:0:
295,211,119464,2,0,L|149:202,1,130,8|0,1:0|0:0,0:0:0:0:
47,358,120214,6,0,P|15:302|25:239,1,130,4|0,3:0|0:0,0:0:0:0:
168,316,120776,1,0,0:0:0:0:
168,316,120964,2,0,B|188:319|207:310|207:310|254:320|254:320|272:311|309:313,1,130,8|0,1:0|0:0,0:0:0:0:
469,226,121714,6,0,P|456:182|454:125,2,97.5,4|2|2,3:0|0:0|0:0,0:0:0:0:
413,306,122464,2,0,L|274:315,1,130,8|0,1:0|0:0,0:0:0:0:
197,270,123026,1,2,0:0:0:0:
197,270,123214,6,0,B|150:266|150:266|90:242,2,97.5,4|2|0,3:0|0:0|0:0,0:0:0:0:
205,172,123964,2,0,B|251:153|251:153|298:149,2,97.5,8|2|2,1:0|0:0|0:0,0:0:0:0:
108,156,124714,6,0,P|92:128|86:62,1,97.5,4|2,3:0|0:0,0:0:0:0:
192,24,125214,2,0,L|244:28,1,43.3333333333333,0|2,0:0|0:0,0:0:0:0:
258,46,125464,2,0,B|262:87|262:87|242:167,2,97.5,8|2|2,1:0|0:0|0:0,0:0:0:0:
352,21,126214,6,0,P|391:76|383:151,1,130,4|0,3:0|0:0,0:0:0:0:
322,198,126776,1,0,0:0:0:0:
322,198,126964,2,0,P|301:241|301:290,2,97.5,8|2|0,1:0|0:0|0:0,0:0:0:0:
167,275,127714,6,0,P|141:293|97:302,2,65,4|0|8,3:0|0:0|1:0,0:0:0:0:
290,125,128464,1,4,3:0:0:0:
352,200,128651,1,0,0:0:0:0:
352,200,128745,1,0,0:0:0:0:
352,200,128839,2,0,L|337:283,1,65,8|0,1:0|0:0,0:0:0:0:
256,308,129214,6,0,L|216:316,3,32.5,2|0|0|0,3:2|0:0|3:0|0:0,0:0:0:0:
170,252,129589,2,0,L|138:245,3,32.5,0|0|2|0,3:0|3:0|3:2|0:0,0:0:0:0:
67,287,129964,2,0,P|59:220|124:164,1,130,2|14,3:2|1:2,0:0:0:0:
288,208,130714,6,0,P|323:205|370:185,1,65,6|0,1:2|0:0,0:0:0:0:
373,171,130995,1,2,1:2:0:0:
373,171,131089,1,4,3:0:0:0:
295,112,131276,1,2,1:2:0:0:
383,71,131464,2,0,P|401:73|420:79,3,32.5,4|2|0|0,3:0|1:2|0:0|0:0,0:0:0:0:
444,116,131839,2,0,P|458:148|457:201,1,65,2|4,1:2|3:0,0:0:0:0:
429,270,132214,5,6,1:2:0:0:
358,203,132401,1,0,0:0:0:0:
267,240,132589,2,0,P|227:232|203:220,1,65,4|2,3:0|1:2,0:0:0:0:
167,131,132964,1,4,3:0:0:0:
231,57,133151,2,0,L|225:15,2,32.5,0|0|2,0:0|0:0|1:2,0:0:0:0:
325,80,133526,1,4,3:0:0:0:
325,80,133620,1,6,3:0:0:0:
325,80,133714,6,0,P|355:90|404:88,1,65,6|0,1:2|0:0,0:0:0:0:
479,126,134089,1,4,3:0:0:0:
479,126,134276,1,2,1:2:0:0:
416,200,134464,2,0,P|352:200|287:242,1,130,0|2,0:0|1:2,0:0:0:0:
242,313,135026,6,0,L|250:364,2,32.5,4|6|6,3:0|3:0|1:2,0:0:0:0:
158,261,135401,1,0,0:0:0:0:
158,261,135589,2,0,P|165:228|188:187,1,65,4|2,3:0|1:2,0:0:0:0:
275,183,135964,2,0,P|237:120|161:103,1,130,4|2,3:0|1:2,0:0:0:0:
236,18,136526,1,4,3:0:0:0:
313,77,136714,6,0,P|347:74|401:59,1,65,4|0,1:2|0:0,0:0:0:0:
468,102,137089,1,8,1:0:0:0:
468,102,137276,1,0,0:0:0:0:
400,232,137464,2,0,P|392:196|392:156,2,65,2|0|8,1:2|0:0|1:0,0:0:0:0:
324,358,138214,6,0,P|302:299|240:268,1,130,4|8,1:2|1:0,0:0:0:0:
165,323,138776,1,0,0:0:0:0:
82,269,138964,2,0,B|81:239|81:239|75:218|75:218|85:186|89:122,1,130,2|8,1:2|1:0,0:0:0:0:
258,47,139714,6,0,P|256:76|261:120,1,65,4|2,1:2|1:2,0:0:0:0:
331,178,140089,1,2,1:2:0:0:
420,140,140276,1,0,1:2:0:0:
369,251,140464,5,2,1:2:0:0:
449,274,140651,1,2,1:2:0:0:
325,368,140839,5,0,1:2:0:0:
400,349,141026,1,2,1:2:0:0:
264,304,141214,6,0,L|230:311,3,32.5,12|0|0|0,1:3|0:0|0:0|0:0,0:0:0:0:
275,227,141589,2,0,L|308:232,3,32.5,12|0|0|0,1:3|0:0|0:0|0:0,0:0:0:0:
336,162,141964,2,0,L|368:158,3,32.5,12|4|4|4,1:3|0:0|0:0|0:0,0:0:0:0:
280,108,142339,2,0,L|247:103,3,32.5,8|8|8|8,1:0|1:0|1:0|1:0,0:0:0:0:
180,137,142714,5,4,1:2:0:0:
224,90,154714,6,0,L|292:78,1,65,4|0,1:0|0:0,0:0:0:0:
379,114,155089,2,0,B|384:143|384:143|378:191,1,65,0|0,0:0|0:0,0:0:0:0:
301,236,155464,2,0,P|285:206|283:157,2,65,0|0|0,0:0|0:0|0:0,0:0:0:0:
388,278,156026,1,0,0:0:0:0:
324,352,156214,6,0,L|240:340,1,65,0|0,0:0|0:0,0:0:0:0:
200,264,156589,2,0,L|135:273,1,65,0|0,0:0|0:0,0:0:0:0:
50,321,156964,2,0,P|72:349|111:369,2,65,0|0|0,0:0|0:0|0:0,0:0:0:0:
72,226,157526,1,4,3:0:0:0:
72,226,157620,1,4,3:0:0:0:
72,226,157714,6,0,P|94:201|119:183,1,65,4|0,3:0|0:0,0:0:0:0:
216,176,158089,2,0,B|227:146|227:146|232:104,1,65,0|0,0:0|0:0,0:0:0:0:
304,48,158464,2,0,P|325:72|360:92,1,65,0|0,0:0|0:0,0:0:0:0:
450,90,158839,2,0,P|440:122|432:168,1,65,0|0,0:0|0:0,0:0:0:0:
363,220,159214,6,0,P|372:254|376:297,1,65,4|0,0:0|0:0,0:0:0:0:
364,314,159495,1,0,0:0:0:0:
364,314,159589,2,0,B|338:325|338:325|300:330,1,65,8|4,0:0|0:0,0:0:0:0:
211,291,159964,2,0,L|170:300,2,32.5,4|4|8,0:0|0:0|0:0,0:0:0:0:
251,201,160339,2,0,P|259:170|260:125,1,65,2|0,0:0|0:0,0:0:0:0:
224,104,160620,1,4,3:0:0:0:
224,104,160714,6,0,P|191:97|133:98,1,65,4|0,3:0|0:0,0:0:0:0:
91,165,161089,1,0,0:0:0:0:
169,222,161276,2,0,P|119:258|34:245,1,130,0|0,0:0|0:0,0:0:0:0:
0,173,161839,1,4,0:0:0:0:
76,112,162026,1,0,0:0:0:0:
76,112,162120,1,4,0:0:0:0:
76,112,162214,6,0,P|77:80|72:48,1,65,4|0,0:0|0:0,0:0:0:0:
161,81,162589,2,0,P|160:49|165:17,1,65,0|0,0:0|0:0,0:0:0:0:
244,106,162964,2,0,B|274:113|274:113|296:102|296:102|331:114|390:99,1,130,2|0,1:2|0:0,0:0:0:0:
454,151,163526,1,4,0:0:0:0:
454,151,163620,1,0,0:0:0:0:
454,151,163714,6,0,P|446:185|446:230,1,65,4|0,0:0|0:0,0:0:0:0:
479,306,164089,1,0,0:0:0:0:
369,249,164276,1,0,0:0:0:0:
369,249,164370,1,0,0:0:0:0:
369,249,164464,2,0,P|335:247|296:252,1,65,2|0,0:2|0:0,0:0:0:0:
222,303,164839,1,2,0:2:0:0:
148,122,165214,6,0,L|141:159,2,32.5,4|4|4,0:0|0:0|0:0,0:0:0:0:
238,88,165589,1,4,0:0:0:0:
238,88,165776,1,4,0:0:0:0:
332,116,165964,2,0,L|368:112,3,32.5,4|4|4|4,0:0|0:0|0:0|0:0,0:0:0:0:
426,68,166339,2,0,L|458:71,3,32.5,4|4|4|4,0:0|0:0|0:0|0:0,0:0:0:0:
508,129,166714,6,0,P|499:177|448:215,1,97.5,4|0,1:0|0:0,0:0:0:0:
445,207,167089,2,0,P|413:202|375:207,1,65,0|0,1:0|0:0,0:0:0:0:
315,278,167464,2,0,P|286:232|308:138,1,130,10|0,1:0|1:0,0:0:0:0:
230,83,168026,1,0,0:0:0:0:
197,175,168214,6,0,P|166:184|110:184,1,65,0|0,1:0|0:0,0:0:0:0:
69,89,168589,2,0,P|101:91|132:100,1,65,0|0,1:0|0:0,0:0:0:0:
212,44,168964,2,0,P|271:57|352:24,1,130,10|0,1:0|1:0,0:0:0:0:
428,66,169526,1,0,0:0:0:0:
428,66,169620,1,8,1:0:0:0:
428,66,169714,6,0,P|423:97|424:132,1,65,0|0,1:0|0:0,0:0:0:0:
458,221,170089,1,0,0:0:0:0:
351,142,170276,1,0,0:0:0:0:
289,217,170464,2,0,P|299:250|303:289,1,65,10|0,1:0|0:0,0:0:0:0:
199,332,170839,2,0,P|203:299|212:268,1,65,0|0,1:0|0:0,0:0:0:0:
116,284,171214,6,0,P|111:251|102:220,1,65,0|0,1:0|0:0,0:0:0:0:
33,151,171589,1,0,1:0:0:0:
173,195,171776,1,0,0:0:0:0:
142,101,171964,2,0,P|179:55|254:42,1,130,14|0,1:0|1:0,0:0:0:0:
326,96,172526,1,0,1:0:0:0:
326,96,172620,1,8,1:0:0:0:
326,96,172714,6,0,L|400:88,1,65,6|0,1:0|0:0,0:0:0:0:
465,151,173089,1,2,1:0:0:0:
465,151,173276,1,0,0:0:0:0:
422,239,173464,6,0,L|352:227,1,65,10|0,1:0|0:0,0:0:0:0:
267,265,173839,1,2,1:0:0:0:
267,265,174026,1,0,0:0:0:0:
196,196,174214,6,0,P|203:163|205:117,1,65,6|0,1:0|0:0,0:0:0:0:
156,47,174589,1,2,1:0:0:0:
156,47,174776,1,0,0:0:0:0:
279,106,174964,6,0,P|311:103|342:93,1,65,10|0,1:0|0:0,0:0:0:0:
414,192,175339,2,0,P|382:181|350:179,1,65,2|0,1:0|0:0,0:0:0:0:
260,220,175714,6,0,P|261:254|268:291,1,65,2|0,1:0|3:0,0:0:0:0:
186,171,176089,2,0,P|175:202|171:234,1,65,2|0,1:0|3:0,0:0:0:0:
136,100,176464,2,0,P|110:123|92:155,2,65,6|0|6,1:0|3:0|1:0,0:0:0:0:
233,88,177026,1,0,3:0:0:0:
294,164,177214,5,6,1:2:0:0:
268,257,177401,1,0,2:1:0:0:
372,211,177589,5,6,1:2:0:0:
398,304,177776,1,0,2:1:0:0:
456,168,177964,5,10,1:0:0:0:
456,168,178151,1,0,2:1:0:0:
372,117,178339,2,0,P|338:112|307:113,1,65,10|0,1:1|2:1,0:0:0:0:
221,62,178714,6,0,P|209:124|236:182,1,130,4|2,1:0|3:1,0:0:0:0:
333,199,179276,1,2,3:1:0:0:
350,295,179464,2,0,P|326:313|294:326,1,65,8|2,1:0|0:1,0:0:0:0:
205,284,179839,1,0,0:0:0:0:
117,325,180026,1,2,0:1:0:0:
44,260,180214,6,0,P|34:229|33:177,1,65,0|2,0:0|0:1,0:0:0:0:
128,183,180589,2,0,P|138:152|139:100,1,65,0|2,0:0|0:1,0:0:0:0:
60,64,180964,2,0,P|108:27|195:40,1,130,8|0,1:0|0:0,0:0:0:0:
241,99,181526,1,0,0:0:0:0:
241,99,181714,6,0,P|275:93|311:79,1,65,4|0,0:1|0:0,0:0:0:0:
388,131,182089,1,0,0:0:0:0:
361,224,182276,1,0,0:0:0:0:
477,142,182464,2,0,P|474:109|453:67,1,65,8|0,1:0|0:0,0:0:0:0:
377,30,182839,1,2,0:1:0:0:
377,30,183026,1,0,0:0:0:0:
300,92,183214,6,0,B|272:90|272:90|230:78,1,65,2|0,0:1|0:0,0:0:0:0:
144,108,183589,2,0,P|110:109|72:124,1,65,2|0,0:1|0:0,0:0:0:0:
40,239,183964,1,8,1:0:0:0:
127,197,184151,1,0,0:0:0:0:
89,311,184339,1,0,0:0:0:0:
175,354,184526,1,0,0:0:0:0:
175,354,184620,1,8,0:1:0:0:
175,354,184714,6,0,P|209:345|244:329,1,65,6|0,0:1|0:0,0:0:0:0:
279,245,185089,1,2,0:1:0:0:
209,176,185276,1,2,0:1:0:0:
292,253,185464,2,0,B|321:258|321:258|364:257,1,65,8|2,1:0|0:1,0:0:0:0:
396,167,185839,2,0,B|370:165|370:165|331:171,1,65,0|2,0:0|0:1,0:0:0:0:
451,242,186214,6,0,P|487:191|470:113,1,130,0|0,0:0|0:0,0:0:0:0:
397,73,186776,1,2,0:1:0:0:
301,92,186964,2,0,P|284:63|275:32,2,65,8|2|0,1:0|0:1|0:0,0:0:0:0:
288,188,187526,1,0,0:0:0:0:
288,188,187714,6,0,P|257:197|201:201,1,65,4|0,0:1|0:0,0:0:0:0:
139,148,188089,1,2,0:1:0:0:
139,148,188276,1,0,0:0:0:0:
213,212,188464,2,0,P|202:245|193:296,1,65,10|2,1:0|0:1,0:0:0:0:
295,334,188839,2,0,P|287:302|278:271,1,65,0|2,0:0|0:1,0:0:0:0:
364,243,189214,6,0,P|365:226|368:211,3,32.5,4|4|0|0,1:3|1:3|0:0|2:0,0:0:0:0:
340,172,189589,2,0,P|332:140|332:100,1,65,8|4,1:0|1:3,0:0:0:0:
299,70,189870,1,4,1:3:0:0:
299,70,189964,2,0,L|263:63,3,32.5,0|0|8|0,0:0|2:0|1:0|0:0,0:0:0:0:
196,100,190339,2,0,L|163:106,3,32.5,10|8|8|8,1:0|1:0|1:1|1:0,0:0:0:0:
96,152,190714,6,0,B|92:181|92:181|97:230,1,65,6|0,1:0|0:0,0:0:0:0:
167,282,191089,1,8,1:0:0:0:
254,239,191276,1,0,0:0:0:0:
336,292,191464,2,0,P|369:286|404:264,1,65,0|2,0:0|1:2,0:0:0:0:
420,176,191839,2,0,P|413:146|412:112,1,65,10|0,1:0|0:0,0:0:0:0:
352,36,192214,6,0,P|316:83|240:84,1,130,2|10,1:0|1:0,0:0:0:0:
165,38,192776,1,0,0:0:0:0:
100,112,192964,2,0,P|110:145|112:180,1,65,2|0,1:0|0:0,0:0:0:0:
209,176,193339,6,2,P|178:248|111:274,2,130,10|2|10,1:0|1:0|1:0,0:0:0:0:
178,84,194276,1,0,0:0:0:0:
247,15,194464,2,0,P|280:21|316:33,1,65,2|0,1:0|0:0,0:0:0:0:
358,115,194839,2,0,P|391:109|427:97,1,65,10|0,1:0|0:0,0:0:0:0:
493,34,195214,6,0,P|517:88|484:174,1,130,2|4,1:0|1:2,0:0:0:0:
412,197,195776,1,0,0:0:0:0:
302,138,195964,1,10,1:0:0:0:
280,232,196151,1,8,1:0:0:0:
194,204,196339,1,8,1:0:0:0:
216,298,196526,1,8,1:0:0:0:
96,237,196714,6,0,P|80:212|70:173,1,65,6|0,1:0|0:0,0:0:0:0:
92,82,197089,1,8,1:0:0:0:
92,82,197276,1,0,0:0:0:0:
178,36,197464,1,0,1:0:0:0:
147,155,197651,1,0,0:0:0:0:
236,115,197839,2,0,P|266:107|318:103,1,65,10|0,1:0|0:0,0:0:0:0:
377,162,198214,6,0,B|379:185|388:204|388:204|374:243|374:243|377:269|372:303,1,130,2|10,1:0|1:0,0:0:0:0:
287,332,198776,1,0,0:0:0:0:
287,332,198964,2,0,P|276:302|271:258,1,65,2|0,1:0|0:0,0:0:0:0:
173,263,199339,2,8,P|178:231|196:190,1,65,10|0,1:0|0:0,0:0:0:0:
307,149,199714,5,2,1:0:0:0:
307,149,199901,1,0,0:0:0:0:
391,198,200089,2,8,P|402:228|408:260,1,65,8|0,1:0|0:0,0:0:0:0:
333,366,200464,1,2,1:0:0:0:
333,366,200651,1,0,0:0:0:0:
252,310,200839,2,0,L|262:242,1,65,8|0,1:0|0:0,0:0:0:0:
180,190,201214,6,0,L|187:231,3,32.5,10|8|8|8,1:0|1:0|1:0|1:0,0:0:0:0:
111,149,201589,2,0,L|104:190,3,32.5,8|4|8|0,1:0|0:0|1:0|0:0,0:0:0:0:
189,111,201964,2,0,L|182:70,3,32.5,8|8|8|4,1:0|1:0|1:0|0:0,0:0:0:0:
258,152,202339,2,0,L|265:111,3,32.5,4|0|0|0,1:2|0:0|1:1|0:0,0:0:0:0:
299,218,202714,6,0,L|447:224,1,130,2|0,1:0|0:0,0:0:0:0:
500,157,203276,1,2,1:1:0:0:
412,116,203464,2,0,L|404:50,1,65,8|2,1:0|1:1,0:0:0:0:
313,88,203839,2,0,L|321:22,1,65,0|0,0:0|3:0,0:0:0:0:
230,61,204214,6,0,P|172:66|100:38,1,130,2|0,1:0|0:0,0:0:0:0:
39,113,204776,1,2,1:1:0:0:
93,194,204964,2,0,L|80:263,1,65,8|0,1:0|0:0,0:0:0:0:
133,340,205339,2,0,P|176:353|240:346,1,97.5,2|8,0:1|1:0,0:0:0:0:
271,327,205714,6,0,B|301:323|301:323|351:323,1,65,2|0,1:0|0:1,0:0:0:0:
399,249,206089,1,0,0:0:0:0:
399,249,206276,1,2,1:1:0:0:
313,202,206464,2,0,P|301:163|370:90,1,130,8|0,1:0|0:0,0:0:0:0:
443,112,207026,1,0,0:0:0:0:
313,18,207214,5,2,1:1:0:0:
313,18,207307,1,0,0:0:0:0:
313,18,207401,1,0,0:0:0:0:
241,85,207589,2,0,P|209:82|174:67,1,65,0|2,1:0|1:1,0:0:0:0:
88,107,207964,2,0,P|98:140|99:174,1,65,8|0,1:0|0:0,0:0:0:0:
75,265,208339,1,2,1:0:0:0:
171,275,208526,1,0,0:0:0:0:
268,286,208714,6,0,B|320:246|320:246|325:181,1,130,2|0,1:0|0:0,0:0:0:0:
301,86,209276,1,2,1:1:0:0:
301,86,209370,1,0,2:1:0:0:
301,86,209464,2,0,P|268:81|228:66,1,65,8|2,1:1|1:0,0:0:0:0:
210,164,209839,2,0,P|177:169|137:184,1,65,0|0,0:0|3:0,0:0:0:0:
64,126,210214,6,0,B|69:61|69:61|121:21,1,130,2|0,1:0|0:0,0:0:0:0:
208,61,210776,1,2,1:1:0:0:
208,61,210964,2,0,P|238:61|276:53,1,65,8|0,1:0|0:0,0:0:0:0:
359,10,211339,2,0,P|369:50|339:126,1,97.5,2|8,1:1|1:0,0:0:0:0:
391,134,211714,6,0,P|383:166|389:210,1,65,2|0,1:1|0:0,0:0:0:0:
441,278,212089,1,0,1:0:0:0:
364,338,212276,1,2,1:1:0:0:
364,338,212370,1,2,0:2:0:0:
364,338,212464,2,0,P|316:346|272:346,1,65,8|2,1:0|1:1,0:0:0:0:
250,262,212839,2,0,L|261:218,2,32.5
152,271,213214,5,6,1:0:0:0:
58,230,213401,2,0,L|53:198,2,32.5,8|8|8,1:0|1:0|1:0,0:0:0:0:
70,331,213776,1,8,1:0:0:0:
164,372,213964,2,0,L|196:367,3,32.5,0|8|8|8,1:3|0:0|1:3|0:0,0:0:0:0:
271,345,214339,2,0,L|303:350,3,32.5,8|8|8|8,1:0|1:0|1:0|1:0,0:0:0:0:
377,317,214714,6,0,P|385:286|386:249,1,65,4|0,1:0|0:0,0:0:0:0:
331,171,215089,1,2,1:2:0:0:
289,258,215276,1,0,0:0:0:0:
260,116,215464,2,0,P|306:84|395:111,1,130,8|0,1:0|3:0,0:0:0:0:
425,178,216026,1,0,0:0:0:0:
473,92,216214,5,0,1:0:0:0:
473,92,216307,1,0,0:0:0:0:
473,92,216401,1,0,0:0:0:0:
505,214,216589,2,0,P|493:245|470:275,1,65,0|0,1:0|0:0,0:0:0:0:
376,275,216964,2,0,P|328:263|228:287,1,130,8|4,1:0|3:0,0:0:0:0:
167,222,217526,1,0,0:0:0:0:
167,222,217620,1,8,1:0:0:0:
167,222,217714,6,0,P|173:190|172:150,1,65,0|0,1:0|0:0,0:0:0:0:
228,76,218089,2,0,P|260:88|304:88,1,65,0|0,1:0|0:0,0:0:0:0:
378,46,218464,2,0,P|388:99|349:168,1,130,8|0,1:0|3:0,0:0:0:0:
257,183,219026,1,0,3:0:0:0:
201,263,219214,6,0,L|209:335,2,65,8|0|2,1:0|0:0|1:2,0:0:0:0:
257,183,219776,1,8,1:0:0:0:
334,243,219964,2,0,L|326:315,1,65,8|0,1:0|1:0,0:0:0:0:
420,335,220339,2,0,L|412:270,1,65,8|0,1:0|0:0,0:0:0:0:
459,184,220714,5,4,1:2:0:0:
459,184,220807,1,0,0:0:0:0:
459,184,220901,1,0,0:0:0:0:
396,112,221089,2,0,P|344:96|312:100,1,65,2|0,1:2|0:0,0:0:0:0:
260,160,221464,2,0,P|236:106|257:35,1,130,8|0,1:0|0:0,0:0:0:0:
343,2,222026,1,0,3:0:0:0:
423,57,222214,6,0,L|464:42,2,32.5,0|0|0,1:0|0:0|0:0,0:0:0:0:
379,144,222589,2,0,P|387:174|390:219,1,65,0|0,1:0|3:0,0:0:0:0:
336,288,222964,2,0,P|273:284|220:344,1,130,8|0,1:0|0:0,0:0:0:0:
133,357,223526,1,0,0:0:0:0:
133,357,223620,1,8,1:0:0:0:
133,357,223714,6,0,P|137:324|130:278,1,65,0|0,1:0|0:0,0:0:0:0:
60,204,224089,1,0,3:0:0:0:
5,286,224276,1,0,0:0:0:0:
72,216,224464,2,0,P|76:151|41:95,1,130,8|0,1:0|0:0,0:0:0:0:
131,54,225026,1,0,0:0:0:0:
201,121,225214,6,0,B|238:126|238:126|294:115,2,86.6666666666667,8|2|4,1:1|1:3|1:2,0:0:0:0:
265,233,225964,2,0,B|300:228|300:228|351:238,2,86.6666666666667,4|2|4,1:3|1:3|1:2,0:0:0:0:
354,327,226714,6,0,P|377:325|405:317,2,48.750001859665,6|0|0,1:2|0:0|0:0,0:0:0:0:
292,366,227276,2,0,P|251:345|186:343,1,97.50000371933,2|0,0:0|0:0,0:0:0:0:
133,371,227839,2,0,P|120:350|112:311,1,48.750001859665,0|2,0:0|0:0,0:0:0:0:
156,268,228214,6,0,L|173:202,2,48.750001859665,0|0|0,0:0|0:0|0:0,0:0:0:0:
83,259,228776,2,0,P|66:239|51:205,1,48.750001859665,0|2,0:0|0:0,0:0:0:0:
61,146,229151,1,0,0:0:0:0:
61,146,229339,2,0,L|119:132,1,48.750001859665,0|2,0:0|0:0,0:0:0:0:
172,172,229714,6,0,L|236:176,2,48.750001859665,0|0|2,0:0|0:0|0:0,0:0:0:0:
225,257,230276,2,0,P|271:244|303:190,1,97.50000371933,0|2,0:0|0:0,0:0:0:0:
286,133,230839,1,0,0:0:0:0:
286,133,231026,1,2,0:0:0:0:
227,88,231214,6,0,L|176:96,1,48.750001859665,0|2,0:0|0:0,0:0:0:0:
118,137,231589,1,0,0:0:0:0:
107,144,231776,2,0,L|99:204,1,48.750001859665,0|2,0:0|0:0,0:0:0:0:
53,248,232151,1,0,0:0:0:0:
47,258,232339,2,0,L|58:327,1,48.750001859665,2|0,0:0|0:0,0:0:0:0:
116,345,232714,6,0,B|155:350|155:350|226:328,1,97.50000371933,2|0,0:0|0:0,0:0:0:0:
277,362,233276,1,2,0:0:0:0:
341,327,233464,2,0,P|349:304|353:280,1,48.750001859665,0|0,0:0|0:0,0:0:0:0:
288,245,233839,2,0,P|279:222|275:198,1,48.750001859665,2|0,0:0|0:0,0:0:0:0:
329,147,234214,6,0,L|382:154,2,48.750001859665,2|0|0,0:0|0:0|0:0,0:0:0:0:
271,102,234776,2,0,L|218:109,2,48.750001859665,2|0|0,0:0|0:0|0:0,0:0:0:0:
323,50,235339,1,0,0:0:0:0:
323,50,235526,1,2,0:0:0:0:
384,88,235714,6,0,P|381:140|348:190,1,97.50000371933,2|0,0:0|0:0,0:0:0:0:
290,201,236276,1,2,0:0:0:0:
290,201,236464,2,0,L|228:186,2,48.750001859665,2|0|0,0:0|0:0|0:0,0:0:0:0:
325,264,237026,1,2,0:0:0:0:
270,312,237214,6,0,L|214:321,2,48.750001859665,2|0|0,0:0|0:0|0:0,0:0:0:0:
330,352,237776,2,0,L|386:361,1,48.750001859665,2|2,0:0|0:0,0:0:0:0:
439,319,238151,1,2,0:0:0:0:
439,319,238339,2,0,P|439:295|435:267,1,48.750001859665,0|2,0:0|0:0,0:0:0:0:
365,183,238714,5,4,1:0:0:0:
