osu file format v13

[General]
AudioFilename: A Match Into Water.mp3
AudioLeadIn: 0
PreviewTime: 53922
Countdown: 0
SampleSet: Normal
StackLeniency: 0.7
Mode: 0
LetterboxInBreaks: 1
WidescreenStoryboard: 0

[Editor]
DistanceSpacing: 1.6
BeatDivisor: 4
GridSize: 4
TimelineZoom: 1.5

[Metadata]
Title:A Match Into Water
TitleUnicode:A Match Into Water
Artist:Pierce The Veil
ArtistUnicode:Pierce The Veil
Creator:Could This Be
Version:Extinguish
Source:
Tags:
BeatmapID:459535
BeatmapSetID:193405

[Difficulty]
HPDrainRate:8
CircleSize:4
OverallDifficulty:8
ApproachRate:9
SliderMultiplier:1.9
SliderTickRate:1

[Events]
//Background and Video events
0,0,"match.jpg",0,0
//Break Periods
2,78406,86407
2,147207,151305
//Storyboard Layer 0 (Background)
//Storyboard Layer 1 (Fail)
//Storyboard Layer 2 (Pass)
//Storyboard Layer 3 (Foreground)
//Storyboard Sound Samples
//Background Colour Transformations
3,100,163,162,255

[TimingPoints]
69,306.122448979592,4,2,0,60,1,0
4660,-100,4,2,0,5,0,0
4813,-100,4,2,0,100,0,0
8334,-100,4,1,0,100,0,0
9383,-66.6666666666667,4,1,0,100,0,0
19791,-133.333333333333,4,2,0,41,0,0
36781,-200,4,1,0,100,0,0
39230,-100,4,1,0,100,0,0
44128,-66.6666666666667,4,1,0,100,0,0
44303,-66.6666666666667,4,2,0,30,0,0
44456,-66.6666666666667,4,2,0,35,0,0
44609,-66.6666666666667,4,2,0,40,0,0
44762,-66.6666666666667,4,2,0,50,0,0
44762,-66.6666666666667,4,2,0,45,0,0
44915,-66.6666666666667,4,2,0,55,0,0
45069,-66.6666666666667,4,2,0,60,0,0
45222,-66.6666666666667,4,2,0,65,0,0
45375,-66.6666666666667,4,2,0,70,0,0
45528,-66.6666666666667,4,2,0,75,0,0
45681,-66.6666666666667,4,2,0,80,0,0
45834,-66.6666666666667,4,2,0,85,0,0
45987,-66.6666666666667,4,2,0,90,0,0
46140,-66.6666666666667,4,2,0,95,0,0
46293,-66.6666666666667,4,2,0,100,0,0
46752,-66.6666666666667,4,2,0,5,0,0
46905,-66.6666666666667,4,2,0,100,0,0
47058,-66.6666666666667,4,2,0,5,0,0
47211,-66.6666666666667,4,2,0,100,0,0
47364,-66.6666666666667,4,2,0,5,0,0
47517,-66.6666666666667,4,2,0,100,0,0
47671,-66.6666666666667,4,2,0,5,0,0
47824,-66.6666666666667,4,2,0,100,0,0
47977,-66.6666666666667,4,2,0,5,0,0
48130,-66.6666666666667,4,2,0,100,0,0
48283,-66.6666666666667,4,2,0,5,0,0
48436,-66.6666666666667,4,2,0,100,0,0
49048,-66.6666666666667,4,1,0,100,0,0
51473,-100,4,1,0,100,0,0
53924,-66.6666666666667,4,2,0,100,0,0
58973,-66.6666666666667,4,1,0,100,0,1
67262,-66.6666666666667,4,2,0,100,0,1
68181,-66.6666666666667,4,2,0,5,0,1
68257,-66.6666666666667,4,2,0,100,0,1
73691,-133.333333333333,4,1,0,100,0,1
74303,-100,4,1,0,100,0,1
74915,-80,4,1,0,100,0,1
78412,-66.6666666666667,4,1,0,100,0,0
94203,-133.333333333333,4,1,0,100,0,0
96345,-66.6666666666667,4,1,0,100,0,0
106575,-200,4,1,0,100,0,0
110249,-66.6666666666667,4,1,0,100,0,1
121294,-133.333333333333,4,1,0,100,0,1
124201,-66.6666666666667,4,1,0,100,0,0
146983,-66.6666666666667,4,1,0,100,0,0
151881,-200,4,1,0,100,0,0
153742,-200,4,1,0,100,0,0
173947,-66.6666666666667,4,1,0,100,0,0
175579,-200,4,1,0,100,0,0
176856,-100,4,1,0,100,0,0
188640,-66.6666666666667,4,1,0,100,0,0
191242,-100,4,1,0,100,0,0
191854,-80,4,1,0,100,0,0
192466,-66.6666666666667,4,1,0,100,0,0
205017,-133.333333333333,4,1,0,100,0,0

[Colours]
Combo1 : 0,157,0
Combo2 : 0,140,140
Combo3 : 174,0,174
Combo4 : 166,0,0

[HitObjects]
256,192,69,5,0,0:0:0:0:
128,40,222,2,0,B|104:40|72:48|52:68|40:92,1,95
184,72,528,2,0,B|160:72|128:80|108:100|96:124,1,95
384,344,834,2,0,B|408:344|440:336|460:316|472:292,1,95
328,312,1140,2,0,B|352:312|384:304|404:284|416:260,1,95
480,280,1446,6,0,L|480:176,1,95
36,96,1752,2,0,L|36:196,1,95
256,240,2058,2,0,L|256:136,1,95
148,260,2364,5,8,0:0:0:0:
256,72,2517,1,8,0:0:0:0:
60,160,2671,2,8,L|132:84,1,95
256,260,2977,2,10,L|256:160,1,95
448,324,3283,2,10,L|376:248,1,95
316,184,3589,5,12,0:0:0:0:
200,56,3742,1,8,0:0:0:0:
232,232,3895,1,12,0:0:0:0:
72,152,4048,1,8,0:0:0:0:
164,300,4201,6,4,B|252:340|364:192|184:160,1,285
220,32,4813,1,0,0:0:0:0:
292,352,4966,1,0,0:0:0:0:
452,44,5120,2,0,L|344:72,1,95
452,340,5426,2,0,L|344:312,1,95
456,72,5732,6,0,L|348:116,1,95
456,312,6038,2,0,L|348:268,1,95
456,96,6344,6,0,L|360:160,1,95
456,288,6650,2,0,L|360:224,1,95
64,192,6956,2,0,B|76:196|76:196|88:192|88:192|100:196|100:196|112:192|112:192|124:196|124:196|136:192|136:192|148:196|148:196|160:192,1,95
292,32,7262,5,8,0:0:0:0:
216,352,7415,1,8,0:0:0:0:
252,112,7569,2,0,P|264:56|304:40,1,95
304,160,7875,2,0,P|288:212|240:232,1,95
128,152,8181,2,0,P|156:88|188:72,1,95
72,60,8487,5,4,0:0:0:0:
348,320,8793,5,4,0:0:0:0:
68,308,9099,5,4,0:0:0:0:
348,48,9405,5,0,0:0:0:0:
396,64,9482,1,0,0:0:0:0:
432,100,9558,2,4,P|416:280|308:328,1,285.000010871888
312,252,10017,2,0,P|380:204|356:124,1,142.500005435944
292,56,10324,5,0,0:0:0:0:
164,76,10477,1,2,0:0:0:0:
324,172,10630,2,2,P|368:220|332:284,1,142.500005435944
160,320,10936,5,0,0:0:0:0:
140,316,11012,1,0,0:0:0:0:
124,300,11089,1,2,0:0:0:0:
68,160,11242,2,2,B|92:160|92:160|52:112|96:44,1,142.500005435944
208,116,11548,5,0,0:0:0:0:
352,88,11701,1,2,0:0:0:0:
288,228,11854,2,2,P|368:252|436:220,2,142.500005435944,0|0|0,0:0|0:0|0:0,0:0:0:0:
188,120,12313,1,2,0:0:0:0:
92,32,12466,2,2,P|44:84|48:180,1,142.500005435944
80,272,12773,5,0,0:0:0:0:
224,244,12926,1,2,0:0:0:0:
344,320,13079,2,2,P|416:292|440:220,2,142.500005435944,0|0|0,0:0|0:0|0:0,0:0:0:0:
308,172,13538,1,2,0:0:0:0:
256,32,13691,2,2,P|184:60|160:132,2,142.500005435944,0|0|0,0:0|0:0|0:0,0:0:0:0:
456,316,14303,5,0,0:0:0:0:
420,304,14380,1,0,0:0:0:0:
384,300,14456,1,0,0:0:0:0:
348,304,14533,1,0,0:0:0:0:
316,316,14609,1,0,0:0:0:0:
280,324,14686,1,0,0:0:0:0:
244,316,14762,2,0,P|184:272|156:196,1,142.500005435944
144,96,15069,1,4,0:0:0:0:
244,36,15222,1,0,0:0:0:0:
256,64,15298,1,0,0:0:0:0:
264,92,15375,1,0,0:0:0:0:
208,192,15528,5,8,0:0:0:0:
168,88,15681,1,4,0:0:0:0:
312,36,15834,1,0,0:0:0:0:
324,64,15910,1,0,0:0:0:0:
332,92,15987,1,0,0:0:0:0:
208,192,16140,5,8,0:0:0:0:
192,84,16293,1,4,0:0:0:0:
380,36,16446,1,0,0:0:0:0:
392,64,16523,1,0,0:0:0:0:
400,92,16599,1,0,0:0:0:0:
208,192,16752,5,8,0:0:0:0:
216,80,16905,1,4,0:0:0:0:
448,36,17058,1,0,0:0:0:0:
460,64,17135,1,0,0:0:0:0:
468,92,17211,2,0,B|496:160|496:160|440:208|472:256,1,142.500005435944
44,92,17517,6,0,B|16:160|16:160|72:208|40:256,1,142.500005435944
348,84,17824,1,0,0:0:0:0:
264,256,17977,1,0,0:0:0:0:
440,332,18130,1,0,0:0:0:0:
348,84,18283,5,4,0:0:0:0:
231,40,18589,2,4,B|251:76|251:76|147:116|123:200,1,213.750008153916
128,216,18895,2,4,B|96:224|96:224|144:328|316:300,1,285.000010871888
60,52,19354,2,0,B|88:68|88:68|116:52|116:52|144:68|144:68|172:52|172:52|200:72|200:72|224:52|224:52|248:72|248:72|272:52|272:52|296:72|296:72,1,285.000010871888,0|0,0:0|0:0,0:0:0:0:
456,56,19966,6,0,L|396:96,1,71.2500027179719
184,128,20273,2,8,L|256:80,1,71.2500027179719
440,148,20579,2,0,L|380:188,1,71.2500027179719
160,224,20885,2,8,L|232:176,1,71.2500027179719
420,240,21191,6,0,L|360:280,1,71.2500027179719
48,168,21497,2,8,L|120:120,1,71.2500027179719
400,324,21803,2,0,L|340:364,1,71.2500027179719
112,64,22109,2,8,L|200:52,1,71.2500027179719
312,332,22415,6,0,L|224:348,1,71.2500027179719
216,32,22722,2,8,L|304:48,1,71.2500027179719
192,336,23028,2,0,L|108:312,1,71.2500027179719
308,76,23334,6,8,L|376:120,1,71.2500027179719
120,300,23640,2,0,L|40:240,1,71.2500027179719
416,48,23946,6,8,L|432:128,1,71.2500027179719
136,244,24252,2,0,L|104:160,1,71.2500027179719
88,144,24558,1,8,0:0:0:0:
72,120,24711,1,8,0:0:0:0:
416,184,24864,1,12,0:0:0:0:
432,204,25017,1,0,0:0:0:0:
164,160,25171,5,4,0:0:0:0:
180,136,25324,1,0,0:0:0:0:
344,156,25477,1,4,0:0:0:0:
328,180,25630,1,0,0:0:0:0:
276,240,25783,5,4,0:0:0:0:
296,284,25936,1,0,0:0:0:0:
236,224,26089,5,4,0:0:0:0:
212,272,26242,1,0,0:0:0:0:
208,184,26395,5,4,0:0:0:0:
148,208,26548,1,0,0:0:0:0:
232,140,26701,5,4,0:0:0:0:
144,116,26854,1,0,0:0:0:0:
284,100,27007,5,4,0:0:0:0:
184,40,27160,1,0,0:0:0:0:
316,104,27313,5,8,0:0:0:0:
376,180,27466,1,8,0:0:0:0:
256,144,27620,1,8,0:0:0:0:
360,248,27773,1,8,0:0:0:0:
200,176,27926,1,8,0:0:0:0:
344,312,28079,1,8,0:0:0:0:
204,304,28232,2,2,L|144:248,1,71.2500027179719
312,304,28538,2,2,L|372:248,1,71.2500027179719
176,296,28844,6,2,L|116:240,1,71.2500027179719
336,296,29150,2,2,L|396:240,1,71.2500027179719
136,72,29456,6,0,L|56:44,1,71.2500027179719
376,72,29762,6,4,L|456:44,1,71.2500027179719
88,228,30069,2,0,L|44:156,1,71.2500027179719
424,228,30375,2,4,L|468:156,1,71.2500027179719
160,80,30681,2,0,L|244:32,1,71.2500027179719
224,312,30987,2,4,L|140:264,1,71.2500027179719
248,64,31293,2,0,L|328:92,1,71.2500027179719
360,268,31599,2,4,L|288:260,1,71.2500027179719
184,104,31905,2,0,L|136:24,1,71.2500027179719
304,104,32211,2,4,L|352:24,1,71.2500027179719
144,140,32517,2,0,L|96:60,1,71.2500027179719
368,140,32824,2,4,L|416:60,1,71.2500027179719
253,138,33130,5,8,0:0:0:0:
205,186,33283,1,0,0:0:0:0:
253,234,33436,1,4,0:0:0:0:
296,188,33589,1,0,0:0:0:0:
192,128,33742,5,8,0:0:0:0:
192,256,33895,1,0,0:0:0:0:
320,256,34048,1,4,0:0:0:0:
320,128,34201,1,0,0:0:0:0:
143,76,34354,5,2,0:0:0:0:
144,76,34507,1,0,0:0:0:0:
408,312,34660,1,2,0:0:0:0:
408,312,34813,1,0,0:0:0:0:
64,88,34966,5,2,0:0:0:0:
64,88,35120,1,0,0:0:0:0:
440,228,35273,1,2,0:0:0:0:
440,228,35426,1,0,0:0:0:0:
76,160,35579,5,2,0:0:0:0:
76,160,35732,1,0,0:0:0:0:
404,80,35885,1,2,0:0:0:0:
404,80,36038,1,0,0:0:0:0:
120,288,36191,5,2,0:0:0:0:
120,288,36344,1,2,0:0:0:0:
376,40,36497,1,2,0:0:0:0:
376,40,36650,1,2,0:0:0:0:
440,128,36803,2,4,B|252:152|180:160|172:184|668:188|540:272|444:328|364:336|324:376|252:408|196:216,1,736.25
192,200,39252,5,0,0:0:0:0:
60,212,39405,1,0,0:0:0:0:
144,124,39558,1,8,0:0:0:0:
192,104,39635,1,0,0:0:0:0:
240,124,39711,1,8,0:0:0:0:
360,172,39864,5,0,0:0:0:0:
444,296,40017,1,0,0:0:0:0:
312,300,40171,1,8,0:0:0:0:
268,280,40247,1,0,0:0:0:0:
224,300,40324,1,8,0:0:0:0:
132,328,40477,5,0,0:0:0:0:
88,344,40553,1,0,0:0:0:0:
48,320,40630,1,0,0:0:0:0:
36,276,40706,1,0,0:0:0:0:
60,236,40783,1,2,0:0:0:0:
96,204,40859,1,0,0:0:0:0:
128,168,40936,1,2,0:0:0:0:
120,120,41012,1,0,0:0:0:0:
96,80,41089,5,0,0:0:0:0:
64,48,41165,1,0,0:0:0:0:
108,60,41242,1,0,0:0:0:0:
156,68,41319,1,0,0:0:0:0:
204,56,41395,1,2,0:0:0:0:
248,40,41472,1,0,0:0:0:0:
292,52,41548,1,2,0:0:0:0:
328,84,41625,1,0,0:0:0:0:
368,108,41701,5,0,0:0:0:0:
412,88,41778,1,0,0:0:0:0:
444,52,41854,1,0,0:0:0:0:
432,284,42007,1,8,0:0:0:0:
388,304,42084,1,0,0:0:0:0:
340,300,42160,1,8,0:0:0:0:
244,248,42313,6,0,L|244:136,1,95
132,272,42620,1,8,0:0:0:0:
88,252,42696,1,0,0:0:0:0:
64,212,42773,1,8,0:0:0:0:
44,84,42926,5,0,0:0:0:0:
244,236,43079,1,0,0:0:0:0:
156,76,43232,1,8,0:0:0:0:
204,84,43308,1,0,0:0:0:0:
232,124,43385,1,8,0:0:0:0:
252,216,43538,5,0,0:0:0:0:
308,328,43691,1,0,0:0:0:0:
416,268,43844,1,8,0:0:0:0:
444,228,43921,1,0,0:0:0:0:
452,180,43997,1,8,0:0:0:0:
440,136,44074,1,0,0:0:0:0:
416,100,44150,1,0,0:0:0:0:
364,44,44303,5,2,0:0:0:0:
376,160,44456,1,2,0:0:0:0:
304,36,44609,5,2,0:0:0:0:
332,220,44762,1,2,0:0:0:0:
240,24,44915,5,10,0:0:0:0:
288,280,45069,1,10,0:0:0:0:
176,12,45222,5,10,0:0:0:0:
248,336,45375,1,10,0:0:0:0:
112,4,45528,5,10,0:0:0:0:
56,128,45681,1,10,0:0:0:0:
200,64,45834,1,10,0:0:0:0:
136,204,45987,5,10,0:0:0:0:
288,136,46140,1,10,0:0:0:0:
228,284,46293,5,10,0:0:0:0:
368,216,46446,1,10,0:0:0:0:
172,344,46599,2,4,L|76:228,1,142.500005435944
340,40,46905,2,4,L|424:160,1,142.500005435944
256,340,47211,6,4,L|120:280,1,142.500005435944
256,40,47517,2,4,L|392:108,1,142.500005435944
336,340,47824,2,4,L|196:304,1,142.500005435944
180,40,48130,2,4,L|324:68,1,142.500005435944
428,316,48436,6,4,B|404:288|404:288|380:352|380:352|332:244|332:244|276:328|276:328|224:168,1,427.500016307831
368,128,49048,1,8,0:0:0:0:
240,192,49201,2,0,L|380:240,1,142.500005435944
464,264,49507,1,8,0:0:0:0:
320,72,49660,2,0,L|408:188,1,142.500005435944,0|0,0:0|0:0,0:0:0:0:
152,84,49966,5,8,0:0:0:0:
184,304,50120,1,8,0:0:0:0:
332,112,50273,2,2,B|280:160|280:160|368:236,1,142.500005435944
376,336,50579,1,8,0:0:0:0:
332,348,50655,1,0,0:0:0:0:
288,336,50732,1,8,0:0:0:0:
220,164,50885,2,0,B|232:196|232:196|196:236|196:236|240:280|240:280|228:296|228:296|200:320,1,142.500005435944
168,340,51191,1,8,0:0:0:0:
124,348,51267,1,0,0:0:0:0:
80,336,51344,1,8,0:0:0:0:
28,272,51497,5,0,0:0:0:0:
128,196,51650,2,4,P|132:96|72:36,1,190
28,272,52109,5,0,0:0:0:0:
224,116,52262,2,4,P|324:112|384:172,1,190
28,272,52722,5,0,0:0:0:0:
316,200,52875,2,4,P|416:204|476:144,1,190
28,272,53334,5,0,0:0:0:0:
315,132,53487,2,4,P|253:52|169:45,1,190
184,128,53946,5,4,0:0:0:0:
356,48,54099,2,0,P|436:104|444:164,1,142.500005435944
360,296,54405,1,8,0:0:0:0:
164,312,54558,1,6,0:0:0:0:
44,176,54711,2,0,P|84:80|152:36,1,142.500005435944
312,40,55017,5,8,0:0:0:0:
416,236,55171,1,6,0:0:0:0:
218,330,55324,2,0,P|317:315|363:262,1,142.500005435944
308,48,55630,1,8,0:0:0:0:
104,68,55783,1,6,0:0:0:0:
76,260,55936,2,0,P|132:328|224:328,1,142.500005435944
392,296,56242,1,8,0:0:0:0:
444,108,56395,5,2,0:0:0:0:
416,76,56472,1,0,0:0:0:0:
380,52,56548,1,0,0:0:0:0:
340,44,56625,1,0,0:0:0:0:
296,44,56701,1,0,0:0:0:0:
264,72,56778,1,0,0:0:0:0:
248,112,56854,1,0,0:0:0:0:
248,156,56931,1,0,0:0:0:0:
264,196,57007,5,0,0:0:0:0:
280,236,57084,1,0,0:0:0:0:
268,276,57160,1,0,0:0:0:0:
236,304,57237,1,0,0:0:0:0:
196,316,57313,1,0,0:0:0:0:
156,300,57390,1,0,0:0:0:0:
128,268,57466,1,0,0:0:0:0:
120,224,57543,1,0,0:0:0:0:
132,184,57620,5,0,0:0:0:0:
164,156,57696,1,0,0:0:0:0:
208,148,57773,1,0,0:0:0:0:
248,160,57849,1,0,0:0:0:0:
284,184,57926,1,0,0:0:0:0:
308,220,58002,1,0,0:0:0:0:
324,260,58079,1,0,0:0:0:0:
348,296,58155,1,0,0:0:0:0:
384,320,58232,5,0,0:0:0:0:
468,216,58385,1,0,0:0:0:0:
376,96,58538,2,0,B|320:52|308:60|296:80|292:100|296:128|336:172|304:220|248:240|192:216|184:200|168:192|164:196,1,285.000010871888,0|0,0:0|0:0,0:0:0:0:
64,204,58997,5,8,0:0:0:0:
156,60,59150,1,0,0:0:0:0:
256,200,59303,1,8,0:0:0:0:
356,60,59456,1,0,0:0:0:0:
448,204,59609,1,8,0:0:0:0:
256,312,59762,5,0,0:0:0:0:
220,156,59915,2,8,P|78:125|64:92,1,142.500005435944,0|0,0:0|0:0,0:0:0:0:
292,156,60222,2,8,P|433:125|448:92,1,142.500005435944,0|0,0:0|0:0,0:0:0:0:
88,196,60528,2,8,P|229:165|244:132,1,142.500005435944,0|0,0:0|0:0,0:0:0:0:
424,128,60834,2,0,B|276:192|276:192|360:196|384:192|404:192|420:204|424:220|420:244|328:300,1,427.500016307831
132,276,61446,5,0,0:0:0:0:
248,48,61599,1,0,0:0:0:0:
276,180,61752,1,0,0:0:0:0:
120,152,61905,1,0,0:0:0:0:
252,304,62058,2,0,L|376:208,1,142.500005435944
240,144,62364,2,0,L|328:284,1,142.500005435944
372,44,62671,2,0,B|368:92|364:104|352:112|344:116|352:124|364:128|372:136|380:184,1,142.500005435944
472,164,62977,2,0,B|476:212|480:224|492:232|500:236|492:244|480:248|472:256|464:304,1,142.500005435944
388,212,63283,5,4,0:0:0:0:
340,200,63359,1,0,0:0:0:0:
296,172,63436,1,0,0:0:0:0:
256,144,63512,1,0,0:0:0:0:
216,172,63589,1,0,0:0:0:0:
172,200,63665,1,0,0:0:0:0:
124,212,63742,1,4,0:0:0:0:
312,252,63895,5,0,0:0:0:0:
428,148,64048,1,0,0:0:0:0:
280,100,64201,1,0,0:0:0:0:
312,252,64354,1,0,0:0:0:0:
408,128,64507,1,0,0:0:0:0:
256,84,64660,1,0,0:0:0:0:
248,252,64813,2,0,B|264:292|312:300|296:332|408:328,1,142.500005435944
132,220,65120,2,0,B|136:262|180:283|156:310|264:337,1,142.500005435944
48,124,65426,2,0,B|83:148|127:129|131:164|223:100,1,142.500005435944
412,44,65732,5,2,0:0:0:0:
392,92,65808,1,0,0:0:0:0:
412,140,65885,1,0,0:0:0:0:
396,188,65961,1,0,0:0:0:0:
420,232,66038,1,0,0:0:0:0:
396,276,66114,1,0,0:0:0:0:
420,320,66191,1,2,0:0:0:0:
332,352,66344,5,4,0:0:0:0:
368,276,66497,1,0,0:0:0:0:
232,300,66650,1,0,0:0:0:0:
404,192,66803,1,0,0:0:0:0:
128,248,66956,1,0,0:0:0:0:
440,100,67109,1,0,0:0:0:0:
32,176,67262,1,4,0:0:0:0:
440,100,67569,1,4,0:0:0:0:
32,176,67875,6,4,B|88:108|88:108|124:172|164:204|220:208|260:200|260:192|272:188|272:188|304:164,1,285.000010871888
292,172,68257,1,8,0:0:0:0:
340,180,68334,1,0,0:0:0:0:
372,220,68410,1,0,0:0:0:0:
368,268,68487,1,0,0:0:0:0:
332,300,68563,1,0,0:0:0:0:
284,308,68640,1,8,0:0:0:0:
164,232,68793,5,0,0:0:0:0:
324,224,68946,1,0,0:0:0:0:
416,100,69099,2,0,B|380:32|368:40|356:32|332:128|300:136|272:120|276:100,1,142.500005435944
188,80,69405,5,0,0:0:0:0:
36,152,69558,1,0,0:0:0:0:
220,144,69711,2,0,B|276:140|296:108|296:108|336:152,1,142.500005435944
440,152,70017,5,0,0:0:0:0:
224,212,70171,1,0,0:0:0:0:
432,296,70324,2,0,B|376:292|356:260|356:260|316:304,1,142.500005435944
192,200,70630,2,0,L|48:268,1,142.500005435944
272,304,70936,1,0,0:0:0:0:
464,320,71089,6,4,P|492:212|464:128,1,142.500005435944
456,44,71395,1,0,0:0:0:0:
256,192,71548,1,0,0:0:0:0:
48,320,71701,2,4,P|20:212|48:128,1,142.500005435944
56,44,72007,1,0,0:0:0:0:
256,116,72160,1,0,0:0:0:0:
456,44,72313,6,4,P|348:16|264:44,1,142.500005435944
176,32,72620,1,8,0:0:0:0:
176,200,72773,1,8,0:0:0:0:
104,128,72926,1,8,0:0:0:0:
104,300,73079,2,8,B|176:336|232:340|324:332|388:288|364:288,1,213.750008153916
356,296,73385,1,4,0:0:0:0:
168,216,73691,5,0,0:0:0:0:
276,248,73844,1,2,0:0:0:0:
344,156,73997,2,0,P|378:130|372:88,1,71.2500027179719
136,252,74303,5,0,0:0:0:0:
288,300,74456,1,2,0:0:0:0:
388,172,74609,2,0,P|437:140|432:80,1,95
100,292,74915,5,0,0:0:0:0:
296,352,75069,1,2,0:0:0:0:
432,184,75222,2,0,P|418:117|336:72,1,118.75
56,52,75528,2,0,B|116:24|128:40|148:24|164:72|176:28|260:176,1,237.5
148,172,75987,5,0,0:0:0:0:
64,284,76140,1,0,0:0:0:0:
200,328,76293,1,0,0:0:0:0:
332,276,76446,1,0,0:0:0:0:
304,144,76599,1,0,0:0:0:0:
424,180,76752,1,0,0:0:0:0:
408,44,76905,1,0,0:0:0:0:
284,40,77058,6,0,B|196:100|176:140|176:196|176:220,1,178.125
160,248,77364,6,0,B|255:294|300:291|349:263|369:251,1,178.125
400,248,77671,6,0,B|392:141|367:104|318:76|298:64,1,178.125
284,40,77977,6,0,B|196:100|176:140|176:196|176:220,1,178.125
400,112,87007,5,0,0:0:0:0:
448,248,87160,1,0,0:0:0:0:
408,268,87237,1,0,0:0:0:0:
372,296,87313,1,0,0:0:0:0:
340,328,87390,1,0,0:0:0:0:
300,308,87466,1,0,0:0:0:0:
268,288,87543,1,0,0:0:0:0:
228,268,87620,1,0,0:0:0:0:
184,268,87696,5,0,0:0:0:0:
148,292,87773,1,0,0:0:0:0:
116,316,87849,1,0,0:0:0:0:
80,328,87926,1,0,0:0:0:0:
104,300,88002,1,0,0:0:0:0:
128,264,88079,1,0,0:0:0:0:
128,220,88155,1,0,0:0:0:0:
108,180,88232,1,0,0:0:0:0:
88,64,88385,5,0,0:0:0:0:
200,96,88538,1,0,0:0:0:0:
236,104,88614,1,0,0:0:0:0:
276,88,88691,1,0,0:0:0:0:
400,64,88844,1,0,0:0:0:0:
460,176,88997,1,0,0:0:0:0:
400,288,89150,1,0,0:0:0:0:
368,304,89227,1,0,0:0:0:0:
328,292,89303,1,0,0:0:0:0:
292,164,89456,5,0,0:0:0:0:
216,260,89609,1,0,0:0:0:0:
160,180,89762,1,0,0:0:0:0:
128,168,89839,1,0,0:0:0:0:
92,180,89915,1,0,0:0:0:0:
68,72,90069,1,0,0:0:0:0:
192,36,90222,1,0,0:0:0:0:
296,88,90375,1,0,0:0:0:0:
308,124,90451,1,0,0:0:0:0:
288,156,90528,1,0,0:0:0:0:
72,184,90681,5,0,0:0:0:0:
148,288,90834,1,0,0:0:0:0:
200,144,90987,1,0,0:0:0:0:
92,208,91140,1,0,0:0:0:0:
188,312,91293,1,0,0:0:0:0:
328,320,91446,1,0,0:0:0:0:
416,248,91599,1,0,0:0:0:0:
424,224,91676,1,0,0:0:0:0:
436,196,91752,1,0,0:0:0:0:
472,64,91905,5,0,0:0:0:0:
428,40,91982,1,0,0:0:0:0:
380,32,92058,1,0,0:0:0:0:
332,48,92135,1,0,0:0:0:0:
304,88,92211,1,0,0:0:0:0:
260,112,92288,1,0,0:0:0:0:
216,92,92364,1,0,0:0:0:0:
176,64,92441,1,0,0:0:0:0:
128,48,92517,1,0,0:0:0:0:
80,56,92594,1,0,0:0:0:0:
48,92,92671,1,0,0:0:0:0:
140,148,92824,6,0,B|100:172|68:168|68:168|92:208|44:284,1,142.500005435944
128,292,93130,1,0,0:0:0:0:
156,272,93206,1,0,0:0:0:0:
176,244,93283,1,0,0:0:0:0:
264,196,93436,1,0,0:0:0:0:
264,308,93589,1,0,0:0:0:0:
384,304,93742,5,0,0:0:0:0:
408,280,93819,1,0,0:0:0:0:
416,248,93895,1,0,0:0:0:0:
420,56,94048,5,0,0:0:0:0:
320,136,94201,1,0,0:0:0:0:
188,132,94354,2,0,L|152:132,2,35.625001358986,0|0|0,0:0|0:0|0:0,0:0:0:0:
392,64,94660,6,0,L|448:64,2,35.625001358986,0|0|0,0:0|0:0|0:0,0:0:0:0:
136,328,94966,6,0,L|80:328,2,35.625001358986,0|0|0,0:0|0:0|0:0,0:0:0:0:
384,324,95273,6,0,L|444:324,2,35.625001358986,0|0|0,0:0|0:0|0:0,0:0:0:0:
148,40,95579,5,0,0:0:0:0:
40,120,95732,1,0,0:0:0:0:
164,164,95885,1,0,0:0:0:0:
196,48,96038,5,0,0:0:0:0:
52,176,96191,1,0,0:0:0:0:
224,232,96344,1,0,0:0:0:0:
396,68,96497,2,0,B|424:108|424:148|392:212,1,142.500005435944
40,120,96803,1,0,0:0:0:0:
148,40,96956,1,0,0:0:0:0:
164,164,97109,1,0,0:0:0:0:
52,176,97262,5,0,0:0:0:0:
196,48,97415,1,0,0:0:0:0:
224,232,97569,1,0,0:0:0:0:
400,204,97722,2,0,B|424:148|416:108|392:64,1,142.500005435944
44,320,98028,6,0,B|116:284|172:272|236:288|300:324|360:352|436:352|484:304|488:272|488:240|488:232|488:176|468:172,1,498.750019025803
484,188,98640,6,0,B|456:112|432:96|384:80|328:100|304:152|296:196|268:224|216:224|148:224|128:192|104:144|200:32|112:72|108:88|228:72|144:36|212:24,1,498.750019025803,0|0,0:0|0:0,0:0:0:0:
184,52,99252,6,0,B|244:48|232:76|236:104|264:104|296:72|264:200|252:240|272:280|312:288|348:400|456:296|472:280|476:248|464:192,1,498.750019025803
468,196,99864,6,0,B|456:120|440:100|408:88|364:84|244:292|200:316|136:300|92:208,1,498.750019025803
80,288,100477,5,0,0:0:0:0:
140,160,100630,1,0,0:0:0:0:
296,84,100783,2,0,L|204:208,1,142.500005435944
364,172,101089,1,0,0:0:0:0:
312,292,101242,1,0,0:0:0:0:
128,236,101395,2,0,B|100:220|80:196|68:164|56:120|60:76,1,142.500005435944
304,40,101701,5,0,0:0:0:0:
108,128,101854,1,0,0:0:0:0:
112,304,102007,2,0,P|196:336|280:312,1,142.500005435944
400,196,102313,1,0,0:0:0:0:
208,40,102466,1,0,0:0:0:0:
252,220,102620,2,0,P|157:240|89:185,1,142.500005435944
300,132,102926,5,0,0:0:0:0:
344,264,103079,1,0,0:0:0:0:
420,96,103232,2,0,L|436:168,1,71.2500027179719
452,232,103385,1,0,0:0:0:0:
212,132,103538,5,0,0:0:0:0:
168,264,103691,1,0,0:0:0:0:
92,96,103844,2,0,L|72:180,1,71.2500027179719
60,232,103997,1,0,0:0:0:0:
144,340,104150,2,0,P|224:320|276:272,1,142.500005435944
340,164,104456,1,0,0:0:0:0:
244,52,104609,1,0,0:0:0:0:
188,212,104762,2,0,P|268:280|348:296,1,142.500005435944
440,308,105069,5,0,0:0:0:0:
360,180,105222,1,0,0:0:0:0:
436,56,105375,2,0,P|345:46|253:76,1,142.500005435944
76,328,105681,2,0,P|167:338|259:308,1,142.500005435944
432,56,105987,6,0,P|341:66|258:116,1,142.500005435944
80,328,106293,6,0,P|170:317|253:267,1,142.500005435944
208,116,106599,6,0,P|280:100|320:108,1,95
304,268,107211,2,0,P|232:284|192:276,1,95,0|0,0:0|0:0,0:0:0:0:
380,320,110273,6,0,B|360:280|356:268|344:256|332:240|308:236|280:232|252:232|232:248|224:264|200:288|200:312|184:320|168:328|132:336|108:336|80:328|64:316|40:296|32:272|24:240|24:200|24:168|40:132|44:104|64:88|92:76|120:64|152:60|176:60|208:76|224:76|232:96|232:116|268:120|344:212|228:308|136:284|80:300|108:256|80:212|52:108|108:68|124:8|208:-16|212:92|224:80|240:72|268:64|296:56|312:48|340:40|352:36|384:40|396:44|408:48|420:48|424:48|428:48|440:60|444:72|452:88|456:100|460:120|460:132|464:104|464:104,1,1140.00004348755
460,148,111574,1,0,0:0:0:0:
448,180,111650,1,0,0:0:0:0:
416,200,111727,1,0,0:0:0:0:
380,196,111803,1,0,0:0:0:0:
356,168,111880,1,0,0:0:0:0:
340,200,111956,5,0,0:0:0:0:
320,228,112033,1,0,0:0:0:0:
284,236,112109,1,0,0:0:0:0:
256,216,112186,1,0,0:0:0:0:
240,184,112262,1,0,0:0:0:0:
220,216,112339,5,0,0:0:0:0:
196,240,112415,1,0,0:0:0:0:
160,236,112492,1,0,0:0:0:0:
136,208,112569,1,0,0:0:0:0:
132,172,112645,1,0,0:0:0:0:
148,140,112722,1,0,0:0:0:0:
104,328,112875,2,0,L|232:256,1,142.500005435944
392,160,113181,2,0,L|264:88,1,142.500005435944
104,112,113487,2,0,L|240:200,1,142.500005435944
352,184,113793,2,0,L|448:64,1,142.500005435944
152,88,114099,2,0,B|120:69|120:69|90:99|90:99|52:68|52:68|45:100,1,142.500005435944
360,88,114405,2,0,B|392:69|392:69|422:99|422:99|460:68|460:68|467:100,1,142.500005435944
152,88,114711,2,0,B|112:56|112:56|80:104|80:104|56:80,2,142.500005435944,0|0|0,0:0|0:0|0:0,0:0:0:0:
264,208,115171,1,0,0:0:0:0:
408,120,115324,5,0,0:0:0:0:
432,192,115477,1,0,0:0:0:0:
344,88,115630,1,0,0:0:0:0:
392,264,115783,1,0,0:0:0:0:
272,64,115936,5,0,0:0:0:0:
352,328,116089,1,0,0:0:0:0:
200,56,116242,1,0,0:0:0:0:
96,312,116548,1,0,0:0:0:0:
200,40,116854,6,0,B|288:64|288:64|304:204|304:204|368:160|368:160,1,285.000010871888
408,184,117237,1,0,0:0:0:0:
432,232,117313,1,0,0:0:0:0:
416,280,117390,1,0,0:0:0:0:
384,312,117466,1,0,0:0:0:0:
336,320,117543,1,0,0:0:0:0:
288,312,117620,1,0,0:0:0:0:
200,208,117773,5,0,0:0:0:0:
280,96,117926,1,0,0:0:0:0:
128,64,118079,2,0,B|88:72|88:72|136:176,1,142.500005435944
248,48,118385,1,0,0:0:0:0:
296,176,118538,1,0,0:0:0:0:
424,104,118691,2,0,B|424:144|424:144|408:176|408:176|368:176|368:176|336:152,1,142.500005435944
232,272,118997,5,0,0:0:0:0:
160,152,119150,1,0,0:0:0:0:
56,248,119303,2,0,P|88:312|168:336,1,142.500005435944
168,152,119609,2,0,P|96:136|72:56,1,142.500005435944
248,56,119915,1,0,0:0:0:0:
432,40,120069,2,0,P|472:120|472:176,1,142.500005435944
456,328,120375,5,0,0:0:0:0:
256,192,120528,1,0,0:0:0:0:
80,40,120681,2,0,P|40:120|40:176,1,142.500005435944
56,328,120987,1,0,0:0:0:0:
136,168,121140,1,0,0:0:0:0:
288,256,121293,1,0,0:0:0:0:
384,136,121446,2,0,L|420:92,2,35.625001358986,0|0|0,0:0|0:0|0:0,0:0:0:0:
232,304,121752,6,0,L|200:344,2,35.625001358986,0|0|0,0:0|0:0|0:0,0:0:0:0:
144,88,122058,6,0,L|184:40,2,35.625001358986,0|0|0,0:0|0:0|0:0,0:0:0:0:
56,328,122364,1,0,0:0:0:0:
84,288,122671,5,0,0:0:0:0:
200,144,122824,1,0,0:0:0:0:
376,252,122977,2,0,P|400:212|380:180,1,71.2500027179719
312,48,123283,5,0,0:0:0:0:
128,172,123436,1,0,0:0:0:0:
312,288,123589,2,0,P|352:256|340:220,1,71.2500027179719
312,96,123895,1,0,0:0:0:0:
248,296,124048,1,0,0:0:0:0:
68,240,124201,2,0,P|44:168|84:108,1,142.500005435944
120,96,124507,6,0,B|152:112|192:184|192:184|144:272|96:296,1,213.750008153916
112,296,124813,1,0,0:0:0:0:
144,336,124890,1,0,0:0:0:0:
192,336,124966,1,0,0:0:0:0:
232,312,125043,1,0,0:0:0:0:
256,264,125120,1,0,0:0:0:0:
248,216,125196,1,0,0:0:0:0:
224,176,125273,1,0,0:0:0:0:
208,128,125349,5,0,0:0:0:0:
240,88,125426,1,0,0:0:0:0:
288,88,125502,1,0,0:0:0:0:
320,120,125579,1,0,0:0:0:0:
328,168,125655,1,0,0:0:0:0:
320,216,125732,1,0,0:0:0:0:
328,264,125808,1,0,0:0:0:0:
360,304,125885,1,0,0:0:0:0:
448,240,126038,1,0,0:0:0:0:
400,144,126191,5,0,0:0:0:0:
160,48,126395,1,0,0:0:0:0:
192,280,126599,1,0,0:0:0:0:
400,144,126803,1,0,0:0:0:0:
160,40,127415,5,0,0:0:0:0:
136,64,127492,1,0,0:0:0:0:
128,88,127569,1,0,0:0:0:0:
120,120,127645,1,0,0:0:0:0:
120,152,127722,1,0,0:0:0:0:
120,184,127798,1,0,0:0:0:0:
128,216,127875,1,0,0:0:0:0:
136,240,127951,1,0,0:0:0:0:
152,264,128028,1,0,0:0:0:0:
176,280,128104,5,0,0:0:0:0:
200,288,128181,1,0,0:0:0:0:
224,296,128257,1,0,0:0:0:0:
256,296,128334,1,0,0:0:0:0:
288,296,128410,1,0,0:0:0:0:
320,296,128487,1,0,0:0:0:0:
344,288,128563,1,0,0:0:0:0:
376,272,128640,1,0,0:0:0:0:
400,248,128716,5,0,0:0:0:0:
424,216,128793,1,0,0:0:0:0:
440,184,128870,1,0,0:0:0:0:
448,152,128946,1,0,0:0:0:0:
440,120,129023,1,0,0:0:0:0:
416,96,129099,1,0,0:0:0:0:
384,96,129176,1,0,0:0:0:0:
352,112,129252,1,0,0:0:0:0:
336,144,129329,5,0,0:0:0:0:
304,160,129405,1,0,0:0:0:0:
272,152,129482,1,0,0:0:0:0:
256,120,129558,1,0,0:0:0:0:
280,88,129635,1,0,0:0:0:0:
312,64,129711,1,0,0:0:0:0:
328,32,129788,1,0,0:0:0:0:
288,56,129864,1,0,0:0:0:0:
256,56,129941,5,0,0:0:0:0:
224,64,130017,1,0,0:0:0:0:
192,80,130094,1,0,0:0:0:0:
160,88,130171,1,0,0:0:0:0:
128,88,130247,1,0,0:0:0:0:
96,80,130324,1,0,0:0:0:0:
64,80,130400,5,0,0:0:0:0:
40,104,130477,1,0,0:0:0:0:
32,136,130553,1,0,0:0:0:0:
32,168,130630,1,0,0:0:0:0:
48,200,130706,1,0,0:0:0:0:
72,224,130783,1,0,0:0:0:0:
104,240,130859,1,0,0:0:0:0:
136,240,130936,1,0,0:0:0:0:
168,232,131012,5,0,0:0:0:0:
200,208,131089,1,0,0:0:0:0:
232,184,131165,1,0,0:0:0:0:
264,168,131242,1,0,0:0:0:0:
296,168,131319,1,0,0:0:0:0:
328,184,131395,1,0,0:0:0:0:
344,216,131472,1,0,0:0:0:0:
344,248,131548,1,0,0:0:0:0:
328,280,131625,5,0,0:0:0:0:
296,288,131701,1,0,0:0:0:0:
264,288,131778,1,0,0:0:0:0:
232,280,131854,1,0,0:0:0:0:
208,256,131931,1,0,0:0:0:0:
192,224,132007,1,0,0:0:0:0:
184,192,132084,1,0,0:0:0:0:
192,160,132160,1,0,0:0:0:0:
200,128,132237,5,0,0:0:0:0:
224,104,132313,1,0,0:0:0:0:
256,88,132390,1,0,0:0:0:0:
288,88,132466,1,0,0:0:0:0:
320,96,132543,1,0,0:0:0:0:
352,112,132620,1,0,0:0:0:0:
368,144,132696,1,0,0:0:0:0:
368,176,132773,1,0,0:0:0:0:
352,208,132849,5,0,0:0:0:0:
320,224,132926,1,0,0:0:0:0:
288,224,133002,1,0,0:0:0:0:
256,216,133079,1,0,0:0:0:0:
224,192,133155,1,0,0:0:0:0:
208,160,133232,1,0,0:0:0:0:
200,128,133308,1,0,0:0:0:0:
184,96,133385,1,0,0:0:0:0:
160,72,133461,5,0,0:0:0:0:
128,56,133538,1,0,0:0:0:0:
96,64,133614,1,0,0:0:0:0:
72,88,133691,1,0,0:0:0:0:
48,120,133767,1,0,0:0:0:0:
40,152,133844,1,0,0:0:0:0:
48,184,133921,1,0,0:0:0:0:
72,216,133997,1,0,0:0:0:0:
104,240,134074,5,0,0:0:0:0:
136,256,134150,1,0,0:0:0:0:
168,264,134227,1,0,0:0:0:0:
200,248,134303,1,0,0:0:0:0:
232,224,134380,1,0,0:0:0:0:
256,200,134456,1,0,0:0:0:0:
272,168,134533,1,0,0:0:0:0:
280,136,134609,1,0,0:0:0:0:
288,104,134686,5,0,0:0:0:0:
312,80,134762,1,0,0:0:0:0:
344,64,134839,1,0,0:0:0:0:
376,64,134915,1,0,0:0:0:0:
408,80,134992,1,0,0:0:0:0:
440,104,135069,1,0,0:0:0:0:
456,136,135145,1,0,0:0:0:0:
464,168,135222,1,0,0:0:0:0:
456,200,135298,5,0,0:0:0:0:
440,232,135375,1,0,0:0:0:0:
416,256,135451,1,0,0:0:0:0:
384,272,135528,1,0,0:0:0:0:
352,280,135604,1,0,0:0:0:0:
320,288,135681,1,0,0:0:0:0:
288,288,135757,1,0,0:0:0:0:
256,272,135834,1,0,0:0:0:0:
224,256,135910,5,0,0:0:0:0:
200,224,135987,1,0,0:0:0:0:
192,192,136063,1,0,0:0:0:0:
192,160,136140,1,0,0:0:0:0:
208,128,136216,1,0,0:0:0:0:
232,104,136293,1,0,0:0:0:0:
264,88,136370,1,0,0:0:0:0:
296,80,136446,1,0,0:0:0:0:
328,96,136523,5,0,0:0:0:0:
352,128,136599,1,0,0:0:0:0:
344,160,136676,1,0,0:0:0:0:
312,176,136752,1,0,0:0:0:0:
280,176,136829,1,0,0:0:0:0:
256,152,136905,1,0,0:0:0:0:
256,120,136982,1,0,0:0:0:0:
288,104,137058,1,0,0:0:0:0:
312,48,137211,6,0,L|176:136,1,142.500005435944
72,96,137517,1,0,0:0:0:0:
344,128,137671,2,0,L|224:224,1,142.500005435944
88,224,137977,5,0,0:0:0:0:
368,208,138130,2,0,L|248:304,1,142.500005435944
88,160,138436,2,0,L|208:56,1,142.500005435944
416,96,138742,1,0,0:0:0:0:
128,240,138895,6,0,L|248:136,1,142.500005435944
440,128,139201,1,0,0:0:0:0:
168,160,139354,2,0,L|288:56,1,142.500005435944
456,224,139660,2,0,L|344:336,1,142.500005435944
168,160,139966,1,0,0:0:0:0:
392,152,140120,6,0,L|312:272,1,142.500005435944
452,56,140426,1,0,0:0:0:0:
280,152,140579,2,0,L|192:280,1,142.500005435944
88,336,140885,5,0,0:0:0:0:
112,296,140961,1,0,0:0:0:0:
88,256,141038,1,0,0:0:0:0:
112,216,141114,1,0,0:0:0:0:
88,168,141191,1,0,0:0:0:0:
112,128,141267,1,0,0:0:0:0:
88,88,141344,1,0,0:0:0:0:
112,56,141421,1,0,0:0:0:0:
148,40,141497,5,0,0:0:0:0:
420,148,141727,5,0,0:0:0:0:
200,312,141956,5,0,0:0:0:0:
344,260,142109,2,0,L|440:148,1,142.500005435944
428,320,142415,1,0,0:0:0:0:
264,240,142569,2,0,L|360:128,1,142.500005435944
324,320,142875,1,0,0:0:0:0:
188,216,143028,2,0,L|284:104,1,142.500005435944
160,40,143334,6,0,L|52:168,1,142.500005435944
300,224,143640,1,0,0:0:0:0:
288,48,143793,2,0,L|180:176,1,142.500005435944
436,224,144099,1,0,0:0:0:0:
416,56,144252,2,0,L|308:184,1,142.500005435944
416,220,144558,5,0,0:0:0:0:
452,328,144711,1,0,0:0:0:0:
340,296,144864,2,0,P|374:215|436:236,1,142.500005435944
96,164,145171,1,0,0:0:0:0:
60,56,145324,1,0,0:0:0:0:
172,88,145477,2,0,P|137:168|75:147,1,142.500005435944
52,192,145783,5,0,0:0:0:0:
456,192,145936,1,0,0:0:0:0:
132,232,146089,1,0,0:0:0:0:
380,152,146242,1,0,0:0:0:0:
192,292,146395,1,0,0:0:0:0:
320,92,146548,1,0,0:0:0:0:
256,336,146701,1,0,0:0:0:0:
256,48,146854,1,0,0:0:0:0:
256,192,147007,1,0,0:0:0:0:
200,48,151905,6,0,L|244:88,1,47.5
120,300,152211,2,0,L|180:292,1,47.5
260,120,152517,2,0,L|296:160,1,47.5
208,288,152824,2,0,L|272:276,1,47.5
372,256,153130,5,0,0:0:0:0:
372,256,153742,5,0,0:0:0:0:
448,48,154354,5,0,0:0:0:0:
372,48,154507,2,0,L|384:80,1,23.75
392,96,154660,1,0,0:0:0:0:
304,48,154813,1,0,0:0:0:0:
336,136,154966,1,0,0:0:0:0:
236,48,155120,1,0,0:0:0:0:
280,176,155273,1,0,0:0:0:0:
168,48,155426,1,0,0:0:0:0:
192,228,155579,2,0,P|140:212|128:160,1,95
124,148,156038,5,0,0:0:0:0:
376,60,156191,1,0,0:0:0:0:
308,304,156395,1,0,0:0:0:0:
124,148,156599,1,0,0:0:0:0:
364,216,156803,2,0,L|424:252,1,47.5
312,176,157109,5,0,0:0:0:0:
288,148,157186,1,0,0:0:0:0:
264,124,157262,1,0,0:0:0:0:
232,108,157339,1,0,0:0:0:0:
196,96,157415,1,0,0:0:0:0:
116,80,157569,1,0,0:0:0:0:
88,256,157722,1,0,0:0:0:0:
72,164,157875,1,0,0:0:0:0:
180,312,158028,2,0,L|144:348,1,47.5
220,264,158334,5,0,0:0:0:0:
248,240,158410,1,0,0:0:0:0:
273,217,158487,1,0,0:0:0:0:
290,186,158563,1,0,0:0:0:0:
303,150,158640,1,0,0:0:0:0:
344,52,158793,1,0,0:0:0:0:
372,228,158946,1,0,0:0:0:0:
388,136,159099,1,0,0:0:0:0:
296,308,159252,2,0,L|352:344,1,47.5
244,268,159558,5,0,0:0:0:0:
228,232,159635,1,0,0:0:0:0:
208,200,159711,1,0,0:0:0:0:
176,180,159788,1,0,0:0:0:0:
140,180,159864,1,0,0:0:0:0:
108,200,159941,1,0,0:0:0:0:
72,188,160017,1,0,0:0:0:0:
56,152,160094,1,0,0:0:0:0:
64,116,160171,1,0,0:0:0:0:
96,96,160247,1,0,0:0:0:0:
132,100,160324,1,0,0:0:0:0:
168,108,160400,1,0,0:0:0:0:
204,100,160477,2,0,L|252:64,1,47.5
284,148,160783,2,0,L|268:196,1,47.5
360,196,161089,2,0,L|408:164,1,47.5
444,240,161395,2,0,L|428:288,1,47.5
436,293,161701,5,0,0:0:0:0:
75,90,162007,1,0,0:0:0:0:
376,340,162313,1,0,0:0:0:0:
136,44,162620,1,0,0:0:0:0:
316,292,162926,5,0,0:0:0:0:
196,92,163232,1,0,0:0:0:0:
368,236,163538,1,0,0:0:0:0:
144,148,163844,1,0,0:0:0:0:
364,156,164150,6,0,L|312:172,1,47.5
148,228,164456,2,0,L|200:212,1,47.5
436,204,164762,2,0,L|384:204,1,47.5
76,180,165069,2,0,L|128:184,1,47.5
420,288,165375,6,0,L|368:260,1,47.5
92,96,165681,2,0,L|144:124,1,47.5
340,328,165987,2,0,L|300:280,1,47.5
172,56,166293,2,0,L|208:112,1,47.5
280,232,166599,1,0,0:0:0:0:
280,232,171038,5,0,0:0:0:0:
280,232,171344,1,0,0:0:0:0:
252,152,173946,5,0,0:0:0:0:
252,344,174864,6,0,L|252:200,1,142.500005435944
256,44,175171,1,0,0:0:0:0:
156,172,175375,1,0,0:0:0:0:
356,212,175579,1,0,0:0:0:0:
252,344,175783,1,0,0:0:0:0:
112,160,176395,5,0,0:0:0:0:
304,64,176548,1,0,0:0:0:0:
184,72,176701,1,0,0:0:0:0:
408,128,176854,1,0,0:0:0:0:
188,144,177007,5,0,0:0:0:0:
304,104,177160,1,0,0:0:0:0:
208,260,177313,1,0,0:0:0:0:
316,228,177466,1,0,0:0:0:0:
136,196,177620,6,0,L|204:112,1,95
388,168,177926,2,0,L|296:112,1,95
128,272,178232,6,0,L|196:188,1,95
408,232,178538,2,0,L|316:176,1,95
360,328,178844,1,0,0:0:0:0:
312,164,178997,2,0,L|340:260,1,95
200,256,179303,2,0,L|228:352,1,95
336,68,179609,6,0,L|364:164,1,95
116,160,179915,2,0,L|144:256,1,95
428,252,180222,2,0,L|388:156,1,95
48,104,180528,2,0,L|80:216,1,95
120,296,180834,5,0,0:0:0:0:
156,308,180910,1,0,0:0:0:0:
192,312,180987,1,0,0:0:0:0:
228,308,181063,1,0,0:0:0:0:
264,292,181140,1,0,0:0:0:0:
296,272,181216,1,0,0:0:0:0:
324,244,181293,2,0,B|348:236|368:240|368:240|368:224|384:188,1,95
424,76,181599,5,0,0:0:0:0:
262,51,181752,2,0,P|202:60|173:97,1,95
76,180,182058,1,0,0:0:0:0:
196,324,182211,1,0,0:0:0:0:
420,288,182364,2,0,P|380:260|364:216,1,95
408,60,182671,5,0,0:0:0:0:
256,144,182824,1,0,0:0:0:0:
92,56,182977,2,0,P|112:116|100:160,1,95
84,224,183283,2,0,P|72:280|84:320,2,95,0|0|0,0:0|0:0|0:0,0:0:0:0:
106,145,183742,2,0,B|128:104|96:56|88:48,1,95
168,52,184048,5,0,0:0:0:0:
272,84,184201,1,0,0:0:0:0:
160,152,184354,1,0,0:0:0:0:
336,204,184507,1,0,0:0:0:0:
148,252,184660,1,0,0:0:0:0:
392,324,184813,1,0,0:0:0:0:
240,40,185120,1,0,0:0:0:0:
324,184,185426,2,0,B|280:168|280:168|252:180|252:180|224:168|224:168|180:192,1,142.5
168,188,185732,5,0,0:0:0:0:
132,188,185808,1,0,0:0:0:0:
96,204,185885,1,0,0:0:0:0:
80,240,185961,1,0,0:0:0:0:
88,276,186038,1,0,0:0:0:0:
116,304,186114,1,0,0:0:0:0:
152,312,186191,1,0,0:0:0:0:
288,268,186344,5,0,0:0:0:0:
420,168,186497,1,0,0:0:0:0:
336,44,186650,1,0,0:0:0:0:
312,40,186727,1,0,0:0:0:0:
288,40,186803,1,0,0:0:0:0:
196,132,186956,1,0,0:0:0:0:
272,240,187109,1,0,0:0:0:0:
184,328,187262,2,0,P|144:304|128:256,1,95
128,120,187569,5,0,0:0:0:0:
248,52,187722,1,0,0:0:0:0:
376,112,187875,2,0,P|392:172|368:220,1,95
136,204,188181,2,0,P|120:144|144:96,1,95
292,232,188487,1,0,0:0:0:0:
464,320,188640,6,0,P|492:212|464:128,1,142.500005435944
456,44,188946,1,0,0:0:0:0:
256,192,189099,1,0,0:0:0:0:
48,320,189252,2,0,P|20:212|48:128,1,142.500005435944
56,44,189558,1,0,0:0:0:0:
256,116,189711,1,0,0:0:0:0:
456,44,189864,6,0,P|348:16|264:44,1,142.500005435944
176,32,190171,1,0,0:0:0:0:
176,200,190324,1,0,0:0:0:0:
104,128,190477,1,0,0:0:0:0:
104,300,190630,2,0,B|176:336|232:340|324:332|388:288|364:288,1,213.750008153916
356,296,190936,1,0,0:0:0:0:
456,52,191242,5,0,0:0:0:0:
432,184,191395,1,0,0:0:0:0:
340,284,191548,2,0,B|312:272|312:272|284:284|284:284|244:272,1,95
456,52,191854,5,0,0:0:0:0:
440,220,192007,1,0,0:0:0:0:
300,320,192160,2,0,B|264:312|264:312|224:328|224:328|180:312,1,118.75
456,52,192466,5,0,0:0:0:0:
448,260,192620,1,0,0:0:0:0:
248,340,192773,2,0,B|200:328|200:328|156:344|156:344|104:312,1,142.500005435944
84,140,193079,1,0,0:0:0:0:
140,156,193155,1,0,0:0:0:0:
196,140,193232,1,0,0:0:0:0:
248,120,193308,1,0,0:0:0:0:
304,136,193385,1,0,0:0:0:0:
360,152,193461,1,0,0:0:0:0:
416,136,193538,1,0,0:0:0:0:
256,192,193844,12,0,195681,0:0:0:0:
280,60,195987,5,0,0:0:0:0:
404,184,196140,1,0,0:0:0:0:
272,324,196293,1,0,0:0:0:0:
144,192,196446,2,0,B|105:130|121:94|189:66,1,142.500005435944
324,48,196752,5,0,0:0:0:0:
432,172,196905,1,0,0:0:0:0:
344,320,197058,2,0,B|304:312|304:312|284:332|284:332|248:312|248:312|212:316,1,142.500005435944
64,296,197364,5,0,0:0:0:0:
240,256,197517,1,0,0:0:0:0:
412,304,197671,2,0,B|424:265|424:265|407:242|407:242|431:209|431:209|432:173,1,142.500005435944
276,108,197977,2,0,B|246:66|245:41|245:41|223:50|171:27,2,142.500005435944,0|0|0,0:0|0:0|0:0,0:0:0:0:
268,300,198436,5,0,0:0:0:0:
96,284,198589,1,0,0:0:0:0:
100,100,198742,1,0,0:0:0:0:
272,112,198895,2,0,B|288:152|288:152|264:196|264:196|284:248,1,142.500005435944
140,268,199201,5,0,0:0:0:0:
200,68,199354,1,0,0:0:0:0:
392,164,199507,2,0,B|383:206|383:206|339:230|339:230|327:284,1,142.500005435944
244,120,199813,5,0,0:0:0:0:
212,296,199966,1,0,0:0:0:0:
128,56,200120,1,0,0:0:0:0:
104,312,200273,1,0,0:0:0:0:
80,280,200349,1,0,0:0:0:0:
64,240,200426,1,0,0:0:0:0:
64,196,200502,1,0,0:0:0:0:
76,156,200579,2,0,B|88:120|88:120|136:120|136:120|160:72|160:72|196:84|196:84|256:64,1,213.750008153916
264,60,200885,5,0,0:0:0:0:
432,160,201038,1,0,0:0:0:0:
336,316,201191,1,0,0:0:0:0:
280,96,201344,2,0,B|372:104|276:188|424:164,1,142.500005435944
336,316,201650,5,0,0:0:0:0:
172,280,201803,1,0,0:0:0:0:
292,84,201956,2,0,B|384:92|288:176|436:152,1,142.500005435944
208,312,202262,5,0,0:0:0:0:
88,196,202415,1,0,0:0:0:0:
304,68,202569,2,0,B|396:76|300:160|448:136,1,142.500005435944
112,236,202875,5,0,0:0:0:0:
64,72,203028,1,0,0:0:0:0:
160,212,203181,1,0,0:0:0:0:
328,260,203334,2,0,B|404:248|352:324|404:368|468:312,2,142.500005435944,0|0|0,0:0|0:0|0:0,0:0:0:0:
196,260,203793,2,0,B|136:228|192:332|140:368|68:312|60:312,1,142.500005435944
68,196,204099,5,0,0:0:0:0:
136,60,204252,1,0,0:0:0:0:
324,56,204405,2,0,P|236:64|172:104,1,142.500005435944
112,224,204711,5,0,0:0:0:0:
236,300,204864,1,0,0:0:0:0:
136,124,205017,1,0,0:0:0:0:
324,248,205171,2,0,L|288:200,1,35.625001358986
196,48,205324,2,0,L|224:88,1,35.625001358986
364,300,205477,1,0,0:0:0:0:
376,292,205783,5,0,0:0:0:0:
