osu file format v12

[General]
AudioFilename: Boku no Pico - Koi wo shiyou yo.mp3
AudioLeadIn: 1500
PreviewTime: 39515
Countdown: 0
SampleSet: Normal
StackLeniency: 0.7
Mode: 0
LetterboxInBreaks: 1
WidescreenStoryboard: 0

[Editor]
DistanceSpacing: 1.2
BeatDivisor: 3
GridSize: 4
TimelineZoom: 1

[Metadata]
Title:Koi o Shiyou yo (TV Size)
TitleUnicode:恋をしようよ (TV Size)
Artist:Pico
ArtistUnicode:Pico
Creator:Kyubey
Version:Normal
Source:
Tags:anime ending ed hentai yaoi aka
BeatmapID:373285
BeatmapSetID:151445

[Difficulty]
HPDrainRate:4
CircleSize:3
OverallDifficulty:4
ApproachRate:6
SliderMultiplier:1.4
SliderTickRate:1

[Events]
//Background and Video events
0,0,"BG no Pico.jpg",0,0
//Break Periods
//Storyboard Layer 0 (Background)
//Storyboard Layer 1 (Fail)
//Storyboard Layer 2 (Pass)
//Storyboard Layer 3 (Foreground)
//Storyboard Sound Samples
//Background Colour Transformations
3,100,163,162,255

[TimingPoints]
728,666.666666666667,4,2,1,30,1,0
11061,-100,4,2,1,25,0,0
11394,-100,4,2,1,20,0,0
11728,-100,4,2,1,15,0,0
12061,-100,4,2,1,5,0,0
14061,454.545454545455,4,1,1,35,1,0
34439,-100,4,1,1,5,0,0
34591,-100,4,1,1,35,0,0
39515,-100,4,1,1,40,0,1
57697,-100,4,1,1,30,0,1
57773,-100,4,1,1,40,0,1
58151,-100,4,1,1,30,0,1
58454,-100,4,1,1,40,0,1
58606,-100,4,1,1,30,0,1
58909,-100,4,1,1,40,0,1
59061,-100,4,1,1,30,0,1
59364,-100,4,1,1,40,0,1
59528,454.545454545455,4,1,1,35,1,0
78164,-100,4,1,1,25,0,0
78618,-100,4,1,1,35,0,0
81800,-100,4,1,1,25,0,0
82255,-100,4,1,1,35,0,0
91346,-100,4,2,1,35,0,0
92709,-100,4,2,1,30,0,0
94073,-100,4,2,1,20,0,0
95437,-100,4,2,1,5,0,0

[Colours]
Combo1 : 113,206,129
Combo2 : 207,214,152
Combo3 : 217,166,213
Combo4 : 112,177,205

[HitObjects]
84,248,1394,6,0,P|120:296|208:312,2,140,2|2|2,0:0|0:0|0:0,0:0:0:0:
136,88,3394,1,0,0:0:0:0:
284,164,4061,2,0,P|356:152|400:100,2,140,2|2|0,0:0|0:0|0:0,0:0:0:0:
344,308,6728,6,0,L|200:308,1,140,2|2,0:0|0:0,0:0:0:0:
164,96,8728,6,0,P|108:128|80:196,1,140,2|2,0:0|0:0,0:0:0:0:
256,192,10061,12,2,12061,0:0:0:0:
96,92,14061,6,0,P|168:72|232:84,1,140,4|0,0:2|0:0,0:0:0:0:
376,168,14970,2,0,P|336:224|264:248,1,140
160,244,15727,1,0,0:0:0:0:
108,224,15879,2,0,P|56:172|48:108,1,140,4|0,0:2|0:0,0:0:0:0:
144,48,16636,2,0,L|184:84,1,46.6666666666667
292,84,17091,2,0,L|248:128,1,46.6666666666667
316,280,17697,6,0,P|384:300|456:296,2,140,4|8|0,0:2|0:2|0:0,0:0:0:0:
168,200,19061,1,8,0:2:0:0:
92,52,19515,2,0,B|148:60|180:48|240:52,1,140,0|8,0:0|0:2,0:0:0:0:
344,60,20273,2,0,L|344:116,1,46.6666666666667
364,216,20727,2,0,L|312:236,1,46.6666666666667,0|8,0:0|0:2,0:0:0:0:
216,276,21182,5,0,0:0:0:0:
160,288,21333,2,0,P|92:256|68:196,1,140,0|8,0:0|0:2,0:0:0:0:
200,92,22242,2,0,P|260:108|340:92,2,140,0|8|0,0:0|0:2|0:0,0:0:0:0:
112,160,23454,2,0,L|112:216,1,46.6666666666667,0|8,0:0|0:2,0:0:0:0:
188,292,23909,2,0,L|188:236,1,46.6666666666667,0|0,0:0|0:0,0:0:0:0:
260,160,24364,2,0,L|260:212,1,46.6666666666667,8|8,0:3|0:3,0:0:0:0:
288,256,24667,2,0,L|332:296,1,46.6666666666667,8|8,0:3|0:3,0:0:0:0:
376,300,24970,6,0,P|444:284|488:224,1,140,4|8,0:2|0:2,0:0:0:0:
400,88,25879,1,0,0:0:0:0:
236,44,26333,2,0,P|168:60|120:116,2,140,8|0|8,0:2|0:0|0:2,0:0:0:0:
232,156,27545,2,0,L|193:182,1,46.6666666666667
288,244,28000,2,0,L|336:208,1,46.6666666666667,0|8,0:0|0:2,0:0:0:0:
384,120,28454,5,0,0:0:0:0:
352,76,28606,2,0,P|292:56|216:64,1,140,0|8,0:0|0:2,0:0:0:0:
64,136,29515,1,0,0:0:0:0:
80,248,29818,1,0,0:0:0:0:
80,248,29970,2,0,P|140:244|204:192,1,140,8|0,0:2|0:0,0:0:0:0:
292,56,30879,5,8,0:2:0:0:
384,120,31182,1,0,0:0:0:0:
384,120,31333,1,0,0:0:0:0:
388,232,31636,2,0,L|332:240,1,46.6666666666667,8|8,0:3|0:3,0:0:0:0:
288,252,31939,2,0,L|240:260,1,46.6666666666667,8|8,0:3|0:3,0:0:0:0:
196,292,32242,6,0,P|120:292|68:252,1,140,4|8,0:2|0:2,0:0:0:0:
96,92,33151,2,0,P|160:76|232:92,1,140,0|8,0:0|0:2,0:0:0:0:
200,256,34061,2,0,P|332:248|396:124,1,280,2|2,0:0|0:0,0:0:0:0:
232,96,35424,1,0,0:0:0:0:
256,192,35879,12,2,37697,0:2:0:0:
96,276,39515,6,2,P|164:292|232:280,1,140,4|8,0:2|0:2,0:0:0:0:
328,224,40273,1,0,0:0:0:0:
328,224,40424,2,0,P|344:152|328:88,1,140,0|8,0:0|0:2,0:0:0:0:
176,164,41333,2,0,P|112:144|64:88,1,140,2|8,0:0|0:2,0:0:0:0:
232,60,42242,2,0,P|300:48|372:68,1,140,2|8,0:0|0:2,0:0:0:0:
384,176,43000,5,8,0:2:0:0:
384,176,43151,2,2,B|408:216|408:272|376:320,2,140,4|8|0,0:2|0:2|0:0,0:0:0:0:
300,104,44364,2,0,L|240:104,1,46.6666666666667,0|8,0:0|0:2,0:0:0:0:
216,208,44818,1,0,0:0:0:0:
172,244,44970,2,0,P|100:240|52:192,1,140,4|8,0:2|0:2,0:0:0:0:
40,84,45727,2,0,P|104:64|180:68,1,140,4|8,0:2|0:3,0:0:0:0:
228,88,46333,1,8,0:3:0:0:
336,56,46636,5,8,0:3:0:0:
392,44,46788,2,2,P|428:92|420:168,1,140,4|8,0:2|0:2,0:0:0:0:
312,240,47545,1,0,0:0:0:0:
312,240,47697,2,0,P|252:205|220:136,1,140,0|8,0:0|0:2,0:0:0:0:
96,32,48606,2,0,P|52:80|36:152,1,140,2|8,0:0|0:2,0:0:0:0:
44,320,49515,2,0,P|112:308|168:260,1,140,2|8,0:0|0:2,0:0:0:0:
224,168,50273,5,8,0:2:0:0:
224,168,50424,2,2,P|288:156|368:176,2,140,4|8|0,0:2|0:2|0:0,0:0:0:0:
324,304,51788,1,8,0:2:0:0:
444,188,52242,6,2,P|416:120|360:84,1,140,2|8,0:0|0:2,0:0:0:0:
256,56,53000,1,0,0:0:0:0:
256,56,53151,1,0,0:0:0:0:
272,168,53454,2,0,L|228:200,1,46.6666666666667,8|8,0:3|0:3,0:0:0:0:
188,224,53757,2,0,L|152:184,1,46.6666666666667,8|8,0:3|0:3,0:0:0:0:
116,152,54061,6,2,P|57:189|26:250,1,140,4|8,0:2|0:2,0:0:0:0:
104,332,54818,1,0,0:0:0:0:
156,352,54970,2,2,P|228:348|276:300,1,140,0|8,0:0|0:2,0:0:0:0:
120,236,55879,2,2,P|184:216|224:152,1,140,2|8,0:0|0:2,0:0:0:0:
248,48,56636,1,0,0:0:0:0:
300,28,56788,2,2,P|352:76|364:148,1,140,2|8,0:0|0:2,0:0:0:0:
348,252,57545,5,8,0:3:0:0:
312,296,57697,2,0,L|260:296,1,46.6666666666667,8|0,0:0|0:0,0:0:0:0:
216,324,58000,2,0,L|164:324,1,46.6666666666667,0|8,0:0|0:0,0:0:0:0:
140,216,58454,2,0,L|192:216,1,46.6666666666667,0|8,0:0|0:0,0:0:0:0:
240,116,58909,2,0,L|184:116,1,46.6666666666667,0|8,0:0|0:0,0:0:0:0:
96,60,59364,5,8,0:3:0:0:
52,104,59528,2,0,P|36:172|64:240,1,140,4|8,0:2|0:2,0:0:0:0:
192,340,60437,2,0,P|260:328|304:268,1,140,0|8,0:0|0:2,0:0:0:0:
320,164,61194,1,0,0:0:0:0:
292,116,61346,2,0,P|224:128|176:180,1,140,0|8,0:0|0:2,0:0:0:0:
124,276,62103,2,0,L|76:256,1,46.6666666666667
64,148,62558,2,0,L|92:104,1,46.6666666666667,0|8,0:0|0:2,0:0:0:0:
176,176,63012,5,0,0:0:0:0:
220,208,63164,2,0,P|284:184|324:124,1,140,0|8,0:0|0:2,0:0:0:0:
180,36,64073,1,0,0:0:0:0:
64,148,64528,1,8,0:2:0:0:
84,256,64831,1,0,0:0:0:0:
84,256,64982,2,0,P|164:256|208:216,1,140,0|8,0:0|0:2,0:0:0:0:
260,120,65740,2,0,L|328:120,1,46.6666666666667
368,212,66194,2,0,L|316:212,1,46.6666666666667,8|8,0:3|0:3,0:0:0:0:
272,240,66497,2,0,L|216:240,1,46.6666666666667,0|0,0:3|0:3,0:0:0:0:
176,212,66800,6,0,P|120:248|108:320,1,140,4|8,0:2|0:2,0:0:0:0:
276,332,67709,2,0,P|344:324|392:272,1,140,0|8,0:0|0:2,0:0:0:0:
356,168,68467,1,0,0:0:0:0:
356,168,68618,2,0,B|304:157|265:169|216:168,1,140,0|8,0:0|0:2,0:0:0:0:
104,164,69376,2,0,L|104:117,1,46.6666666666667
184,36,69831,2,0,L|184:84,1,46.6666666666667,0|8,0:0|0:2,0:0:0:0:
216,192,70285,5,0,0:0:0:0:
244,240,70437,2,0,P|312:248|368:200,1,140,0|8,0:0|0:2,0:0:0:0:
440,56,71346,1,0,0:0:0:0:
460,224,71800,1,8,0:2:0:0:
380,304,72103,5,0,0:0:0:0:
332,332,72255,2,0,P|256:328|200:292,1,140,0|8,0:0|0:2,0:0:0:0:
112,228,73012,1,0,0:0:0:0:
168,212,73164,2,0,P|232:188|276:128,1,140,0|8,0:0|0:2,0:0:0:0:
128,56,74073,1,4,0:2:0:0:
296,52,74528,6,2,P|363:62|409:114,2,140,2|2|0,0:0|0:0|0:0,0:0:0:0:
192,96,75740,2,2,P|164:164|184:232,1,140,2|0,0:0|0:0,0:0:0:0:
212,272,76346,2,2,P|268:300|344:284,1,140,2|0,0:0|0:0,0:0:0:0:
412,200,77103,1,2,0:0:0:0:
276,100,77558,1,2,0:0:0:0:
276,100,77709,2,2,B|212:80|192:124|128:112,1,140,4|8,0:0|0:0,0:0:0:0:
180,276,78618,6,2,P|112:276|48:244,1,140,2|2,0:0|0:0,0:0:0:0:
48,132,79376,2,2,P|100:100|180:96,1,140,2|0,0:0|0:0,0:0:0:0:
204,148,79982,2,2,P|272:152|336:120,1,140,2|0,0:0|0:0,0:0:0:0:
428,56,80740,2,2,L|428:102,1,46.6666666666667,2|0,0:0|0:0,0:0:0:0:
424,216,81194,1,2,0:0:0:0:
372,240,81346,2,2,P|302:241|248:200,1,140,4|8,0:0|0:0,0:0:0:0:
136,76,82255,6,2,P|88:120|72:192,1,140,2|2,0:0|0:0,0:0:0:0:
104,296,83012,2,2,P|176:312|240:288,1,140,2|0,0:0|0:0,0:0:0:0:
284,260,83618,2,2,P|320:208|320:132,1,140,2|0,0:0|0:0,0:0:0:0:
228,68,84376,1,2,0:0:0:0:
228,68,84528,1,0,0:3:0:0:
120,88,84831,5,2,0:0:0:0:
120,88,84982,2,2,P|112:152|140:220,1,140,4|8,0:0|0:0,0:0:0:0:
244,180,85740,2,0,L|288:148,1,46.6666666666667
388,192,86194,2,0,L|344:224,1,46.6666666666667,0|8,0:0|0:0,0:0:0:0:
260,284,86649,5,0,0:0:0:0:
204,280,86800,2,0,L|148:280,2,46.6666666666667,2|0|0,0:0|0:0|0:0,0:0:0:0:
192,224,87255,2,0,L|128:224,2,46.6666666666667,2|0|0,0:0|0:0|0:0,0:0:0:0:
180,168,87709,2,0,L|116:168,2,46.6666666666667,2|0|0,0:0|0:0|0:0,0:0:0:0:
164,112,88164,2,0,L|100:112,2,46.6666666666667,2|0|0,0:0|0:0|0:0,0:0:0:0:
204,72,88618,6,0,L|256:72,2,46.6666666666667,6|0|0,0:0|0:0|0:0,0:0:0:0:
228,124,89073,2,0,L|280:124,2,46.6666666666667,2|0|0,0:0|0:0|0:0,0:0:0:0:
244,180,89528,1,2,0:0:0:0:
336,244,89831,6,2,L|336:192,1,46.6666666666667,2|2,0:0|0:0,0:0:0:0:
256,192,90437,12,0,95437,0:0:0:0:
