osu file format v12

[General]
AudioFilename: Boku no Pico - Koi wo shiyou yo.mp3
AudioLeadIn: 1500
PreviewTime: 39515
Countdown: 0
SampleSet: Normal
StackLeniency: 0.7
Mode: 0
LetterboxInBreaks: 1
WidescreenStoryboard: 0

[Editor]
DistanceSpacing: 1.2
BeatDivisor: 3
GridSize: 4
TimelineZoom: 1

[Metadata]
Title:Koi o Shiyou yo (TV Size)
TitleUnicode:恋をしようよ (TV Size)
Artist:Pico
ArtistUnicode:Pico
Creator:Kyubey
Version:Hard
Source:
Tags:anime ending ed hentai yaoi aka
BeatmapID:373410
BeatmapSetID:151445

[Difficulty]
HPDrainRate:6
CircleSize:4
OverallDifficulty:6
ApproachRate:8
SliderMultiplier:1.9
SliderTickRate:1

[Events]
//Background and Video events
0,0,"BG no Pico.jpg",0,0
//Break Periods
//Storyboard Layer 0 (Background)
//Storyboard Layer 1 (Fail)
//Storyboard Layer 2 (Pass)
//Storyboard Layer 3 (Foreground)
//Storyboard Sound Samples
//Background Colour Transformations
3,100,163,162,255

[TimingPoints]
728,666.666666666667,4,2,1,20,1,0
1394,-100,4,2,1,30,0,0
6061,-100,4,2,1,20,0,0
6728,-100,4,2,1,30,0,0
11061,-100,4,2,1,25,0,0
11394,-100,4,2,1,20,0,0
11728,-100,4,2,1,15,0,0
12061,-100,4,2,1,5,0,0
14061,454.545454545455,4,1,1,40,1,0
16485,-100,4,1,1,30,0,0
17091,-100,4,1,1,40,0,0
38151,-100,4,1,1,50,0,0
38606,-100,4,1,1,60,0,0
39061,-100,4,1,1,70,0,0
39515,-100,4,1,1,50,0,1
58151,-100,4,1,1,60,0,1
58606,-100,4,1,1,70,0,1
59061,-100,4,1,1,80,0,1
59528,454.545454545455,4,1,1,40,1,0
91346,-100,4,2,1,35,0,0
92709,-100,4,2,1,30,0,0
94073,-100,4,2,1,20,0,0
95437,-100,4,2,1,5,0,0

[Colours]
Combo1 : 113,206,129
Combo2 : 207,214,152
Combo3 : 217,166,213
Combo4 : 112,177,205

[HitObjects]
232,224,728,5,4,0:0:0:0:
400,192,1394,2,0,P|333:124|253:73,1,190,2|2,0:0|0:0,0:0:0:0:
85,105,2728,2,0,P|152:172|232:224,1,190,2|2,0:0|0:0,0:0:0:0:
360,352,4061,2,0,P|394:274|400:168,1,190,2|2,0:0|0:0,0:0:0:0:
336,48,5061,1,2,0:0:0:0:
176,192,6061,5,4,0:0:0:0:
178,365,6728,2,0,P|143:279|176:192,1,190,2|2,0:0|0:0,0:0:0:0:
368,40,8728,6,0,P|400:104|368:216,1,190,6|2,0:0|0:0,0:0:0:0:
88,128,10061,1,2,0:0:0:0:
184,128,10394,1,2,0:0:0:0:
256,192,10505,12,0,12061,0:0:0:0:
102,50,14061,5,4,0:0:0:0:
102,50,14212,1,0,0:0:0:0:
102,50,14364,1,0,0:0:0:0:
73,121,14515,2,0,P|47:103|29:77,2,63.3333333333333,2|0|0,0:2|0:0|0:0,0:0:0:0:
152,108,14970,5,0,0:3:0:0:
152,108,15121,1,0,0:3:0:0:
152,108,15273,1,0,0:3:0:0:
125,179,15424,2,0,P|159:182|187:174,2,63.3333333333333,2|0|0,0:2|0:3|0:3,0:0:0:0:
49,195,15879,5,4,0:2:0:0:
70,233,16030,1,0,0:0:0:0:
109,253,16182,1,0,0:0:0:0:
153,253,16333,1,2,0:2:0:0:
197,254,16485,1,0,0:0:0:0:
236,274,16636,1,2,0:2:0:0:
267,305,16788,1,2,0:2:0:0:
336,212,17091,5,2,0:2:0:0:
404,252,17242,2,0,P|464:224|472:128,1,126.666666666667,2|0,0:2|0:0,0:0:0:0:
484,92,17697,6,0,P|424:120|416:216,1,126.666666666667,4|0,0:2|0:0,0:0:0:0:
404,252,18151,2,0,P|380:309|324:333,1,126.666666666667,8|0,0:2|0:0,0:0:0:0:
248,316,18606,1,2,0:2:0:0:
104,256,18909,1,0,0:2:0:0:
132,184,19061,1,10,0:2:0:0:
232,72,19364,5,0,0:2:0:0:
304,88,19515,2,0,P|360:128|392:192,1,126.666666666667,2|0,0:2|0:0,0:0:0:0:
387,177,19970,2,0,P|456:184|508:128,1,126.666666666667,10|0,0:2|0:0,0:0:0:0:
484,60,20424,1,2,0:2:0:0:
304,88,20727,2,0,L|216:120,1,63.3333333333333,2|8,0:2|0:2,0:2:0:0:
200,256,21182,5,0,0:2:0:0:
236,324,21333,2,0,P|296:344|356:324,1,126.666666666667
416,264,21788,2,0,P|360:244|296:264,1,126.666666666667,8|0,0:2|0:0,0:0:0:0:
236,324,22242,1,2,0:2:0:0:
80,344,22545,1,0,0:0:0:0:
12,308,22697,1,10,0:2:0:0:
12,164,23000,5,0,0:2:0:0:
76,124,23151,2,0,L|220:64,1,126.666666666667,2|0,0:2|0:0,0:0:0:0:
260,112,23606,2,0,P|260:40|184:0,1,126.666666666667,10|0,0:2|0:0,0:0:0:0:
128,40,24061,2,0,P|128:112|204:152,1,126.666666666667,2|8,0:2|0:3,0:0:0:0:
232,180,24515,1,8,1:3:0:0:
308,176,24667,1,8,1:3:0:0:
380,152,24818,1,8,1:3:0:0:
444,112,24970,6,0,P|432:180|436:248,1,126.666666666667,4|0,0:2|0:0,0:0:0:0:
488,292,25424,1,8,0:2:0:0:
352,364,25727,1,0,0:0:0:0:
280,340,25879,1,2,0:2:0:0:
144,356,26182,5,0,0:2:0:0:
68,344,26333,2,0,P|29:291|50:201,1,126.666666666667,10|0,0:2|0:0,0:0:0:0:
108,267,26788,2,0,P|109:204|71:155,1,126.666666666667,2|0,0:2|0:0,0:0:0:0:
0,160,27242,2,0,L|136:108,1,126.666666666667,10|0,0:2|0:0,0:2:0:0:
196,104,27697,1,2,0:2:0:0:
364,72,28000,2,0,L|436:48,1,63.3333333333333,2|8,0:2|0:2,0:2:0:0:
424,204,28454,5,0,0:2:0:0:
356,240,28606,2,0,P|304:280|304:352,1,126.666666666667
372,316,29061,1,10,0:2:0:0:
260,216,29364,1,0,0:2:0:0:
192,180,29515,2,0,P|136:168|56:192,1,126.666666666667,2|0,0:2|0:0,0:2:0:0:
4,224,29970,1,8,0:2:0:0:
104,348,30273,5,0,0:2:0:0:
163,299,30424,2,0,P|190:242|192:180,1,126.666666666667,2|0,0:2|0:0,0:2:0:0:
268,160,30879,2,0,P|301:213|349:254,1,126.666666666667,10|0,0:2|0:0,0:2:0:0:
392,320,31333,2,0,P|424:264|384:180,1,126.666666666667,2|8,0:2|0:3,0:2:0:0:
368,144,31788,1,8,0:3:0:0:
316,88,31939,1,8,0:3:0:0:
244,64,32091,1,8,0:3:0:0:
168,72,32242,6,0,P|112:88|48:132,1,126.666666666667,4|0,0:2|0:0,0:2:0:0:
16,192,32697,1,10,0:2:0:0:
116,280,33000,1,2,0:2:0:0:
192,280,33151,1,2,0:2:0:0:
340,304,33454,5,2,0:2:0:0:
264,304,33606,2,0,P|224:348|140:336,1,126.666666666667,10|8,0:2|0:3,0:2:0:0:
192,280,34061,1,8,0:3:0:0:
212,208,34212,1,8,0:3:0:0:
248,140,34364,1,8,0:3:0:0:
304,92,34515,6,0,P|380:76|440:100,1,126.666666666667,2|8,0:2|0:3,0:2:0:0:
472,148,34970,1,8,0:3:0:0:
492,220,35121,1,8,0:3:0:0:
472,292,35273,1,8,0:3:0:0:
424,348,35424,2,0,P|390:349|352:336,2,63.3333333333333,8|8|8,0:3|0:3|0:3,0:0:0:0:
400,276,35879,1,6,0:2:0:0:
300,192,36182,5,0,0:2:0:0:
228,216,36333,2,0,P|192:268|104:256,1,126.666666666667,10|0,0:2|0:0,0:2:0:0:
152,200,36788,2,0,P|188:148|276:160,1,126.666666666667,2|0,0:2|0:0,0:2:0:0:
228,216,37242,2,0,L|148:88,1,126.666666666667,10|0,0:2|0:0,0:2:0:0:
104,56,37697,6,0,P|72:56|24:88,1,63.3333333333333,6|0,0:2|0:0,0:2:0:0:
8,132,38000,1,0,0:2:0:0:
8,208,38151,2,0,P|16:244|36:280,1,63.3333333333333,14|0,0:2|0:0,0:2:0:0:
84,320,38454,1,2,0:2:0:0:
160,328,38606,2,0,P|196:328|236:316,1,63.3333333333333,4|0,0:2|0:0,0:2:0:0:
284,280,38909,1,0,0:2:0:0:
332,220,39061,2,0,P|356:188|368:156,1,63.3333333333333,12|0,0:2|0:0,0:2:0:0:
356,92,39364,1,0,0:2:0:0:
280,36,39515,6,2,P|186:40|95:101,1,190,6|8,0:0|0:2,0:0:0:0:
60,292,40273,1,0,0:2:0:0:
128,336,40424,2,0,P|200:348|256:336,1,126.666666666667,2|0,0:0|0:0,0:0:0:0:
320,292,40879,1,8,0:2:0:0:
460,368,41182,5,0,0:2:0:0:
484,288,41333,2,0,P|500:221|502:140,1,126.666666666667,2|0,0:0|0:0,0:2:0:0:
429,104,41788,2,0,L|426:252,1,126.666666666667,2|0,0:0|0:0,0:2:0:0:
364,283,42242,2,0,P|352:215|356:135,1,126.666666666667,2|0,0:0|0:0,0:2:0:0:
360,76,42697,2,0,P|312:82|268:152,1,126.666666666667,2|2,0:0|0:0,0:2:0:0:
252,224,43151,6,2,P|180:280|80:280,1,190,6|8,0:0|0:2,0:0:0:0:
28,132,43909,1,0,0:2:0:0:
86,73,44061,2,0,P|151:59|223:67,1,126.666666666667,2|0,0:0|0:2,0:2:0:0:
270,121,44515,1,8,0:2:0:0:
380,240,44818,1,0,0:2:0:0:
456,208,44970,1,4,0:2:0:0:
464,32,45424,5,0,0:2:0:0:
352,68,45727,1,4,0:2:0:0:
352,68,46182,5,8,0:3:0:0:
320,144,46333,1,8,0:3:0:0:
312,228,46485,1,8,0:3:0:0:
336,308,46636,1,8,0:3:0:0:
396,364,46788,6,2,P|292:336|168:332,1,190,6|8,0:0|0:2,0:0:0:0:
48,300,47545,1,0,0:2:0:0:
128,280,47697,2,0,P|192:256|248:224,1,126.666666666667,2|0,0:0|0:2,0:2:0:0:
308,176,48151,1,8,0:2:0:0:
188,8,48454,5,0,0:2:0:0:
126,61,48606,2,0,P|105:120|104:184,1,126.666666666667,2|0,0:0|0:0,0:2:0:0:
104,184,49061,2,0,P|141:135|208:100,1,126.666666666667,2|0,0:0|0:0,0:2:0:0:
260,156,49515,2,0,P|222:204|156:240,1,126.666666666667,2|8,0:0|0:3,0:2:0:0:
116,300,49970,1,8,0:3:0:0:
148,376,50121,1,8,0:3:0:0:
232,380,50273,1,8,0:3:0:0:
304,340,50424,6,2,P|369:300|436:204,1,190,6|10,0:0|0:2,0:0:0:0:
496,52,51182,2,0,P|469:35|439:23,1,63.3333333333333,2|2,0:2|0:2,0:2:0:0:
378,180,51636,2,0,P|404:197|434:208,1,63.3333333333333,2|10,0:2|0:2,0:2:0:0:
439,23,52091,5,0,0:2:0:0:
360,36,52242,2,2,P|272:72|224:176,1,190,2|8,0:0|0:2,0:0:0:0:
248,348,53000,1,2,0:2:0:0:
263,270,53151,2,0,P|253:208|226:151,1,126.666666666667,2|8,0:2|0:3,0:2:0:0:
156,112,53606,1,8,0:3:0:0:
76,108,53757,1,8,0:3:0:0:
108,184,53909,1,8,0:3:0:0:
156,112,54061,6,2,P|120:44|8:64,1,190,2|10,0:0|0:2,0:0:0:0:
50,208,54818,2,0,P|81:200|108:184,1,63.3333333333333,2|2,0:2|0:2,0:2:0:0:
240,236,55273,2,0,P|228:264|216:308,1,63.3333333333333,2|10,0:2|0:2,0:2:0:0:
360,356,55727,5,0,0:2:0:0:
440,332,55879,2,0,P|480:284|500:212,1,126.666666666667,2|0,0:2|0:2,0:2:0:0:
488,144,56333,1,8,0:2:0:0:
356,44,56636,1,2,0:2:0:0:
340,124,56788,2,0,P|296:188|244:208,1,126.666666666667,2|2,0:2|0:2,0:2:0:0:
172,188,57242,2,0,L|120:256,2,63.3333333333333,10|0|0,0:2|0:0|0:0,0:2:0:0:
196,108,57697,5,4,0:2:0:0:
152,40,57848,1,0,0:2:0:0:
68,36,58000,1,0,0:2:0:0:
16,100,58151,2,0,P|4:132|8:176,1,63.3333333333333,12|0,0:2|0:0,0:2:0:0:
84,144,58454,1,0,0:2:0:0:
68,224,58605,2,0,P|72:257|96:294,1,63.3333333333333,4|0,0:2|0:0,0:2:0:0:
148,228,58909,1,0,0:2:0:0:
185,299,59060,2,0,P|209:322|251:336,1,63.3333333333333,12|0,0:2|0:0,0:2:0:0:
320,320,59364,1,0,0:2:0:0:
396,284,59528,6,0,P|424:228|420:128,1,126.666666666667,4|0,0:2|0:0,0:2:0:0:
416,84,59982,1,8,0:2:0:0:
276,48,60285,1,0,0:2:0:0:
240,120,60437,2,0,P|216:184|256:260,1,126.666666666667,2|0,0:2|0:0,0:2:0:0:
296,184,60891,2,0,P|313:243|288:300,1,126.666666666667,10|0,0:2|0:0,0:2:0:0:
240,360,61346,1,2,0:2:0:0:
96,360,61649,5,0,0:2:0:0:
20,356,61800,1,10,0:2:0:0:
36,208,62103,1,2,0:2:0:0:
108,232,62255,1,0,0:2:0:0:
156,116,62558,1,2,0:2:0:0:
88,80,62709,2,0,P|140:40|224:76,1,126.666666666667,8|0,0:2|0:0,0:2:0:0:
256,100,63164,1,0,0:2:0:0:
352,216,63467,5,0,0:2:0:0:
408,268,63618,2,0,P|444:320|508:360,1,126.666666666667,8|0,0:2|0:0,0:2:0:0:
495,355,64073,2,0,L|360:356,1,126.666666666667,2|0,0:2|0:0,0:0:0:0:
292,352,64528,2,0,P|228:348|144:332,1,126.666666666667,10|0,0:2|0:0,0:2:0:0:
104,296,64982,1,2,0:2:0:0:
56,180,65285,6,0,P|77:149|124:124,1,63.3333333333333,0|10,0:0|0:2,0:2:0:0:
244,48,65740,1,0,0:2:0:0:
220,120,65891,2,0,P|180:176|108:208,1,126.666666666667,2|8,0:2|0:3,0:2:0:0:
56,180,66346,1,8,0:3:0:0:
24,112,66497,1,8,0:3:0:0:
44,40,66649,1,8,0:3:0:0:
112,8,66800,6,0,P|172:12|236:40,1,126.666666666667,4|0,0:2|0:0,0:2:0:0:
296,84,67255,1,8,0:2:0:0:
460,112,67558,2,0,P|490:91|516:59,1,63.3333333333333,0|2,0:0|0:2,0:2:0:0:
412,200,68012,2,0,P|439:217|467:245,1,63.3333333333333,0|10,0:0|0:2,0:2:0:0:
364,304,68467,5,0,0:2:0:0:
292,280,68618,2,0,P|232:248|184:200,1,126.666666666667,2|0,0:2|0:0,0:2:0:0:
196,180,69073,2,0,L|136:320,1,126.666666666667,10|0,0:2|0:0,0:2:0:0:
120,368,69528,1,2,0:2:0:0:
24,256,69831,5,2,0:2:0:0:
60,188,69982,2,0,P|94:128|108:64,1,126.666666666667,8|0,0:2|0:0,0:2:0:0:
80,40,70437,2,0,L|220:96,1,126.666666666667,0|0,0:2|0:2,0:2:0:0:
268,128,70891,1,10,0:2:0:0:
416,8,71194,5,0,0:2:0:0:
384,76,71346,1,2,0:2:0:0:
400,252,71649,2,0,L|360:168,1,63.3333333333333,0|8,0:0|0:2,0:2:0:0:
240,232,72103,5,0,0:2:0:0:
276,300,72255,2,0,P|316:352|400:372,1,126.666666666667,2|0,0:2|0:0,0:2:0:0:
448,372,72709,1,10,0:2:0:0:
464,220,73012,1,0,0:2:0:0:
424,156,73164,2,0,P|384:104|300:84,1,126.666666666667,2|8,0:2|0:3,0:2:0:0:
252,92,73618,1,8,0:3:0:0:
188,132,73770,1,8,0:3:0:0:
156,200,73921,1,8,0:3:0:0:
148,276,74073,1,4,0:2:0:0:
299,175,74528,6,0,P|250:137|187:131,1,126.666666666667,10|2,0:2|0:2,0:2:0:0:
108,160,74982,2,0,P|157:198|220:204,1,126.666666666667,2|2,0:2|0:2,0:2:0:0:
299,175,75437,2,0,P|368:184|420:240,1,126.666666666667,10|8,0:2|0:3,0:2:0:0:
428,292,75891,5,8,0:3:0:0:
396,360,76043,1,8,0:3:0:0:
320,368,76194,1,8,0:3:0:0:
252,332,76346,2,0,P|208:288|184:216,1,126.666666666667,10|8,0:2|0:3,0:2:0:0:
196,152,76800,5,8,0:3:0:0:
164,84,76952,1,8,0:3:0:0:
88,68,77103,1,8,0:3:0:0:
24,108,77255,2,0,P|15:73|20:40,2,63.3333333333333,0|8|8,0:3|0:3|0:3,0:2:0:0:
52,176,77709,1,6,0:2:0:0:
112,360,78164,6,0,P|186:365|272:352,1,126.666666666667,10|2,0:2|0:2,0:2:0:0:
296,312,78618,1,2,0:2:0:0:
360,164,78921,1,2,0:2:0:0:
300,212,79073,1,10,0:2:0:0:
148,232,79376,5,0,0:2:0:0:
212,184,79528,2,0,P|260:144|292:64,1,126.666666666667,2|0,0:2|0:0,0:2:0:0:
260,56,79982,2,0,L|388:124,1,126.666666666667,10|0,0:2|0:0,0:2:0:0:
440,156,80437,1,2,0:2:0:0:
328,8,80740,5,2,0:2:0:0:
260,56,80891,2,0,P|212:100|172:152,1,126.666666666667,8|0,0:2|0:0,0:2:0:0:
144,220,81346,1,6,0:2:0:0:
324,360,81800,6,0,P|336:296|324:208,1,126.666666666667,10|2,0:2|0:2,0:2:0:0:
260,256,82255,1,2,0:2:0:0:
112,292,82558,1,2,0:2:0:0:
40,308,82709,2,0,P|13:255|12:172,1,126.666666666667,10|8,0:2|0:3,0:2:0:0:
24,112,83164,5,8,0:3:0:0:
68,48,83315,1,8,0:3:0:0:
144,28,83467,1,0,0:3:0:0:
220,32,83618,2,0,P|280:48|320:112,1,126.666666666667,2|8,0:2|0:3,0:2:0:0:
336,172,84073,5,8,0:3:0:0:
272,216,84224,1,8,0:3:0:0:
200,248,84376,1,8,0:3:0:0:
204,324,84528,2,0,P|248:376|320:380,1,126.666666666667,8|0,0:2|0:0,0:2:0:0:
372,356,84982,6,0,L|436:236,1,126.666666666667,6|0,0:2|0:0,0:2:0:0:
384,184,85437,2,0,L|320:304,1,126.666666666667,8|0,0:2|0:0,0:2:0:0:
256,264,85891,1,0,0:2:0:0:
272,112,86194,1,0,0:2:0:0:
232,48,86346,2,0,P|176:24|88:20,1,126.666666666667,8|0,0:2|0:0,0:2:0:0:
56,72,86800,5,6,0:2:0:0:
76,144,86952,1,2,0:2:0:0:
112,212,87103,1,2,0:2:0:0:
172,260,87255,2,0,L|128:332,2,63.3333333333333,2|2|2,0:2|0:2|0:2,0:2:0:0:
244,280,87709,5,2,0:2:0:0:
320,272,87861,1,2,0:2:0:0:
372,220,88012,1,2,0:2:0:0:
396,148,88164,2,0,L|472:160,2,63.3333333333333,2|2|2,0:2|0:2|0:2,0:2:0:0:
352,88,88618,6,0,P|320:64|264:56,1,63.3333333333333,6|2,0:2|0:2,0:2:0:0:
232,96,88921,1,2,0:2:0:0:
232,20,89073,2,0,P|196:28|152:64,1,63.3333333333333,2|2,0:2|0:2,0:2:0:0:
136,108,89376,1,2,0:2:0:0:
140,184,89528,1,2,0:2:0:0:
192,240,89679,1,2,0:2:0:0:
268,256,89831,1,2,0:2:0:0:
340,228,89982,2,0,P|395:181|403:100,1,126.666666666667,2|0,0:2|2:2,0:2:0:0:
328,144,90437,5,4,0:0:0:0:
256,192,90588,12,0,95437,0:2:0:0:
