osu file format v14

[General]
AudioFilename: Deemo - Rayark selection vol.3 #9 - The Truth That You Leave.mp3
AudioLeadIn: 0
PreviewTime: 76833
Countdown: 0
SampleSet: Soft
StackLeniency: 0.3
Mode: 0
LetterboxInBreaks: 0
EpilepsyWarning: 1
WidescreenStoryboard: 1

[Editor]
DistanceSpacing: 1.2
BeatDivisor: 4
GridSize: 4
TimelineZoom: 1

[Metadata]
Title:The Truth That You Leave
TitleUnicode:The Truth That You Leave
Artist:Pianoboy
ArtistUnicode:Pianoboy
Creator:Pappy
Version:Truth
Source:Deemo
Tags:rayark games selection vol.3 cytus Desperate-kun
BeatmapID:678350
BeatmapSetID:302664

[Difficulty]
HPDrainRate:6
CircleSize:3.7
OverallDifficulty:6
ApproachRate:7
SliderMultiplier:1.45
SliderTickRate:1

[Events]
//Background and Video events
0,0,"BG.jpg",0,0
//Break Periods
//Storyboard Layer 0 (Background)
//Storyboard Layer 1 (Fail)
//Storyboard Layer 2 (Pass)
//Storyboard Layer 3 (Foreground)
//Storyboard Sound Samples

[TimingPoints]
17070,472.44094488189,4,2,1,40,1,0
44707,-100,4,2,0,20,0,0
44944,-100,4,2,0,25,0,0
45180,-100,4,2,0,30,0,0
45416,-100,4,2,0,40,0,0
46833,-100,4,2,1,45,0,0
77542,-100,4,2,1,45,0,1
90770,-100,4,2,0,20,0,1
91715,-100,4,2,1,45,0,1
113447,-100,4,2,0,25,0,0
122896,983.606557377049,4,2,1,30,1,0
124125,1000,4,2,1,30,1,0
124375,1034.48275862069,4,2,1,30,1,0
124633,1052.63157894737,4,2,1,30,1,0
124896,1176.47058823529,4,2,1,30,1,0
125190,1200,4,2,1,30,1,0
125490,1212.12121212121,4,2,1,30,1,0
125793,1304.34782608696,4,2,1,30,1,0
126119,1276.59574468085,4,2,1,30,1,0
126757,2727.27272727273,4,2,1,30,1,0
127438,631.578947368421,4,2,1,20,1,0
128385,923.076923076923,4,2,1,20,1,0
129077,1111.11111111111,4,2,1,20,1,0

[Colours]
Combo1 : 196,196,196
Combo2 : 186,217,185
Combo3 : 124,187,211
SliderBorder : 210,210,210

[HitObjects]
120,144,17070,5,0,0:0:0:0:
208,132,17306,2,0,L|284:124,1,72.4999999999999,2|0,0:0|0:0,0:0:0:0:
356,168,17778,1,0,0:0:0:0:
356,168,18014,2,0,P|408:192|432:188,2,72.4999999999999,2|0|0,0:0|0:0|0:0,0:0:0:0:
360,80,18723,2,0,L|276:216,1,145,2|2,0:0|0:0,0:0:0:0:
304,288,19432,2,0,P|270:290|231:273,1,72.5,2|0,0:0|0:0,0:0:0:0:
196,200,19904,2,0,P|160:201|129:220,1,72.4999999999999,2|0,0:0|0:0,0:0:0:0:
124,308,20377,1,0,0:0:0:0:
124,308,20613,6,0,L|48:184,1,145,2|2,0:0|0:0,0:0:0:0:
72,100,21321,1,0,0:0:0:0:
72,100,21558,2,0,P|176:96|200:68,1,145,2|0,0:0|0:0,0:0:0:0:
280,40,22266,1,0,0:0:0:0:
356,88,22503,1,0,0:0:0:0:
336,172,22739,2,0,P|344:216|368:252,1,72.4999999999999,2|0,0:0|0:0,0:0:0:0:
420,300,23211,1,0,0:0:0:0:
336,324,23447,2,0,L|256:332,1,72.4999999999999,2|0,0:0|0:0,0:0:0:0:
200,272,23920,1,2,0:0:0:0:
200,272,24156,1,0,0:0:0:0:
60,168,24629,5,0,0:0:0:0:
140,136,24865,2,0,P|184:148|212:140,1,72.4999999999999,2|0,0:0|0:0,0:0:0:0:
288,108,25337,1,0,0:0:0:0:
288,108,25573,2,0,P|322:117|348:142,1,72.4999999999999,2|0,0:0|0:0,0:0:0:0:
276,192,26046,1,2,0:0:0:0:
276,192,26282,2,0,L|428:184,1,145,0|2,0:0|0:0,0:0:0:0:
484,244,26991,2,0,P|492:284|484:320,1,72.4999999999999
404,284,27463,2,0,L|330:290,1,72.4999999999999,2|0,0:0|0:0,0:0:0:0:
248,268,27936,1,0,0:0:0:0:
172,228,28172,6,0,P|165:292|216:348,1,145,2|2,0:0|0:0,0:0:0:0:
340,156,30062,2,0,P|347:92|296:36,1,145,2|2,0:0|0:0,0:0:0:0:
296,36,31007,1,2,0:0:0:0:
264,116,31243,2,0,L|192:108,1,72.4999999999999
108,132,31715,1,0,0:0:0:0:
44,192,31951,6,0,B|-16:252|48:344|132:304|132:304|204:352|280:304,1,362.5,2|0,0:0|0:0,0:0:0:0:
312,228,33369,1,2,0:0:0:0:
396,244,33605,1,2,0:0:0:0:
340,312,33841,6,0,P|268:304|376:168,1,362.5
380,172,35495,1,0,0:0:0:0:
392,180,35967,6,0,P|452:172|500:99,1,145,2|2,0:0|0:0,0:0:0:0:
412,92,36676,2,0,L|268:56,1,145,2|0,0:0|0:0,0:0:0:0:
79,262,37621,2,0,P|147:186|100:96,1,217.5,2|0,0:0|0:0,0:0:0:0:
60,175,38566,2,0,P|168:156|172:48,1,217.5
192,44,39747,5,0,0:0:0:0:
272,80,39983,2,0,P|316:76|344:60,1,72.4999999999999,2|0,0:0|0:0,0:0:0:0:
424,36,40455,1,0,0:0:0:0:
424,36,40692,2,0,P|460:35|493:49,1,72.4999999999999,2|0,0:0|0:0,0:0:0:0:
444,120,41164,1,2,0:0:0:0:
444,120,41400,2,0,P|424:204|456:248,1,145,0|2,0:0|0:0,0:0:0:0:
396,312,42109,2,0,B|324:320,1,72.4999999999999
260,264,42581,2,0,P|242:294|240:332,2,72.4999999999999,2|0|0,0:0|0:0|0:0,0:0:0:0:
312,204,43290,6,0,B|280:60,1,145,2|2,0:0|0:0,0:0:0:0:
196,32,44707,1,0,0:0:0:0:
136,96,44944,2,0,L|96:88,3,36.25
60,100,45416,5,2,0:0:0:0:
60,100,46833,5,2,0:0:0:0:
88,184,47070,2,0,L|104:328,1,145,2|0,0:0|0:0,0:0:0:0:
188,304,47778,1,2,0:0:0:0:
188,304,48014,2,0,P|268:292|320:328,1,145,2|0,0:0|0:0,0:0:0:0:
388,276,48723,1,2,0:0:0:0:
388,276,48959,2,0,P|440:300|476:236,1,145,2|0,0:0|0:0,0:0:0:0:
400,192,49668,1,2,0:0:0:0:
400,192,49904,2,0,P|337:148|336:84,1,145,2|0,0:0|0:0,0:0:0:0:
407,112,50613,1,2,0:0:0:0:
407,112,50849,1,0,0:0:0:0:
407,112,51085,6,0,P|401:42|342:5,1,145,2|0,0:0|0:0,0:0:0:0:
268,36,51794,2,0,P|204:60|136:32,1,145,2|2,0:0|0:0,0:0:0:0:
64,80,52503,2,0,L|59:155,1,72.5
116,216,52975,2,0,P|176:172|244:188,1,145,2|2,0:0|0:0,0:0:0:0:
192,260,53684,2,0,L|328:212,1,145,2|0,0:0|0:0,0:0:0:0:
408,256,54392,5,2,0:0:0:0:
408,256,54629,2,0,P|364:204|372:132,1,145,2|0,0:0|0:0,0:0:0:0:
444,180,55337,1,2,0:0:0:0:
444,180,55573,2,0,B|448:328,1,145,2|0,0:0|0:0,0:0:0:0:
364,352,56282,1,2,0:0:0:0:
364,352,56518,2,0,P|316:308|244:324,1,145,2|0,0:0|0:0,0:0:0:0:
156,320,57227,1,2,0:0:0:0:
156,320,57463,2,0,P|108:264|116:196,1,145,2|0,0:0|0:0,0:0:0:0:
120,112,58172,1,2,0:0:0:0:
192,156,58408,6,0,B|248:188|328:160|332:90|332:90|396:128|472:96|480:44,1,362.5
479,46,60534,1,2,0:0:0:0:
479,46,61479,1,2,0:0:0:0:
388,196,61951,5,2,0:0:0:0:
432,272,62188,2,0,P|364:280|307:228,1,145,2|0,0:0|0:0,0:0:0:0:
316,144,62896,1,2,0:0:0:0:
388,196,63132,2,0,L|240:184,1,145,2|0,0:0|0:0,0:0:0:0:
156,180,63841,1,2,0:0:0:0:
156,180,64077,2,0,P|139:250|193:251,1,145,2|0,0:0|0:0,0:0:0:0:
244,184,64786,1,2,0:0:0:0:
204,104,65022,2,0,P|128:96|72:148,1,145,2|0,0:0|0:0,0:0:0:0:
76,224,65731,2,0,L|56:296,1,72.5,2|0,0:0|0:0,0:0:0:0:
4,364,66203,6,0,P|64:324|132:344,1,145,2|0,0:0|0:0,0:0:0:0:
192,284,66912,2,0,P|252:318|319:295,2,145,2|2|0,0:0|0:0|0:0,0:0:0:0:
260,232,68093,2,0,L|236:88,1,145,2|0,0:0|0:0,0:0:0:0:
176,28,68802,2,0,B|229:-14|284:20|284:20|320:12,1,145,2|0,0:0|0:0,0:0:0:0:
396,44,69510,5,2,0:0:0:0:
396,44,69747,2,0,P|452:92|452:160,1,145,2|0,0:0|0:0,0:0:0:0:
372,128,70455,1,2,0:0:0:0:
372,128,70692,2,0,L|460:244,1,145,2|0,0:0|0:0,0:0:0:0:
460,332,71400,1,2,0:0:0:0:
460,332,71636,2,0,P|392:340|380:276,1,145,2|0,0:0|0:0,0:0:0:0:
332,204,72345,1,2,0:0:0:0:
332,204,72581,2,0,P|272:236|196:228,1,145,2|0,0:0|0:0,0:0:0:0:
128,176,73290,1,2,0:0:0:0:
116,260,73526,1,0,0:0:0:0:
197,228,73762,5,0,0:0:0:0:
256,192,73999,12,0,75652,0:0:0:0:
364,64,77070,5,2,0:0:0:0:
436,116,77306,1,2,0:0:0:0:
408,200,77542,6,0,P|364:172|352:144,1,72.5
284,104,78014,1,2,0:0:0:0:
284,104,78251,2,0,P|203:88|158:129,1,145,2|0,0:0|0:0,0:0:0:0:
233,166,78959,1,2,0:0:0:0:
233,166,79195,2,0,L|205:310,1,145,2|0,0:0|0:0,0:0:0:0:
284,352,79904,1,2,0:0:0:0:
284,352,80140,2,0,P|356:336|376:272,1,145,2|0,0:0|0:0,0:0:0:0:
340,196,80849,1,2,0:0:0:0:
396,128,81085,1,0,0:0:0:0:
468,84,81321,6,0,P|472:164|427:206,1,145,2|2,0:0|0:0,0:0:0:0:
340,196,82030,2,0,L|196:208,2,145,2|0|0,0:0|0:0|0:0,0:0:0:0:
429,206,83211,2,0,P|390:271|320:284,1,145,2|2,0:0|0:0,0:0:0:0:
340,196,83920,2,0,L|292:60,1,145,2|0,0:0|0:0,0:0:0:0:
208,40,84629,5,2,0:0:0:0:
208,40,84865,2,0,P|124:44|92:92,1,145,2|0,0:0|0:0,0:0:0:0:
176,116,85573,1,2,0:0:0:0:
176,116,85810,2,0,P|180:216|152:248,1,145,2|0,0:0|0:0,0:0:0:0:
84,288,86518,1,2,0:0:0:0:
84,288,86755,2,0,L|228:308,1,145,2|0,0:0|0:0,0:0:0:0:
316,304,87463,1,2,0:0:0:0:
380,244,87699,2,0,P|393:153|369:110,1,145,2|2,0:0|0:0,0:0:0:0:
288,72,88408,1,2,0:0:0:0:
228,136,88644,6,0,P|120:196|104:24,1,362.5
184,60,90062,2,0,P|256:56|308:104,1,145
303,182,90770,6,0,L|335:226,7,36.25,2|0|0|0|0|0|0|0,0:0|0:0|0:0|0:0|0:0|0:0|0:0|0:0,0:0:0:0:
352,244,91715,1,2,0:0:0:0:
184,292,92188,5,2,0:0:0:0:
140,216,92424,2,0,L|136:72,1,145,2|0,0:0|0:0,0:0:0:0:
220,100,93132,1,2,0:0:0:0:
220,100,93369,2,0,P|304:116|344:80,1,145,2|0,0:0|0:0,0:0:0:0:
392,8,94077,1,2,0:0:0:0:
392,8,94314,2,0,L|400:152,1,145,2|0,0:0|0:0,0:0:0:0:
488,164,95022,1,2,0:0:0:0:
488,164,95258,2,0,P|432:160|412:236,1,145,2|0,0:0|0:0,0:0:0:0:
376,312,95967,1,2,0:0:0:0:
292,340,96203,1,2,0:0:0:0:
208,316,96440,6,0,L|172:176,1,145,2|0,0:0|0:0,0:0:0:0:
88,160,97148,2,0,P|33:126|28:49,2,145,2|2|0,0:0|0:0|0:0,0:0:0:0:
144,96,98329,2,0,P|224:80|272:116,1,145,2|0,0:0|0:0,0:0:0:0:
200,168,99038,2,0,P|259:205|327:187,1,145,2|0,0:0|0:0,0:0:0:0:
412,204,99747,5,2,0:0:0:0:
420,292,99983,2,0,P|328:312|292:276,1,145,2|0,0:0|0:0,0:0:0:0:
216,248,100692,1,2,0:0:0:0:
216,248,100928,2,0,L|72:276,1,145,2|0,0:0|0:0,0:0:0:0:
20,208,101636,1,2,0:0:0:0:
20,208,101873,2,0,P|16:120|52:84,1,145,2|0,0:0|0:0,0:0:0:0:
92,160,102581,1,2,0:0:0:0:
92,160,102818,2,0,L|234:132,1,145,2|0,0:0|0:0,0:0:0:0:
320,128,103526,1,2,0:0:0:0:
372,196,103762,1,2,0:0:0:0:
344,280,103999,6,0,P|220:256|112:364,1,290
28,336,105180,2,0,P|48:240|36:196,1,145,2|0,0:0|0:0,0:0:0:0:
4,116,105888,1,2,0:0:0:0:
4,116,106833,1,2,0:0:0:0:
176,80,107306,5,2,0:0:0:0:
260,100,107542,2,0,P|212:159|138:158,1,145,2|0,0:0|0:0,0:0:0:0:
176,80,108251,1,2,0:0:0:0:
176,80,108487,2,0,L|320:36,1,145,2|0,0:0|0:0,0:0:0:0:
348,120,109195,1,2,0:0:0:0:
348,120,109432,2,0,P|353:195|414:237,1,145,2|0,0:0|0:0,0:0:0:0:
428,152,110140,1,2,0:0:0:0:
428,152,110377,2,0,L|335:33,1,145,2|0,0:0|0:0,0:0:0:0:
256,8,111085,1,2,0:0:0:0:
204,80,111321,1,2,0:0:0:0:
256,148,111558,5,0,0:0:0:0:
256,192,111794,12,4,113447,0:0:0:0:
