osu file format v14

[General]
AudioFilename: Deemo - Rayark selection vol.3 #9 - The Truth That You Leave.mp3
AudioLeadIn: 0
PreviewTime: 76833
Countdown: 0
SampleSet: Soft
StackLeniency: 0.3
Mode: 0
LetterboxInBreaks: 0
EpilepsyWarning: 1
WidescreenStoryboard: 1

[Editor]
DistanceSpacing: 1.2
BeatDivisor: 4
GridSize: 4
TimelineZoom: 1

[Metadata]
Title:The Truth That You Leave
TitleUnicode:The Truth That You Leave
Artist:Pianoboy
ArtistUnicode:Pianoboy
Creator:Pappy
Version:Normal
Source:Deemo
Tags:rayark games selection vol.3 cytus Desperate-kun
BeatmapID:678351
BeatmapSetID:302664

[Difficulty]
HPDrainRate:4
CircleSize:3
OverallDifficulty:4
ApproachRate:5
SliderMultiplier:1.1
SliderTickRate:1

[Events]
//Background and Video events
0,0,"BG.jpg",0,0
//Break Periods
//Storyboard Layer 0 (Background)
//Storyboard Layer 1 (Fail)
//Storyboard Layer 2 (Pass)
//Storyboard Layer 3 (Foreground)
//Storyboard Sound Samples

[TimingPoints]
17070,472.44094488189,4,2,1,40,1,0
44471,-100,4,2,0,20,0,0
44707,-100,4,2,0,20,0,0
44944,-100,4,2,0,25,0,0
45180,-100,4,2,0,30,0,0
45416,-100,4,2,0,40,0,0
46833,-100,4,2,1,45,0,0
77542,-100,4,2,1,45,0,1
90770,-100,4,2,0,20,0,1
91715,-100,4,2,1,45,0,1
113447,-100,4,2,0,25,0,0
122896,983.606557377049,4,2,1,30,1,0
124125,1000,4,2,1,30,1,0
124375,1034.48275862069,4,2,1,30,1,0
124633,1052.63157894737,4,2,1,30,1,0
124896,1176.47058823529,4,2,1,30,1,0
125190,1200,4,2,1,30,1,0
125490,1212.12121212121,4,2,1,30,1,0
125793,1304.34782608696,4,2,1,30,1,0
126119,1276.59574468085,4,2,1,30,1,0
126757,2727.27272727273,4,2,1,30,1,0
127438,631.578947368421,4,2,1,20,1,0
128385,923.076923076923,4,2,1,20,1,0
129077,1111.11111111111,4,2,1,20,1,0

[Colours]
Combo1 : 196,196,196
Combo2 : 186,217,185
Combo3 : 124,187,211
SliderBorder : 210,210,210

[HitObjects]
116,52,17070,6,0,L|228:40,1,110,2|0,0:0|0:0,0:0:0:0:
332,92,18014,2,0,P|324:164|348:196,1,110,2|0,0:0|0:0,0:0:0:0:
400,224,18723,1,2,0:0:0:0:
308,320,19195,6,0,L|252:328,1,55,2|2,0:0|0:0,0:0:0:0:
192,300,19668,1,0,0:0:0:0:
136,272,19904,2,0,P|152:220|132:168,1,110,2|0,0:0|0:0,0:0:0:0:
76,136,20613,1,2,0:0:0:0:
176,48,21085,6,0,B|272:20|320:96|320:96|380:88|424:128,1,275,2|0,0:0|0:0,0:0:0:0:
336,228,22739,2,0,P|252:208|228:139,2,165,2|2|2,0:0|0:0|0:0,0:0:0:0:
468,248,24629,5,0,0:0:0:0:
424,296,24865,2,0,L|320:336,1,110,2|0,0:0|0:0,0:0:0:0:
256,340,25573,2,0,P|212:312|156:320,1,110,2|2,0:0|0:0,0:0:0:0:
96,344,26282,1,0,0:0:0:0:
80,216,26755,6,0,L|64:104,1,110,2|0,0:0|0:0,0:0:0:0:
48,44,27463,2,0,P|140:64|152:60,1,110,2|0,0:0|0:0,0:0:0:0:
212,32,28172,1,2,0:0:0:0:
344,48,28644,6,0,P|368:100|356:152,1,110,2|0,0:0|0:0,0:0:0:0:
236,204,29589,2,0,L|184:184,1,55,0|0,0:0|0:0,0:0:0:0:
124,156,30062,2,0,P|136:208|120:264,1,110,2|2,0:0|0:0,0:0:0:0:
228,340,31007,1,2,0:0:0:0:
288,312,31243,2,0,P|336:312|364:320,1,55,0|0,0:0|0:0,0:0:0:0:
404,332,31715,1,0,0:0:0:0:
468,320,31951,6,0,P|488:236|344:160,1,275,2|0,0:0|0:0,0:0:0:0:
284,188,33369,1,2,0:0:0:0:
224,164,33605,1,0,0:0:0:0:
208,100,33841,2,0,P|72:88|52:200,1,275
160,272,35495,1,0,0:0:0:0:
160,272,35967,6,0,L|276:280,1,110,2|2,0:0|0:0,0:0:0:0:
336,280,36676,2,0,P|388:284|436:252,1,110,2|0,0:0|0:0,0:0:0:0:
440,120,37621,1,2,0:0:0:0:
376,108,37857,2,0,B|296:76|296:124|212:100,2,165
384,240,39747,5,0,0:0:0:0:
320,256,39983,2,0,L|204:276,1,110,2|0,0:0|0:0,0:0:0:0:
144,280,40692,2,0,P|100:244|92:192,1,110,2|2,0:0|0:0,0:0:0:0:
116,132,41400,1,0,0:0:0:0:
248,148,41873,6,0,L|356:129,1,110,2|0,0:0|0:0,0:0:0:0:
424,136,42581,2,0,P|457:152|480:158,2,55,2|0|0,0:0|0:0|0:0,0:0:0:0:
400,76,43290,1,2,0:0:0:0:
268,76,43762,6,0,P|260:136|284:192,1,110,2|0,0:0|0:0,0:0:0:0:
324,228,44471,2,0,P|320:284|312:296,1,55,2|0,0:0|0:0,0:0:0:0:
268,320,44944,2,0,P|211:316|200:308,1,55,0|0,0:0|0:0,0:0:0:0:
160,280,45416,1,2,0:0:0:0:
160,280,46833,5,2,0:0:0:0:
160,280,47070,2,0,L|140:172,1,110,2|0,0:0|0:0,0:0:0:0:
132,108,47778,1,2,0:0:0:0:
132,108,48014,2,0,P|176:72|228:76,1,110,2|0,0:0|0:0,0:0:0:0:
280,112,48723,5,2,0:0:0:0:
280,112,48959,2,0,L|388:88,1,110,2|0,0:0|0:0,0:0:0:0:
452,84,49668,1,2,0:0:0:0:
452,84,49904,2,0,P|432:144|448:192,1,110,2|0,0:0|0:0,0:0:0:0:
476,244,50613,6,0,L|504:292,2,55,2|0|2,0:0|0:0|0:0,0:0:0:0:
360,304,51558,2,0,L|365:359,1,55,2|2,0:0|0:0,0:0:0:0:
236,332,52266,2,0,P|168:328|128:348,1,110,2|0,0:0|0:0,0:0:0:0:
88,296,52975,2,0,P|125:239|128:194,1,110,2|2,0:0|0:0,0:0:0:0:
124,132,53684,1,0,0:0:0:0:
124,132,54392,5,2,0:0:0:0:
140,68,54629,2,0,P|188:44|248:44,1,110,2|0,0:0|0:0,0:0:0:0:
284,92,55337,1,2,0:0:0:0:
284,92,55573,2,0,L|396:84,1,110,2|0,0:0|0:0,0:0:0:0:
456,112,56282,6,0,P|464:156|460:172,1,55,2|2,0:0|0:0,0:0:0:0:
312,296,57227,2,0,P|309:268|318:242,1,55,2|2,0:0|0:0,0:0:0:0:
316,112,57936,2,0,P|291:107|264:92,1,55,0|2,0:0|0:0,0:0:0:0:
232,36,58408,6,0,P|147:123|140:40,1,275
139,42,60534,1,2,0:0:0:0:
139,42,61479,2,0,L|124:152,1,110,2|2,0:0|0:0,0:0:0:0:
136,216,62188,6,0,P|200:244|280:204,1,165,2|2,0:0|0:0,0:0:0:0:
332,164,63132,2,0,P|411:157|467:213,1,165,2|2,0:0|0:0,0:0:0:0:
472,280,64077,2,0,L|496:108,1,165,2|2,0:0|0:0,0:0:0:0:
500,52,65022,1,2,0:0:0:0:
380,80,65495,1,0,0:0:0:0:
380,80,65731,2,0,P|352:84|320:80,1,55,2|0,0:0|0:0,0:0:0:0:
284,28,66203,6,0,P|224:20|176:36,1,110,2|0,0:0|0:0,0:0:0:0:
180,100,66912,2,0,P|240:108|288:92,2,110,2|2|0,0:0|0:0|0:0,0:0:0:0:
120,68,68093,2,0,P|56:112|32:192,1,165,2|2,0:0|0:0,0:0:0:0:
192,312,69510,5,2,0:0:0:0:
256,288,69747,2,0,P|312:288|360:312,1,110,2|0,0:0|0:0,0:0:0:0:
416,344,70455,1,2,0:0:0:0:
416,344,70692,2,0,L|408:232,1,110,2|0,0:0|0:0,0:0:0:0:
400,168,71400,5,2,0:0:0:0:
400,168,71636,2,0,P|348:172|312:132,1,110,2|0,0:0|0:0,0:0:0:0:
304,64,72345,1,2,0:0:0:0:
304,64,72581,2,0,L|196:80,1,110,2|0,0:0|0:0,0:0:0:0:
128,88,73290,2,0,P|72:78|43:60,2,55,2|0|0,0:0|0:0|0:0,0:0:0:0:
256,192,73999,12,2,75652,0:0:0:0:
256,104,77542,6,0,P|320:104|360:84,1,110,0|2,0:0|0:0,0:0:0:0:
412,40,78251,2,0,L|424:156,1,110,2|0,0:0|0:0,0:0:0:0:
432,216,78959,5,2,0:0:0:0:
432,216,79195,2,0,P|376:216|336:248,1,110,2|0,0:0|0:0,0:0:0:0:
276,280,79904,2,0,P|240:288|212:284,1,55,2|2,0:0|0:0,0:0:0:0:
176,164,80613,2,0,P|212:156|240:160,2,55,0|2|2,0:0|0:0|0:0,0:0:0:0:
116,172,81321,6,0,L|172:68,1,110,2|2,0:0|0:0,0:0:0:0:
224,40,82030,2,0,P|280:48|328:24,1,110,2|0,0:0|0:0,0:0:0:0:
456,68,82975,1,0,0:0:0:0:
456,68,83211,2,0,L|464:180,1,110,2|2,0:0|0:0,0:0:0:0:
468,244,83920,1,2,0:0:0:0:
272,220,84629,1,2,0:0:0:0:
220,180,84865,6,0,P|172:204|148:260,1,110,2|0,0:0|0:0,0:0:0:0:
200,292,85573,1,2,0:0:0:0:
200,292,85810,2,0,P|248:268|272:212,1,110,2|0,0:0|0:0,0:0:0:0:
220,180,86518,5,2,0:0:0:0:
156,184,86755,2,0,P|116:116|124:92,1,110,2|0,0:0|0:0,0:0:0:0:
180,56,87463,2,0,L|236:44,1,55,2|2,0:0|0:0,0:0:0:0:
344,120,88172,2,0,L|400:128,2,55,2|2|0,0:0|0:0|0:0,0:0:0:0:
256,192,88881,12,2,90770,0:0:0:0:
256,192,91715,5,2,0:0:0:0:
132,148,92188,5,2,0:0:0:0:
132,148,92424,2,0,P|124:216|171:300,1,165,2|2,0:0|0:0,0:0:0:0:
236,308,93369,2,0,L|394:259,1,165,2|2,0:0|0:0,0:0:0:0:
444,216,94314,6,0,P|453:135|409:67,1,165,2|2,0:0|0:0,0:0:0:0:
352,32,95258,2,0,P|304:100|348:164,1,165,2|2,0:0|0:0,0:0:0:0:
408,164,96203,1,2,0:0:0:0:
444,216,96440,6,0,P|448:252|400:304,1,110,2|0,0:0|0:0,0:0:0:0:
340,284,97148,2,0,B|329:254|329:254|299:227|304:180,2,110,2|0|0,0:0|0:0|0:0,0:0:0:0:
356,348,98329,2,0,L|192:372,2,165,2|2|2,0:0|0:0|0:0,0:0:0:0:
408,308,99983,6,0,P|420:236|356:180,1,165,2|2,0:0|0:0,0:0:0:0:
292,184,100928,2,0,L|128:208,1,165,2|2,0:0|0:0,0:0:0:0:
64,220,101873,5,2,0:0:0:0:
188,68,102581,1,2,0:0:0:0:
188,68,102818,1,2,0:0:0:0:
316,96,103290,2,0,P|360:96|380:88,2,55,0|2|2,0:0|0:0|0:0,0:0:0:0:
256,192,103999,12,2,105888,0:0:0:0:
256,192,106833,6,0,P|228:140|240:72,1,110,2|2,0:0|0:0,0:0:0:0:
284,48,107542,2,0,P|343:49|395:94,1,110,2|2,0:0|0:0,0:0:0:0:
384,144,108251,2,0,L|400:196,1,55,2|2,0:0|0:0,0:0:0:0:
264,332,109195,5,2,0:0:0:0:
264,332,109432,2,0,P|180:316|100:344,1,165,2|2,0:0|0:0,0:0:0:0:
48,368,110377,2,0,L|56:252,1,110,2|0,0:0|0:0,0:0:0:0:
68,192,111085,2,0,P|80:172|104:152,1,55,2|2,0:0|0:0,0:0:0:0:
256,192,111558,12,4,113447,0:0:0:0:
