osu file format v5

[General]
AudioFilename: Pi Story - Joker Junior Boss Music.mp3
AudioLeadIn: 1996
PreviewTime: -1
Countdown: 1
SampleSet: Soft

[Metadata]
Title:Joker Junior Boss Music
Artist:Pi Story
Creator:Suvi
Version:Normal

[Difficulty]
HPDrainRate:3
CircleSize:5
OverallDifficulty:7
SliderMultiplier:1.6
SliderTickRate:1

[Events]
//Background and Video events
//Break Periods
//Storyboard Layer 0 (Background)
//Storyboard Layer 1 (Failing)
//Storyboard Layer 2 (Passing)
//Storyboard Layer 3 (Foreground)
//Storyboard Sound Samples
//Background Colour Transformations
3,100,163,162,255

[TimingPoints]
120,382.165605095541,4,2,0,100
15400,382.165605095541,4,1,0,100
55140,382.165605095541,4,2,0,100
73480,382.165605095541,4,1,0,100

[HitObjects]
64,64,120,1,0
448,64,884,1,0
160,160,1648,1,0
352,160,2412,1,0
64,320,3177,1,0
448,320,3941,1,0
160,224,4705,1,0
352,224,5470,1,0
256,192,6234,1,0
192,224,6616,5,0
320,224,6998,1,0
256,128,7381,1,4
32,192,8145,1,0
96,160,8336,1,0
96,288,8718,1,0
160,256,8909,1,0
224,288,9100,1,0
160,320,9291,1,4
223,158,9674,6,0,B|236:120|276:115|303:113|320:124|344:140|353:166|359:177,1,160
285,189,10438,1,0
64,65,11202,1,0
109,110,11393,1,0
152,63,11584,1,0
196,109,11776,1,0
237,60,11967,1,0
276,110,12158,1,0
396,66,12540,5,2
396,66,12731,1,0
396,66,12922,1,4
399,193,13304,1,2
399,193,13495,1,0
399,193,13686,1,4
401,321,14069,1,2
401,321,14260,1,0
401,321,14451,1,4
273,318,14833,1,2
273,318,15024,1,0
273,318,15215,1,4
271,256,15400,5,4
65,62,16928,1,4
67,189,17310,1,4
68,317,17693,1,4
163,318,17979,1,4
163,286,18074,1,4
224,305,18266,1,4
274,265,18457,1,0
199,160,18839,1,0
262,157,19030,1,0
389,157,19412,1,0
261,158,19794,1,0
63,65,20559,5,0
94,64,20654,1,0
125,69,20750,1,0
63,65,20941,1,0
126,69,21132,1,0
87,119,21323,1,0
136,159,21514,1,4
248,98,21896,1,0
293,142,22087,1,0
293,270,22470,1,0
398,197,22852,1,4
270,205,23616,6,4,B|223:205,6,40
320,165,24380,1,0
383,162,24571,1,0
428,207,24763,1,0
383,162,24954,1,0
320,165,25145,1,0
320,292,25527,1,0
194,315,25909,2,4,B|151:294|130:256|135:213|152:189|178:179,1,160
208,233,26482,1,0
144,234,26673,1,0
169,108,27056,1,0
355,63,27629,5,0
407,98,27820,1,0
349,126,28011,1,0
355,63,28202,1,0
349,126,28393,1,0
401,162,28584,1,0
357,282,28966,1,4
357,282,29062,1,4
357,282,29157,1,4
310,237,29349,1,0
274,290,29540,1,0
229,244,29731,1,0
134,161,30105,1,0
450,64,30686,5,0
322,65,31068,1,0
323,128,31259,1,0
197,101,31642,2,0,B|167:136|179:169|261:170|263:206|228:234|213:242,1,160
93,94,32789,1,4
93,94,32884,1,4
93,94,32980,1,4
93,157,33170,1,4
93,157,33266,1,4
93,157,33361,1,4
151,131,33552,1,0
153,195,33744,5,0
117,317,34126,1,0
180,317,34317,1,0
289,250,34699,1,0
383,163,35081,1,0
217,160,35845,2,4,B|256:131|299:165,4,80
217,160,36705,1,0
216,159,36801,1,0
161,192,36992,1,0
161,192,37183,1,0
107,156,37374,1,0
210,231,37756,1,0
85,259,38138,5,0
210,231,38521,1,0
260,191,38712,1,0
257,127,38903,1,0
384,127,39285,1,0
383,254,39858,1,0
319,254,40049,1,0
383,254,40240,1,0
446,258,40431,1,0
383,254,40622,1,0
381,318,40814,1,0
255,295,41196,5,4
231,273,41291,1,4
258,257,41387,1,4
212,212,41578,1,0
260,170,41769,1,0
304,216,41960,1,0
259,96,42342,1,0
67,97,42915,5,0
62,161,43107,1,4
93,160,43202,1,4
124,163,43298,1,4
187,164,43489,1,0
228,212,43680,1,0
179,253,43871,1,0
227,294,44062,1,0
281,327,44253,1,0
334,291,44444,1,0
378,337,44635,1,0
334,289,44826,1,0
286,245,45017,1,0
334,291,45208,1,0
387,255,45399,1,0
388,190,45591,1,0
385,126,45782,1,0
321,127,45973,5,0
257,128,46164,1,4
236,103,46259,1,4
212,80,46355,1,4
161,119,46546,1,0
162,182,46737,1,0
157,245,46928,1,0
102,212,47119,1,0
102,148,47310,1,0
45,178,47501,1,0
45,49,47884,5,0
172,47,48266,1,0
98,151,48648,1,0
202,225,49030,1,4
202,225,49126,1,4
202,225,49221,1,4
251,184,49412,1,0
296,229,49603,1,0
340,183,49794,1,4
340,183,49890,1,4
340,183,49985,1,4
295,137,50177,1,0
356,118,50368,1,0
312,71,50559,5,4
312,71,50654,1,4
312,71,50750,1,4
251,91,50941,1,0
200,52,51132,1,0
151,94,51323,1,4
151,94,51419,1,4
151,94,51514,1,4
202,132,51705,1,0
151,171,51896,1,0
200,211,52087,5,4
200,211,52183,1,4
200,211,52278,1,4
252,173,52470,1,0
304,209,52661,1,0
301,272,52852,1,4
301,272,52947,1,4
301,272,53043,1,4
252,314,53234,1,0
193,288,53425,1,0
141,325,53616,1,0
95,280,53807,1,0
46,238,53998,1,4
146,159,54380,1,4
36,92,54763,1,4
158,54,55145,5,4
216,234,55522,1,2
264,192,55713,1,2
317,156,55904,1,2
341,281,56286,1,4
317,156,56668,1,2
265,194,56859,1,2
213,232,57050,1,2
115,314,57432,1,0
164,195,57815,1,2
213,234,58006,1,2
262,194,58197,1,2
313,247,58388,1,2
352,196,58579,1,2
309,75,58961,5,0
250,48,59152,1,0
193,77,59343,1,4
256,187,59725,1,0
254,251,59917,1,0
203,289,60108,1,2
230,304,60203,1,2
259,318,60299,1,2
317,291,60490,1,4
379,175,60872,5,2
379,175,60968,1,2
379,175,61063,1,2
321,147,61254,1,0
269,184,61445,1,0
221,140,61636,1,0
174,183,61827,1,0
127,139,62018,1,2
127,139,62114,1,2
127,139,62210,1,2
170,92,62401,1,0
230,70,62592,1,0
293,73,62783,1,4
256,195,63165,5,0
192,306,63547,1,0
130,288,63738,1,0
121,224,63929,1,4
191,94,64503,1,0
254,94,64694,1,0
191,94,64885,1,0
221,150,65076,1,0
191,94,65267,1,2
279,186,65649,5,0
338,162,65840,1,0
318,101,66031,1,0
338,162,66222,1,0
279,186,66413,1,2
346,295,66796,5,0
395,254,66987,1,0
447,290,67178,1,0
422,349,67369,1,0
358,358,67560,1,2
294,245,67942,5,0
232,227,68133,1,0
294,245,68324,1,0
281,182,68515,1,0
232,227,68706,1,2
168,115,69089,5,0
213,69,69280,1,0
256,116,69471,1,0
299,68,69662,1,0
339,117,69853,1,2
359,92,69948,1,2
384,71,70044,1,2
433,111,70235,1,0
392,160,70426,1,0
432,209,70617,1,0
382,249,70808,1,0
427,294,70999,1,2
403,316,71095,1,2
379,337,71190,1,2
330,294,71382,5,0
266,300,71573,1,0
260,236,71764,1,0
262,172,71955,1,0
189,66,72337,1,0
137,104,72528,1,0
194,132,72719,1,0
189,66,72910,1,0
137,104,73101,1,4
48,196,73489,5,0
50,323,73871,1,0
176,327,74253,1,0
146,270,74444,1,0
210,269,74635,1,0
214,205,74826,1,4
238,183,74922,1,4
257,208,75017,1,4
275,181,75113,1,4
293,206,75208,1,4
315,182,75304,1,4
335,206,75399,1,4
356,181,75495,1,4
374,207,75591,1,4
259,65,75772,5,0
387,62,76155,1,0
425,113,76346,1,0
433,240,76728,1,0
334,322,77110,1,0
122,178,77874,1,4
122,178,77970,1,4
122,178,78065,1,4
163,129,78256,1,4
163,129,78352,1,4
163,129,78447,1,4
185,189,78639,1,0
295,125,78830,5,0
289,252,79212,1,0
335,208,79403,1,0
229,135,79785,1,0
104,165,80167,1,4
358,134,80932,1,0
410,170,81123,1,0
464,203,81314,1,0
409,168,81505,1,0
365,214,81696,1,0
318,258,81887,5,0
318,258,82078,1,0
318,258,82269,1,0
318,258,82460,1,0
222,172,82843,1,0
309,79,83225,2,0,B|282:25|189:24|177:52|157:93|177:76,1,160
124,110,83798,1,0
81,157,83989,1,0
182,234,84371,1,4
182,234,84467,1,4
182,234,84562,1,4
182,234,84658,1,4
182,234,84753,1,4
232,195,84944,6,4,B|298:139,1,80
348,176,85327,2,4,B|413:239,1,80
358,275,85709,2,4,B|250:264,1,80
180,101,86473,1,0
129,140,86664,1,0
136,203,86855,1,0
80,234,87046,1,4
75,110,88002,6,0,B|116:72|149:63|184:88|204:134|238:164|286:145|311:98|335:62|391:72|384:77,1,320
388,97,88862,1,0
383,128,88957,1,0
407,148,89053,1,0
389,174,89148,1,0
414,193,89244,1,0
388,211,89339,1,0
413,229,89435,1,0
385,245,89530,1,0
358,262,89626,1,0
334,239,89722,1,0
314,264,89817,1,0
290,242,89913,1,0
226,246,90104,6,0,B|180:215|241:174|256:143|212:127|186:77,1,160
141,134,91250,1,0
137,197,91441,1,0
140,133,91632,1,0
145,69,91823,1,0
141,134,92015,1,0
204,140,92206,1,0
140,133,92397,1,0
76,131,92588,1,0
74,194,92779,1,4
74,225,92874,1,4
74,257,92970,1,4
137,262,93161,1,0
224,161,94116,5,4
246,137,94212,1,4
272,155,94308,1,4
280,218,94499,1,0
304,238,94594,1,0
329,218,94690,1,0
365,165,94881,1,4
382,138,94976,1,4
406,158,95072,1,4
441,211,95263,1,0
462,234,95358,1,0
449,263,95454,1,0
403,308,95645,5,4
384,334,95741,1,4
355,320,95836,1,4
292,307,96027,1,0
273,280,96123,1,0
249,301,96218,1,0
185,299,96409,1,4
162,322,96505,1,4
135,304,96601,1,4
130,240,96792,1,0
100,227,96887,1,0
117,200,96983,1,0
116,136,97174,5,4
163,93,97365,1,4
251,185,97747,2,0,B|292:129|259:93|309:60|358:45|415:60|443:75|443:140|428:210|434:180,1,320
430,206,98607,1,4
413,233,98702,2,0,B|360:296|317:307|257:297|211:258|94:222|158:123|259:57|202:137|299:68|89:142,1,480
124,64,100040,1,4
