osu file format v5

[General]
AudioFilename: phoenix wright compliation.mp3
AudioLeadIn: 1004
PreviewTime: 104521
Countdown: 1
SampleSet: Normal
StackLeniency: 0.7
Mode: 0
EditorBookmarks: 53132,103019,157275,220255,265578

[Metadata]
Title:Compilation
Artist:Phoenix Wright - Sugimori Masakazu
Creator:kingcobra52
Version:Normal

[Difficulty]
HPDrainRate:4
CircleSize:4
OverallDifficulty:4
SliderMultiplier:1.5
SliderTickRate:1

[Events]
//Background and Video events
0,0,"Phoenix-Wright-Ace-Attorney-00.jpg"
//Break Periods
2,48086,52440
2,99307,103081
2,152221,158600
2,217553,219449
2,259970,265780
//Storyboard Layer 0 (Background)
4,0,0,"courtroom.png",0,0 F,0,-1100,770,1,1 F,0,52671,53761,1,1
4,0,0,"wrightwall.jpg",0,0 F,0,52671,53761,0,1 F,0,102993,104143,1,1
4,0,0,"objection!2.png",0,0 F,0,102993,104143,0,1 F,0,158925,159805,1,1
4,0,0,"Phoenix_Wr_2m.jpg",0,0 F,0,158925,159805,0,1 F,0,219529,220509,1,1
4,0,0,"phoenix-wright-3.jpg",0,0 F,0,219529,220509,0,1 F,0,266087,266931,1,1
4,0,0,"Phoenix-Wright-Ace-Attorney-00.jpg",0,0 F,0,266087,266931,0,1 F,0,317048,317500,1,1
//Storyboard Layer 1 (Failing)
//Storyboard Layer 2 (Passing)
//Storyboard Layer 3 (Foreground)
//Storyboard Sound Samples
//Background Colour Transformations
3,100,163,162,255

[TimingPoints]
4686,600,4,1,0,100
53880,476.190476190476,4,1,0,80
104521,500,4,1,0,100
160040,447.761194029851,4,1,0,100
220769,400.0133160032,4,1,0,100
267100,384.615384615385,4,1,0,100

[HitObjects]
96,280,486,2,0,B|218:311|280:168,1,225
168,88,2286,1,0
352,56,3486,1,0
472,200,4686,2,2,B|400:280,1,75
392,288,5286,6,0,B|336:320|312:243|251:164|176:208,1,225
200,56,7086,1,0
48,168,8286,1,0
128,336,9486,2,2,B|224:344,1,75
248,344,10086,6,0,B|443:360|456:240,1,225
440,136,11886,1,0
352,168,12486,2,0,B|288:192,2,37.5
352,96,13236,2,0,B|288:72,2,37.5
240,80,14286,2,2,B|152:112,1,75
128,128,14886,6,0,B|157:253|336:224,1,225
440,224,16686,1,0
360,176,17286,2,0,B|320:144,1,37.5
232,88,18186,2,0,B|168:48,1,37.5
88,48,19086,2,2,B|32:88|48:136,1,75
40,152,19686,5,0
160,224,20586,2,0,B|200:248,1,37.5
280,312,21486,1,0
368,296,22086,2,2,B|424:224|374:107|248:48,1,300
192,72,23736,2,2,B|152:120,3,37.5
136,136,24486,5,0
136,272,25386,2,0,B|136:312,2,37.5
224,272,26286,1,0
312,272,26886,2,2,B|350:237|408:296,5,75
408,232,28686,1,0
432,192,28986,1,0
456,152,29286,6,4,B|408:112,1,37.5
328,64,30186,2,4,B|288:104,1,37.5
144,64,31386,2,4,L|144:232|248:136|248:288,1,450
280,312,33486,1,0
328,312,33786,1,0
376,312,34086,6,4,L|376:272,1,37.5
376,160,34986,2,4,L|376:120,1,37.5
224,64,36186,1,4
144,112,36786,1,0
112,144,37086,1,0
144,176,37386,1,0
112,232,37686,2,0,L|48:304,1,75
96,312,38286,1,0
184,312,38886,6,4,L|224:312,1,37.5
336,312,39786,2,4,L|336:256,1,37.5
352,112,40986,2,4,L|304:160|241:112|182:163|128:108|64:168,1,375
40,216,42786,1,0
40,264,43086,1,0
40,312,43386,1,0
88,312,43686,6,4,L|128:280,1,37.5
208,224,44586,2,4,L|240:200,1,37.5
256,192,45786,12,4,47886
88,120,53880,5,0
88,256,54594,1,0
224,256,55308,1,0
360,256,56022,1,0
440,144,56737,2,2,L|304:24,1,150
232,48,57689,5,2
96,48,58403,1,0
96,184,59118,1,0
232,184,59832,1,0
368,184,60546,2,2,B|440:277|320:328,1,150
256,312,61499,5,2
120,312,62213,1,0
120,176,62927,1,0
120,312,63641,1,0
120,176,64356,2,2,B|256:48,1,150
320,72,65308,5,2
424,160,66022,1,0
320,256,66737,1,0
224,160,67451,1,0
88,160,68165,1,4
88,248,68641,1,4
88,336,69118,5,4
224,336,69832,1,0
360,336,70546,1,0
360,200,71260,1,0
360,64,71975,1,2
448,64,72451,1,2
360,64,72927,5,2
224,64,73641,1,0
88,64,74356,1,0
88,200,75070,1,0
168,312,75784,1,2
248,288,76260,1,2
328,312,76737,5,2
464,312,77451,1,0
464,176,78165,1,0
328,176,78879,1,0
192,176,79594,1,2
192,88,80070,1,2
192,176,80546,5,2
192,312,81260,1,0
328,312,81975,1,0
320,176,82689,1,0
184,176,83403,1,4
88,176,83879,1,4
88,88,84356,5,4
144,88,84594,2,0,B|224:88,1,75
264,88,85070,1,0
312,88,85308,2,0,B|392:88,1,75
432,88,85784,1,0
432,144,86022,2,0,B|432:248,1,75
432,264,86499,1,0
264,264,87213,1,4
168,264,87689,1,4
72,264,88165,5,4
72,216,88403,2,0,B|72:136,1,75
72,96,88879,1,0
120,96,89118,2,0,B|208:96,1,75
240,96,89594,1,0
240,144,89832,2,0,B|240:224,1,75
240,264,90308,1,0
360,336,91022,1,4
448,336,91499,1,4
448,240,91975,5,4
448,192,92213,2,0,B|448:112,1,75
448,72,92689,1,0
400,72,92927,2,0,B|304:72,1,75
280,72,93403,1,0
232,72,93641,2,0,B|144:72,1,75
152,120,94118,1,0
152,256,94832,1,6
240,256,95308,1,6
256,192,95784,12,6,99118
104,64,104521,1,0
144,88,104771,1,0
184,64,105021,1,0
320,64,105771,1,0
376,192,106521,2,2,B|293:236|250:229|208:107|104:320,1,300
200,328,108021,1,2
288,328,108521,5,0
328,312,108771,1,0
360,280,109021,1,0
424,160,109771,1,0
304,88,110521,2,2,B|192:94|160:192|168:184,1,150
112,224,111521,1,0
144,256,111771,1,0
176,280,112021,2,0,B|336:280,1,150
416,232,113021,5,0
408,136,113521,1,0
328,80,114021,1,0
248,32,114521,2,2,B|104:88,1,150
112,176,115521,2,2,B|272:232,1,150
328,280,116521,5,0
368,272,116771,1,0
400,248,117021,1,0
416,112,117771,1,0
280,112,118521,1,0
144,112,119271,1,0
144,248,120021,1,0
200,320,120521,6,2,B|360:320,1,150
352,224,121521,2,2,B|184:224,1,150
200,128,122521,2,2,B|360:128,1,150
352,32,123521,2,2,B|200:32,1,150
112,40,124521,6,0,B|40:120,2,75
64,96,125521,2,0,B|128:176,2,75
152,96,126521,1,2
208,168,127021,1,2
272,232,127521,2,2,B|328:288,1,75
360,312,128021,2,2,B|432:248,1,75
440,224,128521,5,0
424,184,128771,1,0
392,160,129021,1,0
272,72,129771,1,0
136,72,130521,6,0,B|87:163|130:238|234:269|269:162|372:227|416:360,1,450
480,280,132521,5,0
448,240,132771,1,0
480,208,133021,1,0
432,128,133521,1,0
352,72,134021,1,0
256,64,134521,2,2,B|168:64,4,75
256,152,136021,1,2
312,224,136521,6,0,B|272:296|184:304|88:272|56:192,1,300
56,160,137771,1,0
80,120,138021,1,0
112,80,138271,1,0
144,40,138521,2,2,B|296:40,3,150
288,128,140521,5,0
288,176,140771,1,0
288,224,141021,1,0
424,216,141771,1,0
288,224,142521,2,2,L|180:127|68:227|192:328,1,450
232,336,144271,1,2
280,336,144521,5,0
328,312,144771,1,0
368,280,145021,1,0
440,160,145771,1,0
304,152,146521,2,2,B|232:88,4,75
232,216,148021,1,2
256,192,148521,12,4,152021
80,72,160040,6,0,B|192:184,1,150
232,176,160711,2,0,B|344:72,1,150
376,104,161383,2,0,B|480:232,1,150
472,264,162054,1,0
344,320,162726,1,4
248,320,163174,1,4
152,320,163622,6,0,B|48:208,1,150
48,160,164293,2,0,B|184:72,1,150
216,72,164965,2,0,B|368:72,1,150
408,72,165637,1,0
416,208,166308,2,2,B|280:312,1,150
208,320,167204,6,0,B|40:240,1,150
72,208,167875,2,0,B|240:152,1,150
256,160,168547,2,0,B|408:216,1,150
440,232,169219,1,0
448,96,169890,1,4
360,64,170338,1,4
272,104,170786,6,0,B|104:32,1,150
96,72,171457,2,0,B|40:224,1,150
88,232,172129,2,0,B|232:160,1,150
264,144,172801,1,0
376,224,173472,1,4
376,312,173920,1,4
280,312,174368,5,0
144,312,175039,1,0
144,176,175711,1,0
144,80,176159,1,0
192,80,176383,1,0
328,80,177054,1,4
328,168,177502,1,4
416,168,177950,5,4
416,304,178622,1,0
416,168,179293,1,0
320,168,179741,1,0
272,168,179965,1,0
136,168,180637,1,2
72,232,181084,1,2
136,296,181532,6,0,B|304:336,1,150
328,328,182204,2,0,B|496:288,1,150
472,248,182875,1,0
472,152,183323,1,0
472,104,183547,1,0
384,48,183995,1,0
336,48,184219,2,2,B|224:152,1,150
152,208,185114,5,0
88,280,185562,1,0
120,312,185786,1,0
200,352,186234,1,0
240,328,186457,1,0
320,288,186905,1,0
360,264,187129,1,0
440,216,187577,1,0
480,192,187801,1,4
480,96,188248,1,4
400,48,188696,6,0,B|248:48,1,150
200,56,189368,2,0,B|288:192,1,150
304,224,190040,2,0,B|456:224,1,150
456,272,190711,2,0,B|304:272,1,150
256,272,191383,1,0
160,272,191831,1,0
96,208,192278,6,0,B|8:80,1,150
40,48,192950,2,0,B|200:80,1,150
224,104,193622,2,0,B|272:264,1,150
232,280,194293,2,0,B|72:200,1,150
48,200,194965,1,0
48,104,195413,1,0
136,104,195860,6,0,B|176:104,4,37.5
136,152,196532,2,0,B|192:152,4,37.5
136,200,197204,2,0,B|176:200,4,37.5
136,248,197875,1,0
264,288,198547,1,4
320,208,198995,1,4
376,136,199442,6,0,B|296:64,1,75
272,72,199890,2,0,B|184:48,1,75
152,64,200338,2,0,B|64:128,1,75
80,152,200786,2,0,B|152:224,1,75
112,248,201234,2,0,B|56:320,1,75
104,336,201681,2,0,B|192:360,1,75
224,344,202129,1,4
304,304,202577,1,4
392,296,203025,6,0,B|392:216,1,75
264,48,205487,1,0
240,48,205599,1,0
216,48,205711,1,0
168,48,205935,2,2,B|168:128,4,75
72,312,208174,6,0,B|160:344,1,75
184,344,208622,1,0
216,312,208845,1,0
248,344,209069,1,0
280,312,209293,1,0
312,344,209517,1,0
344,312,209741,1,0
376,344,209965,1,0
408,312,210189,2,4,B|496:312,1,75
328,80,211756,5,0
296,80,211868,1,0
272,80,211980,2,0,B|106:85|72:288,1,300
168,272,213323,1,0
256,272,213771,2,4,B|336:272,1,75
480,24,216234,2,4,B|408:80,1,75
376,80,216681,2,0,B|304:32,1,75
264,48,217129,1,0
224,80,217353,1,0
112,72,220769,5,0
176,104,221069,1,0
240,72,221369,1,0
288,80,221569,6,0,B|384:136|376:224|386:308|269:327|120:320,1,450
112,272,222969,1,0
72,296,223169,2,0,B|-5:311|6:179|54:84|103:51|296:80,1,450
328,96,224569,1,0
296,128,224769,2,0,L|432:184|308:234|456:328,1,450
360,352,226369,2,4,B|192:352,1,150
120,344,227169,2,4,B|120:176,1,150
24,192,227969,6,0,L|21:47|208:48,1,300
264,48,229169,1,0
352,48,229569,2,0,B|464:160,1,150
424,240,230369,1,0
352,296,230769,1,0
264,328,231169,6,0,B|104:264,1,150
128,176,231969,2,0,B|296:120,1,150
272,32,232769,2,0,B|440:96,1,150
440,168,233569,1,0
384,240,233969,1,0
312,296,234369,6,2,B|210:380|144:211|24:304,2,300
256,192,236169,12,4,239569
104,32,239969,1,0
152,80,240269,1,0
200,128,240569,1,0
232,160,240769,2,0,B|304:224|264:368|80:320,1,300
48,192,242169,1,0
48,168,242269,1,0
48,144,242369,2,0,B|85:28|182:8|237:26|300:42,1,300
424,64,243769,6,0,B|424:128,2,37.5
424,152,244369,1,0
368,224,244769,2,0,B|224:312,1,150
152,280,245569,2,4,B|40:152,1,150
64,72,246369,2,4,B|240:88,1,150
304,88,247169,6,0,B|304:238,1,150
304,328,247969,2,0,B|454:328,1,150
456,232,248769,2,0,B|456:82,1,150
360,80,249569,1,0
264,80,249969,1,0
168,88,250369,5,2
40,216,251170,1,2
224,216,251970,1,2
408,216,252770,1,2
344,280,253170,1,2
256,320,253570,5,2
192,296,253870,1,0
144,248,254170,1,0
104,192,254470,1,0
72,128,254770,2,0,B|120:32,2,75
136,136,255470,5,0
200,112,255770,1,0
248,64,256070,1,0
304,104,256370,2,0,B|384:176,2,75
248,152,257070,5,0
248,224,257370,1,0
296,272,257670,1,0
352,304,257970,2,0,B|416:248,2,75
296,344,258670,5,0
224,352,258970,1,0
176,352,259170,5,4
120,304,259470,1,4
88,240,259770,1,4
232,216,267100,5,0
368,216,267869,1,0
480,72,268638,2,2,B|328:48,1,150
240,56,269407,2,2,B|88:104,1,150
40,176,270176,2,2,B|120:328,1,150
200,320,270946,1,0
288,328,271330,1,0
360,272,271715,6,0,B|464:144,1,150
432,64,272484,2,0,B|256:64,1,150
192,64,273253,2,0,B|80:192,1,150
136,256,274023,2,2,B|207:312|272:248,2,150
72,184,275176,5,0
64,88,275561,1,0
152,80,275946,1,0
224,24,276330,1,0
296,80,276715,1,0
376,24,277100,1,0
448,80,277484,1,0
448,168,277869,6,0,B|448:320,1,150
352,320,278638,2,0,B|248:192,1,150
200,128,279407,2,2,B|72:232,1,150
72,264,279984,2,2,B|112:304,2,37.5
144,328,280561,1,2
224,328,280946,6,0,B|376:328,2,150
224,248,282100,1,0
224,152,282484,2,0,B|72:152,2,150
224,48,283638,1,0
304,56,284023,2,0,B|416:40|480:120|384:264,1,300
344,336,285176,1,0
256,312,285561,2,2,B|88:272,1,150
112,184,286330,2,2,B|264:144,1,150
352,144,287100,5,0
352,48,287484,1,0
256,48,287869,1,0
256,144,288253,1,0
160,144,288638,1,0
160,48,289023,1,0
64,48,289407,1,0
64,144,289792,1,0
56,232,290176,2,2,B|99:342|237:346|362:323|448:184,1,450
440,112,291715,1,2
312,56,292292,2,0,B|264:64|264:56,2,37.5
216,72,292869,1,0
200,160,293253,6,0,B|148:44|43:91|11:144|29:276|103:313|192:360,1,450
264,344,294792,2,0,B|304:336|432:312|448:196|255:204|237:133|299:49|432:48,1,450
440,72,296138,1,0
472,104,296330,2,0,B|472:264,3,150
384,280,297869,2,2,B|224:312,1,150
144,296,298638,2,2,B|80:144,1,150
80,64,299407,6,0,L|217:35|177:166|352:104,1,450
376,192,300946,2,0,L|213:250|290:328|104:384,1,450
256,192,302484,12,2,304023
72,256,304407,5,2
136,320,304792,1,2
200,256,305176,1,2
264,320,305561,6,0,B|360:328|464:288|472:192|456:96|440:40|328:40,1,450
256,32,307100,2,0,B|165:25|61:65|53:161|104:232,1,300
128,288,308253,2,0,B|40:288,2,75
192,352,309023,1,2
272,304,309407,1,2
352,256,309792,1,2
288,184,310176,2,2,B|168:88,1,150
240,32,310946,2,2,B|368:128,1,150
256,192,311715,12,2,313253
208,104,313638,5,0
112,104,314023,1,0
112,288,314792,2,0,B|272:288,2,150
112,192,315946,1,4
160,192,316138,1,4
208,192,316330,1,4
