osu file format v5

[General]
AudioFilename: phoenix wright compliation.mp3
AudioLeadIn: 1004
PreviewTime: 104521
Countdown: 1
SampleSet: Normal
StackLeniency: 0.7
Mode: 0
EditorBookmarks: 53132,103019,157275,220255,265578

[Metadata]
Title:Compilation
Artist:Phoenix Wright - Sugimori Masakazu
Creator:kingcobra52
Version:Hard

[Difficulty]
HPDrainRate:6
CircleSize:6
OverallDifficulty:6
SliderMultiplier:1.6
SliderTickRate:1

[Events]
//Background and Video events
0,0,"Phoenix-Wright-Ace-Attorney-00.jpg"
//Break Periods
2,48086,52440
2,99307,103081
2,152221,158600
2,217553,219719
2,259970,265780
//Storyboard Layer 0 (Background)
4,0,0,"courtroom.png",0,0 F,0,-1100,770,1,1 F,0,52671,53761,1,1
4,0,0,"wrightwall.jpg",0,0 F,0,52671,53761,0,1 F,0,102993,104143,1,1
4,0,0,"objection!2.png",0,0 F,0,102993,104143,0,1 F,0,158925,159805,1,1
4,0,0,"Phoenix_Wr_2m.jpg",0,0 F,0,158925,159805,0,1 F,0,219529,220509,1,1
4,0,0,"phoenix-wright-3.jpg",0,0 F,0,219529,220509,0,1 F,0,266087,266931,1,1
4,0,0,"Phoenix-Wright-Ace-Attorney-00.jpg",0,0 F,0,266087,266931,0,1 F,0,317048,317500,1,1
//Storyboard Layer 1 (Failing)
//Storyboard Layer 2 (Passing)
//Storyboard Layer 3 (Foreground)
//Storyboard Sound Samples
//Background Colour Transformations
3,100,163,162,255

[TimingPoints]
4686,600,4,1,0,100
53880,476.190476190476,4,1,0,80
104521,500,4,1,0,100
160040,447.761194029851,4,1,0,100
220769,400.0133160032,4,1,0,100
267100,384.615384615385,4,1,0,100

[HitObjects]
56,56,486,2,0,B|178:25|216:104,1,160
256,136,1386,1,0
384,312,2286,1,0
240,296,2886,1,0
96,264,3486,1,0
40,128,4086,1,0
168,56,4686,2,2,B|272:56,1,80
320,56,5286,6,0,B|384:18|418:101|488:48,1,160
472,128,6186,2,0,B|424:168,2,40
368,232,7086,1,0
264,328,7686,1,0
152,232,8286,1,0
264,328,8886,1,0
368,232,9486,2,2,B|320:144,1,80
272,120,10086,6,0,B|263:220|128:216,1,160
96,176,10986,2,0,B|48:144,2,40
176,56,11886,1,0
320,56,12486,2,0,B|392:56,1,40
392,56,12786,1,0
400,168,13236,2,0,B|336:168,1,40
320,168,13536,1,0
176,176,14136,1,2
176,208,14286,2,2,B|232:240,2,40
168,280,14886,6,0,B|232:304|296:288|352:264,1,160
384,240,15786,1,0
416,224,15936,1,0
440,200,16086,1,0
440,56,16686,1,0
296,56,17286,2,0,B|248:56,1,40
144,56,17886,1,0
72,56,18186,2,0,B|72:112,1,40
56,240,18936,1,2
64,272,19086,1,2
88,296,19236,1,2
120,320,19386,1,2
192,320,19686,5,0
264,320,19986,1,0
336,320,20286,1,0
408,320,20586,2,0,B|408:272,1,40
424,96,21486,1,0
368,40,21786,1,0
296,40,22086,2,0,B|240:40,1,40
224,40,22386,1,0
112,40,22836,2,0,B|160:40,1,40
184,40,23136,1,0
184,184,23736,1,2
152,208,23886,1,2
120,184,24036,1,2
88,208,24186,1,2
48,272,24486,5,0
104,320,24786,1,0
160,272,25086,1,0
232,272,25386,2,0,B|232:328,2,40
376,272,26286,1,0
424,224,26586,1,0
384,160,26886,2,0,B|344:136,1,40
240,128,27486,1,0
168,136,27786,2,0,B|112:152,1,40
56,272,28536,1,0
88,296,28686,2,0,B|128:328,1,40
152,320,28986,2,0,B|192:288,1,40
208,264,29286,5,4
232,240,29436,1,4
312,160,29886,1,0
360,104,30186,1,4
384,80,30336,1,4
200,72,31086,1,0
128,72,31386,2,4,L|128:240|232:144|232:264,1,400
200,296,33186,1,0
224,320,33336,1,0
256,320,33486,2,0,B|296:280,1,40
312,264,33786,2,0,B|344:224,1,40
360,208,34086,5,4
384,176,34236,1,4
384,64,34686,1,0
312,64,34986,1,4
272,64,35136,1,4
88,64,35886,1,0
88,136,36186,1,4
208,224,36786,1,0
264,272,37086,1,0
320,320,37386,1,0
376,272,37686,1,0
424,216,37986,1,0
424,144,38286,2,0,B|352:88,1,80
296,56,38886,5,4
264,80,39036,1,4
176,144,39486,1,0
224,192,39786,1,4
248,216,39936,1,4
392,328,40686,1,0
336,280,40986,2,4,L|288:328|225:280|166:331|112:276|24:344,1,400
24,304,42636,1,0
24,264,42786,1,0
24,224,42936,1,0
48,192,43086,2,0,B|88:160,1,40
104,144,43386,2,0,B|144:112,1,40
160,96,43686,5,4
192,72,43836,1,4
304,80,44286,1,0
304,152,44586,1,4
304,184,44736,1,4
128,192,45486,1,0
256,192,45786,12,4,47886
88,120,53880,5,2
136,176,54118,1,0
184,120,54356,1,0
232,176,54594,1,2
288,112,54832,1,0
328,176,55070,1,0
368,112,55308,1,2
408,176,55546,1,0
368,240,55784,1,0
328,304,56022,1,2
288,240,56260,1,0
240,296,56499,1,0
168,296,56737,2,2,L|24:168,1,160
48,40,57689,5,2
120,40,57927,1,0
192,40,58165,1,0
264,40,58403,1,2
336,40,58641,1,0
408,40,58880,1,0
408,112,59118,1,2
336,112,59356,1,0
264,112,59594,1,0
192,112,59832,1,2
120,112,60070,1,0
48,112,60308,1,0
48,184,60546,2,2,B|-24:277|104:328,1,160
216,320,61499,5,2
264,264,61737,1,0
312,208,61975,1,0
360,152,62213,1,2
408,96,62451,1,0
448,32,62689,1,0
376,32,62927,1,2
304,32,63165,1,0
232,32,63403,1,0
160,32,63641,1,2
88,32,63879,1,0
16,32,64118,1,0
16,104,64356,2,2,B|168:168,1,160
304,208,65308,5,2
352,152,65546,1,0
408,104,65784,1,0
456,152,66022,1,2
408,208,66260,1,0
352,256,66499,1,0
296,304,66737,1,2
224,304,66975,1,0
160,264,67213,1,0
120,200,67451,1,2
184,168,67689,1,0
224,232,67927,1,0
288,200,68165,1,4
352,168,68403,1,0
288,128,68641,1,4
152,72,69118,5,4
88,112,69356,2,0,B|88:200,1,80
88,264,69832,1,0
160,264,70070,2,0,B|256:264,1,80
312,264,70546,1,0
384,264,70784,2,0,B|448:184,1,80
480,144,71260,1,0
432,96,71499,2,0,B|344:40,1,80
288,56,71975,1,2
144,56,72451,1,2
144,200,72927,5,2
216,200,73165,2,0,B|280:264,1,80
328,304,73641,1,0
384,256,73879,2,0,B|448:184,1,80
488,144,74356,1,0
432,96,74594,2,0,B|360:24,1,80
304,40,75070,1,0
240,40,75308,2,0,B|136:40,1,80
88,40,75784,1,2
88,184,76260,1,2
88,328,76737,5,4
160,328,76975,2,0,B|256:328,1,80
312,328,77451,1,0
384,328,77689,2,0,B|480:328,1,80
464,256,78165,1,0
392,256,78403,2,0,B|304:256,1,80
240,256,78879,1,0
168,256,79118,2,0,B|64:256,1,80
16,256,79594,1,2
16,112,80070,1,2
160,104,80546,5,4
216,152,80784,2,0,B|288:208,1,80
328,248,81260,1,0
376,200,81498,2,0,B|456:120,1,80
480,88,81974,1,0
408,64,82212,2,0,B|320:16,1,80
264,24,82688,1,0
192,24,82927,2,0,B|104:72,1,80
56,104,83403,1,2
56,248,83879,1,2
208,240,84356,5,2
280,240,84594,1,0
352,240,84832,1,0
408,192,85070,1,2
456,136,85308,1,0
408,80,85546,1,0
344,32,85784,1,2
272,32,86022,1,0
200,32,86260,1,0
152,80,86499,1,2
96,128,86737,1,0
144,184,86975,1,0
192,240,87213,1,4
336,240,87689,1,4
480,240,88165,5,4
480,312,88403,2,0,B|392:312,1,80
328,312,88879,1,0
256,312,89118,2,0,B|168:312,1,80
104,304,89594,1,0
104,232,89832,2,0,B|104:144,1,80
104,80,90308,1,0
176,80,90546,2,0,B|272:80,1,80
328,80,91022,1,4
424,184,91499,1,4
328,296,91975,5,2
272,248,92213,1,0
216,296,92451,1,0
160,248,92689,1,2
104,296,92927,1,0
48,248,93165,1,0
104,200,93403,1,2
160,160,93641,1,0
216,200,93879,1,0
272,152,94118,1,2
328,104,94356,1,0
272,152,94594,1,0
328,104,94832,1,4
216,200,95308,1,6
256,192,95784,12,6,99118
104,64,104521,1,0
168,104,104771,1,0
232,64,105021,1,0
288,104,105271,2,0,B|376:160,1,80
416,104,105771,1,0
464,160,106021,2,0,B|464:248,1,80
392,216,106521,2,2,B|309:260|266:253|224:131|120:344,1,320
272,328,108021,1,2
416,304,108521,5,0
448,240,108771,1,0
376,240,109021,1,0
312,200,109271,2,0,B|232:152,1,80
184,120,109771,1,0
120,72,110021,2,0,B|72:152,1,80
56,208,110521,1,0
88,272,110771,1,0
144,312,111021,1,0
216,336,111271,1,0
288,336,111521,1,0
352,304,111771,1,0
408,264,112021,2,2,B|499:222|448:128,1,160
328,48,113021,5,0
184,48,113521,1,0
328,48,114021,1,0
320,192,114521,2,0,B|272:272,1,80
240,320,115021,2,0,B|160:272,1,80
112,240,115521,2,0,B|168:152,1,80
208,120,116021,2,0,B|312:104,1,80
360,112,116521,5,0
408,168,116771,1,0
360,224,117021,1,0
304,264,117271,2,0,B|224:304,1,80
168,264,117771,1,0
120,208,118021,2,0,B|40:144,1,80
56,80,118521,1,0
120,48,118771,2,0,B|216:16,1,80
272,24,119271,1,0
336,56,119521,1,0
392,104,119771,1,0
432,160,120021,1,0
448,240,120271,1,0
376,264,120521,6,2,B|240:264,1,120
352,208,121271,2,2,B|200:208,1,120
120,208,122021,1,0
120,136,122271,1,0
168,80,122521,2,2,B|328:80,1,120
192,24,123271,2,2,B|312:24,1,120
408,88,124021,1,0
440,136,124271,1,0
432,208,124521,6,0,B|360:288,3,80
304,264,125521,2,0,B|240:208,3,80
192,152,126521,1,2
136,104,126771,1,0
80,152,127021,1,2
136,200,127271,1,0
192,248,127521,2,2,B|256:312,1,80
320,296,128021,2,2,B|392:232,1,80
440,208,128521,5,0
432,136,128771,1,0
384,80,129021,1,0
320,56,129271,2,0,B|216:40,1,80
168,72,129771,1,0
232,96,130021,2,2,B|320:112,1,80
384,80,130521,6,0,B|433:171|390:246|290:289|251:170|134:218|104:368,1,480
184,352,132271,5,0
240,320,132521,1,0
312,344,132771,1,0
376,304,133021,1,0
440,168,133521,1,0
336,64,134021,1,0
192,56,134521,1,2
120,56,134771,1,2
152,120,135021,1,2
192,184,135271,1,2
120,184,135521,1,2
208,296,136021,1,2
344,352,136521,6,0,B|416:312|424:224|392:128|304:72,1,320
240,80,137771,1,0
184,128,138021,1,0
128,176,138271,1,0
176,232,138521,2,2,B|240:296,1,80
288,248,139021,2,2,B|224:184,1,80
288,144,139521,2,2,B|352:200,1,80
400,144,140021,2,2,B|336:88,1,80
280,48,140521,5,0
208,48,140771,1,0
136,48,141021,1,0
88,96,141271,1,0
112,168,141521,1,0
184,192,141771,1,0
256,200,142021,1,0
328,200,142271,1,0
288,136,142521,2,2,L|383:27|508:139|376:272,1,480
320,280,144271,1,2
248,296,144521,5,0
176,296,144771,1,0
120,248,145021,1,0
88,192,145271,2,0,B|88:96,1,80
88,40,145771,1,0
144,40,146021,2,0,B|232:40,1,80
272,96,146521,2,2,B|332:150,4,80
328,232,148021,1,2
256,192,148521,12,4,152021
88,320,160040,6,0,B|136:280,4,40
144,272,160711,2,0,B|192:232,4,40
200,224,161383,2,0,B|256:176,4,40
256,176,162054,1,0
440,56,162726,1,4
320,136,163174,1,4
416,248,163622,6,0,B|376:280,4,40
360,296,164293,2,0,B|296:336,4,40
296,328,164965,2,0,B|248:328,4,40
224,328,165637,1,0
224,104,166308,2,2,B|88:208,1,160
216,280,167204,6,0,B|361:349,1,160
408,288,167875,2,0,B|512:152,1,160
488,88,168547,2,0,B|336:32,1,160
264,40,169219,2,0,B|112:96,1,160
112,168,169890,1,4
112,312,170338,1,4
256,312,170786,6,0,B|408:232,1,160
400,160,171457,2,0,B|232:112,1,160
176,144,172129,2,0,B|176:320,1,160
256,312,172801,1,0
256,168,173248,1,0
256,96,173472,1,4
256,240,173920,1,4
112,240,174368,5,0
104,96,174816,1,0
176,96,175039,1,0
320,96,175487,1,0
248,96,175711,1,0
104,96,176159,1,0
176,96,176383,1,0
184,232,176831,1,0
256,232,177054,1,4
400,232,177502,1,4
400,88,177950,5,4
400,232,178398,1,0
400,304,178622,1,0
264,304,179069,1,0
192,304,179293,1,0
192,160,179741,1,0
192,88,179965,1,0
48,88,180413,1,0
48,160,180637,1,2
192,160,181084,1,2
88,264,181532,6,0,B|256:304,1,160
312,296,182204,2,0,B|480:256,1,160
472,184,182875,1,0
344,120,183323,1,0
280,88,183547,1,0
144,24,183995,1,0
144,96,184219,2,2,B|144:264,1,160
288,264,185114,5,0
408,344,185562,1,0
408,272,185786,1,0
288,184,186234,1,0
288,264,186457,1,0
408,184,186905,1,0
352,232,187129,1,0
352,88,187577,1,0
352,160,187801,1,4
208,160,188248,1,4
216,304,188696,6,0,B|48:304,1,160
56,232,189368,2,0,B|56:64,1,160
128,72,190040,2,0,B|296:72,1,160
360,72,190711,2,0,B|488:184,1,160
440,240,191383,1,0
376,272,191607,1,0
312,240,191831,1,0
184,312,192278,6,0,B|80:176,1,160
72,112,192950,2,0,B|232:144,1,160
304,160,193622,2,0,B|352:320,1,160
416,344,194293,2,0,B|496:192,1,160
472,128,194965,1,0
408,88,195189,1,0
344,48,195413,1,0
200,48,195860,6,0,B|248:48,4,40
200,120,196532,2,0,B|256:120,4,40
200,192,197204,2,0,B|248:192,4,40
200,264,197875,2,0,B|248:264,4,40
200,336,198547,1,4
344,328,198995,1,4
464,248,199442,6,0,B|384:176,1,80
344,144,199890,2,0,B|272:88,1,80
216,64,200338,2,0,B|120:56,1,80
64,64,200786,2,0,B|64:160,1,80
72,216,201234,2,0,B|120:240,1,40
112,272,201457,2,0,B|160:296,1,40
168,320,201681,2,0,B|216:344,1,40
232,320,201904,2,0,B|280:344,1,40
304,320,202129,1,4
448,320,202577,1,4
448,176,203025,6,0,B|448:80,1,80
384,56,203472,2,0,B|328:56,3,40
312,56,203920,2,0,B|264:56,3,40
232,56,204368,2,0,B|176:56,3,40
152,56,204816,2,0,B|104:56,4,40
152,128,205487,1,0
120,152,205599,1,0
96,176,205711,1,0
96,248,205935,2,2,B|96:336,4,80
176,248,207054,1,0
320,248,207502,1,0
320,104,207950,1,0
336,32,208174,6,0,B|424:64,1,80
472,104,208622,1,0
424,160,208845,1,0
472,208,209069,1,0
424,264,209293,1,0
360,224,209517,1,0
304,184,209741,1,0
248,232,209965,1,0
200,288,210189,2,4,B|120:232,1,80
88,192,210637,1,0
88,48,211084,1,0
232,48,211532,1,0
304,48,211756,5,0
328,72,211868,1,0
336,104,211980,2,0,B|170:109|136:328,1,320
208,320,213099,1,0
280,320,213323,1,0
352,320,213547,1,0
360,248,213771,2,4,B|456:248,1,80
440,176,214219,1,0
336,72,214666,1,0
440,176,215114,1,0
336,72,215562,1,0
440,176,216010,1,0
384,128,216234,6,4,B|312:184,1,80
256,216,216681,1,0
200,168,216905,1,0
144,216,217129,1,0
88,168,217353,1,0
112,72,220769,5,0
208,120,221069,1,0
304,72,221369,1,0
376,96,221569,6,0,B|472:152|464:240|474:324|357:343|176:328,1,480
128,272,222969,1,0
88,272,223069,1,0
64,240,223169,6,0,B|32:165|69:88|171:39|296:72|280:120|216:216|344:248|384:224,1,480
344,296,224569,1,0
312,320,224669,1,0
280,328,224769,2,0,L|120:329|262:253|120:160,1,480
264,104,226369,2,4,B|96:104,1,160
104,248,227169,2,4,B|280:248,1,160
408,248,227969,6,0,L|411:103|224:104,1,320
88,104,229169,1,0
184,216,229569,2,0,B|304:336,1,160
416,248,230369,1,0
296,328,230769,1,0
152,328,231169,6,0,B|48:280,1,80
80,224,231569,2,0,B|176:192,1,80
152,120,231969,2,0,B|72:80,1,80
152,32,232369,2,0,B|240:32,1,80
304,40,232769,2,0,B|472:104,1,160
416,240,233569,1,0
280,304,233969,1,0
288,160,234369,6,2,B|185:280|100:40|0:168,2,320
256,192,236169,12,4,239569
104,32,239969,1,0
216,40,240269,1,0
312,96,240569,1,0
368,144,240769,2,0,B|440:208|400:352|200:304,1,320
32,184,242169,1,0
48,152,242269,1,0
80,152,242369,2,0,B|117:36|214:16|269:34|352:56,1,320
456,136,243569,1,0
448,208,243769,5,0
456,240,243869,1,0
424,256,243969,1,0
296,328,244369,1,0
264,184,244769,2,0,B|120:272,1,160
104,120,245569,2,4,B|248:32,1,160
384,40,246369,2,4,B|488:200,1,160
328,184,247169,6,0,B|328:296,1,80
328,336,247569,2,0,B|224:336,1,80
176,328,247969,2,0,B|96:280,1,80
56,248,248369,2,0,B|24:160,1,80
16,96,248769,2,0,B|104:64,1,80
160,56,249169,2,0,B|256:48,1,80
312,56,249569,1,0
432,136,249969,1,0
312,56,250369,5,2
96,256,251170,1,2
384,320,251970,1,2
472,40,252770,1,2
360,128,253170,1,2
240,216,253570,5,2
144,272,253870,1,0
72,184,254170,1,0
72,72,254470,1,0
176,56,254770,1,0
232,96,254970,1,0
288,56,255170,1,0
384,104,255470,5,0
456,184,255770,1,0
392,272,256070,1,0
280,280,256370,1,0
224,232,256570,1,0
176,176,256770,1,0
104,96,257070,5,0
208,56,257370,1,0
312,96,257670,1,0
400,152,257970,1,0
456,200,258170,1,0
400,248,258370,1,0
304,304,258670,5,0
200,336,258970,1,0
128,328,259170,5,4
88,224,259470,1,4
128,328,259770,1,4
72,64,267100,5,0
288,256,267869,1,0
488,40,268638,2,2,B|312:40,1,160
184,48,269407,2,2,B|24:104,1,160
160,168,270176,2,2,B|240:320,1,160
384,296,270946,1,0
384,152,271330,1,0
240,160,271715,6,0,B|344:32,1,160
192,40,272484,2,0,B|16:40,1,160
104,168,273253,2,0,B|216:296,1,160
352,288,274023,2,2,B|408:217|344:128,2,160
480,352,275176,5,0
480,208,275561,1,0
416,72,275946,1,0
272,40,276330,1,0
128,40,276715,1,0
32,152,277100,1,0
32,296,277484,1,0
176,288,277869,6,0,B|344:240,1,160
400,216,278446,1,0
360,152,278638,2,0,B|256:24,1,160
200,56,279215,1,0
136,96,279407,2,2,B|8:200,1,160
56,256,279984,1,2
88,272,280080,1,2
120,256,280176,1,2
248,328,280561,1,2
296,192,280946,6,0,B|464:192,2,160
296,48,282100,1,0
296,192,282484,2,0,B|128:192,2,160
296,48,283638,1,0
296,192,284023,2,0,B|296:360,2,160
296,48,285176,1,0
200,160,285561,2,2,B|80:40,1,160
72,192,286330,2,2,B|200:304,1,160
336,320,287100,5,0
440,216,287484,1,0
360,96,287869,1,0
216,96,288253,1,0
88,168,288638,1,0
168,288,289023,1,0
304,328,289407,1,0
416,232,289792,1,0
432,88,290176,2,2,B|379:212|249:272|93:222|80:72,1,480
32,216,291715,1,2
224,328,292292,1,0
256,328,292388,1,0
288,328,292484,1,0
432,320,292869,1,0
336,208,293253,6,0,B|317:292|174:311|36:260|4:172|56:48,1,480
120,56,294600,1,0
192,48,294792,2,0,L|333:147|393:9|520:104,1,480
480,176,296138,1,0
408,176,296330,2,0,B|408:344,3,160
264,312,297869,2,2,B|104:344,1,160
112,200,298638,2,2,B|48:48,1,160
192,80,299407,6,0,L|329:51|288:200|464:120,1,480
456,272,300946,2,0,L|288:221|220:354|120:192,1,480
256,192,302484,12,2,304023
136,88,304407,5,0
168,152,304600,1,0
128,216,304792,1,0
144,288,304984,1,0
200,328,305176,1,2
272,320,305369,1,2
344,304,305561,6,0,B|440:312|504:257|520:177|492:90|413:52|272:32,1,480
264,176,307100,2,0,B|202:64|128:80|24:150|27:220|70:329,1,400
136,304,308253,1,0
200,344,308446,1,0
256,304,308638,1,0
400,312,309023,1,2
400,168,309407,1,2
400,24,309792,1,2
280,104,310176,2,2,B|112:104,1,160
120,248,310946,2,2,B|320:248,1,160
256,192,311715,12,2,313253
336,96,313638,5,0
192,96,314023,1,0
72,184,314407,1,0
192,264,314792,2,0,B|368:264,2,160
184,120,315946,1,4
232,176,316138,1,4
184,120,316330,1,4
