osu file format v5

[General]
AudioFilename: phoenix wright compliation.mp3
AudioLeadIn: 1004
PreviewTime: 104521
Countdown: 1
SampleSet: Normal
StackLeniency: 0.7
Mode: 0
EditorBookmarks: 53132,103019,157275,220255,265578

[Metadata]
Title:Compilation
Artist:Phoenix Wright - Sugimori Masakazu
Creator:kingcobra52
Version:Easy

[Difficulty]
HPDrainRate:3
CircleSize:3
OverallDifficulty:3
SliderMultiplier:1.4
SliderTickRate:1

[Events]
//Background and Video events
0,0,"Phoenix-Wright-Ace-Attorney-00.jpg"
//Break Periods
2,48086,52440
2,99307,103081
2,152221,158600
2,217544,219337
2,253778,265642
//Storyboard Layer 0 (Background)
4,0,0,"courtroom.png",0,0 F,0,-1100,770,1,1 F,0,52671,53761,1,1
4,0,0,"wrightwall.jpg",0,0 F,0,52671,53761,0,1 F,0,102993,104143,1,1
4,0,0,"objection!2.png",0,0 F,0,102993,104143,0,1 F,0,158925,159805,1,1
4,0,0,"Phoenix_Wr_2m.jpg",0,0 F,0,158925,159805,0,1 F,0,219529,220509,1,1
4,0,0,"phoenix-wright-3.jpg",0,0 F,0,219529,220509,0,1 F,0,266087,266931,1,1
4,0,0,"Phoenix-Wright-Ace-Attorney-00.jpg",0,0 F,0,266087,266931,0,1 F,0,317048,317500,1,1
//Storyboard Layer 1 (Failing)
//Storyboard Layer 2 (Passing)
//Storyboard Layer 3 (Foreground)
//Storyboard Sound Samples
//Background Colour Transformations
3,100,163,162,255

[TimingPoints]
4686,600,4,1,0,100
53880,476.190476190476,4,1,0,80
104521,500,4,1,0,100
160040,447.761194029851,4,1,0,100
220769,400.0133160032,4,1,0,100
267100,384.615384615385,4,1,0,100

[HitObjects]
40,48,486,2,0,B|162:17|208:152,1,210
160,240,2286,1,0
312,240,3486,1,0
464,240,4686,1,2
464,160,5286,6,0,B|423:37|296:64,1,210
184,48,7086,1,0
184,200,8286,1,0
184,352,9486,1,2
256,352,10086,6,0,B|379:311|344:184,1,210
352,88,11886,1,0
208,88,13086,1,0
64,88,14286,1,2
64,160,14886,6,0,B|115:258|248:256,1,210
352,248,16686,1,0
424,128,17886,1,0
280,128,19086,1,2
208,128,19686,5,0
208,232,20586,1,0
96,232,21486,1,0
24,232,22086,2,2,B|32:152|136:72|240:40|352:56|392:96,1,420
400,144,24486,5,0
400,248,25386,1,0
296,248,26286,1,0
224,248,26886,2,2,B|160:208|88:256,3,140
96,184,29286,5,4
96,80,30186,1,4
240,72,31386,2,4,L|240:208|347:107|352:248,1,420
256,296,34086,5,4
168,224,34986,1,4
48,144,36186,2,4,L|112:53|231:166|328:48,1,420
432,56,38886,5,4
352,128,39786,1,4
464,224,40986,2,4,L|416:272|363:234|294:275|244:235|184:280,1,350
112,280,43086,1,0
112,208,43686,5,4
112,96,44586,1,4
256,192,45786,12,4,47886
88,120,53880,5,0
192,120,54594,1,0
304,120,55308,1,0
416,120,56022,1,0
424,232,56737,2,2,L|299:294|160:208,1,280
88,160,58403,5,0
176,88,59118,1,0
280,64,59832,1,0
384,72,60546,2,2,L|446:197|360:336,1,280
264,328,62213,5,0
168,272,62927,1,0
80,208,63641,1,0
80,104,64356,2,2,L|200:31|328:96,1,280
408,152,66022,5,0
328,224,66737,1,0
248,152,67451,1,0
144,152,68165,2,4,L|144:296,2,140
144,48,69832,5,0
240,96,70546,1,0
336,48,71260,1,0
424,104,71975,2,2,L|424:256,2,140
336,48,73641,5,0
256,120,74356,1,0
168,184,75070,1,0
88,248,75784,2,2,L|192:352,2,140
88,136,77451,5,0
192,136,78165,1,0
296,136,78879,1,0
400,136,79594,2,2,B|416:220|320:248,1,140
264,248,80546,5,0
152,248,81260,1,0
264,248,81975,1,0
152,248,82689,1,0
152,136,83403,2,4,B|220:89|296:144,2,140
64,72,85070,5,0
160,32,85784,1,0
256,72,86499,1,0
352,32,87213,1,4
424,32,87689,1,4
424,104,88165,5,4
424,216,88879,1,0
424,320,89594,1,0
320,320,90308,1,0
208,320,91022,1,4
136,320,91499,1,4
136,248,91975,5,4
136,144,92689,1,0
240,144,93403,1,0
240,248,94118,1,0
344,248,94832,1,6
392,192,95308,1,6
256,192,95784,12,6,99118
112,80,104521,2,0,B|200:80,2,70
112,184,105771,1,0
112,296,106521,2,2,B|264:338|308:212|350:90|393:83|480:128,1,420
448,184,108521,6,0,B|448:272,2,70
344,184,109771,1,0
240,184,110521,2,2,B|234:72|136:40|43:114|21:177|56:288|152:304,1,420
192,312,112521,6,0,B|264:320|344:304|384:224|408:128|376:56|280:40|264:32,1,420
216,32,114521,2,2,B|144:24|64:40|24:120|0:216|32:288|128:304|144:312,1,420
144,240,116521,6,0,B|183:258|208:200,2,70
144,344,117771,1,0
248,344,118521,1,0
352,344,119271,1,0
352,240,120021,1,0
408,200,120521,6,2,B|408:136|336:80|237:143|324:263|192:264|160:320|72:184,1,420
64,144,122521,6,2,B|168:128|224:168,1,140
200,224,123521,2,2,B|157:195|53:211,1,140
64,280,124521,6,0,B|64:376,5,70
184,288,126521,1,2
256,288,127021,1,2
328,288,127521,1,2
400,288,128021,1,2
448,232,128521,6,0,B|432:103|408:88|296:75|296:223|230:266|128:128,1,420
88,192,130521,6,0,B|96:280|160:336|264:312|304:320|318:243|395:253|448:352,1,420
480,272,132521,5,0
464,200,133021,1,0
424,136,133521,1,0
352,104,134021,1,0
280,96,134521,2,2,B|192:96,4,70
280,176,136021,1,2
288,248,136521,6,0,B|248:320|160:328|64:296|40:240|24:144|40:56,1,420
104,88,138521,2,2,B|256:88,3,140
312,88,140521,6,0,B|312:168,2,70
416,88,141771,1,0
424,192,142521,2,2,L|321:296|218:193|104:304,1,420
72,232,144521,6,0,B|66:188|120:160,2,70
72,336,145771,1,0
176,336,146521,2,2,B|344:336,3,140
256,192,148521,12,4,152021
208,176,160040,5,0
288,104,160711,1,0
360,184,161383,1,0
288,264,162054,1,0
200,320,162726,1,4
152,264,163174,1,4
104,208,163622,5,4
104,96,164293,1,0
208,96,164965,1,0
208,216,165637,1,0
312,216,166308,2,2,B|384:187|480:224,2,140
272,120,167875,1,0
184,56,168547,1,0
96,120,169219,1,0
112,224,169890,2,4,B|208:328,1,140
288,328,170786,5,0
376,272,171457,1,0
288,208,172129,1,0
376,144,172801,1,0
288,88,173472,2,4,B|144:88,1,140
72,88,174368,5,0
72,192,175039,1,0
176,192,175711,1,0
176,296,176383,1,0
288,296,177054,1,4
352,264,177502,1,4
416,296,177950,5,4
464,200,178622,1,0
416,104,179293,1,0
368,200,179965,1,0
256,200,180637,1,2
184,200,181084,1,2
112,200,181532,5,2
32,272,182204,1,0
112,336,182875,1,0
216,336,183547,1,0
320,328,184219,2,2,B|432:224,1,140
480,184,185114,5,0
408,104,185786,1,0
336,184,186457,1,0
264,104,187129,1,0
200,184,187801,1,4
128,184,188248,1,4
72,224,188696,6,0,B|160:344,1,140
224,336,189592,2,0,B|352:224,1,140
336,176,190487,2,0,B|232:40,1,140
184,48,191383,2,0,B|80:168,1,140
40,208,192278,6,0,B|192:272,1,140
240,264,193174,2,0,B|392:200,1,140
368,136,194069,2,0,B|224:80,1,140
168,88,194965,2,0,B|16:144,1,140
48,200,195860,5,0
48,304,196532,1,0
152,304,197204,1,0
264,304,197875,1,0
368,304,198547,1,4
368,232,198995,1,4
360,160,199442,6,0,B|160:40,1,210
120,136,200786,2,0,B|312:264,1,210
376,320,202129,1,4
440,288,202577,1,4
440,216,203025,6,0,B|440:136,1,70
96,64,205487,2,2,B|96:144,6,70
96,272,208174,2,0,B|160:304,1,70
216,256,208845,1,0
264,304,209293,1,0
312,256,209741,1,0
360,304,210189,2,4,B|432:304,1,70
440,64,211980,6,0,B|328:16|220:14|96:88|104:192,1,420
104,256,213771,2,4,B|184:256,1,70
456,328,216234,6,2,B|505:89|291:264|312:56,1,350
160,88,220769,6,0,B|344:88,1,175
384,88,221569,6,0,B|480:144|472:232|482:316|365:335|216:328,1,420
184,328,223169,2,0,B|107:343|21:277|8:172|56:92|136:24,1,420
200,40,224769,2,0,L|336:96|212:146|336:224,1,420
328,288,226369,1,4
184,288,227169,1,4
56,224,227969,6,0,L|56:112|216:40,1,280
280,56,229169,1,0
344,88,229569,1,0
408,176,230369,1,0
408,240,230769,1,0
408,312,231169,5,0
264,312,231969,1,0
264,176,232769,1,0
120,168,233569,1,0
72,224,233969,1,0
80,296,234369,6,2,B|160:214|250:368|360:280,2,280
256,192,236169,12,4,239969
432,64,240769,2,0,B|504:128|464:272|312:240,1,280
224,240,242169,1,0
184,232,242369,2,0,B|68:195|48:98|118:37|220:15|335:36,1,420
320,64,243769,6,0,B|320:160,1,70
320,272,244769,1,0
176,272,245569,1,4
320,272,246369,1,4
464,280,247169,6,0,B|464:120,1,140
456,72,247969,2,0,B|280:72,1,140
248,72,248769,2,0,B|248:232,1,140
176,216,249569,2,0,B|24:216,1,140
32,144,250369,5,2
144,48,251170,1,2
256,128,251970,1,2
360,216,252770,1,2
320,272,253170,1,2
264,304,253570,1,2
232,216,267100,5,0
368,216,267869,1,0
384,80,268638,2,2,B|237:36|72:88,2,280
480,184,270946,1,0
448,248,271330,1,0
392,288,271715,5,0
248,288,272484,1,0
112,288,273253,1,0
176,160,274023,2,2,B|247:104|312:168,2,140
64,96,275561,5,0
192,40,276330,1,0
320,88,277100,1,0
448,152,277869,6,0,B|352:256,1,140
296,296,278638,2,0,B|192:168,1,140
160,136,279407,2,2,B|48:232,1,140
64,304,280176,1,2
136,304,280561,1,2
208,304,280946,6,0,B|360:304,2,140
208,160,282484,2,0,B|56:160,2,140
304,56,284023,2,0,B|416:40|480:120|400:248,1,280
288,320,285561,2,2,B|120:280,1,140
152,216,286330,2,2,B|304:176,1,140
352,152,287100,5,0
264,40,287869,1,0
120,40,288638,1,0
32,152,289407,1,0
32,312,290176,2,2,B|112:328|209:364|318:328|441:249|488:80,1,560
344,80,292484,1,0
208,40,293253,6,0,B|80:48|56:152|96:240|208:232|344:192,1,420
384,192,294792,2,0,B|468:149|496:296|416:350|326:345|241:336|152:320,1,420
112,280,296330,2,0,B|48:144,3,140
112,104,297869,1,2
256,48,298638,1,2
384,112,299407,6,0,L|413:249|282:209|360:352,1,420
296,368,300946,2,0,L|208:248|176:376|88:256,1,420
256,192,302484,12,2,304792
32,32,305561,6,0,B|32:120|128:224|232:200|384:192,1,420
368,120,307100,2,0,B|235:114|131:90|35:194|32:288,1,420
64,304,308446,2,0,B|144:336,1,70
192,352,309023,1,2
240,296,309407,1,2
288,240,309792,1,2
336,184,310176,2,2,B|208:96,1,140
264,48,310946,2,2,B|384:128,1,140
256,192,311715,12,2,313253
56,96,314023,1,0
152,200,314792,1,0
304,56,315946,1,4
280,88,316138,1,4
256,112,316330,1,4
