osu file format v11

[General]
AudioFilename: Phoenix Legend - Zui Xuan Min Zu Feng.mp3
AudioLeadIn: 0
PreviewTime: 23202
Countdown: 0
SampleSet: Normal
StackLeniency: 0.5
Mode: 0
LetterboxInBreaks: 1

[Editor]
DistanceSpacing: 1.4
BeatDivisor: 4
GridSize: 4

[Metadata]
Title:Zui Xuan Min Zu Feng
TitleUnicode:最炫民族风
Artist:Phoenix Legend
ArtistUnicode:凤凰传奇
Creator:a3272509123
Version:Shore
Source:
Tags:lkx_shore [CSGA]Ar3sgice raririn 384059043
BeatmapID:185002
BeatmapSetID:50453

[Difficulty]
HPDrainRate:7
CircleSize:4
OverallDifficulty:7
ApproachRate:8
SliderMultiplier:1.8
SliderTickRate:1

[Events]
//Background and Video events
0,0,"background.jpg"
//Break Periods
2,99110,111389
//Storyboard Layer 0 (Background)
//Storyboard Layer 1 (Fail)
//Storyboard Layer 2 (Pass)
//Storyboard Layer 3 (Foreground)
//Storyboard Sound Samples
//Background Colour Transformations
3,100,163,162,255

[TimingPoints]
2533,472.44094488189,4,1,0,70,1,0
3477,-200,4,1,0,5,0,0
6312,-100,4,1,0,20,0,0
6784,-100,4,1,0,30,0,0
7257,-100,4,1,0,40,0,0
7729,-100,4,1,0,50,0,0
8202,-100,4,2,0,80,0,0
8320,-100,4,2,0,70,0,0
36548,-100,4,1,0,50,0,0
37021,-100,4,1,0,40,0,0
37493,-100,4,1,0,30,0,0
37729,-100,4,1,0,60,0,0
38202,-100,4,1,0,40,0,0
38438,-100,4,1,0,70,0,0
42218,-100,4,1,0,80,0,0
42336,-100,4,1,0,70,0,0
45288,-100,4,2,0,70,0,0
45997,-100,4,1,0,80,0,0
46115,-100,4,1,0,70,0,0
49777,-100,4,1,0,80,0,0
49895,-100,4,1,0,70,0,0
51666,-100,4,1,0,60,0,0
52139,-100,4,1,0,50,0,0
52729,-100,4,1,0,70,0,0
55446,-100,4,1,0,70,0,0
55918,-100,4,1,0,60,0,0
56509,-100,4,1,0,70,0,0
57336,-80,4,1,0,60,0,1
63950,-80,4,1,0,100,0,1
64540,-80,4,1,0,60,0,1
71509,-80,4,1,0,100,0,1
72336,-80,4,1,0,60,0,0
72454,-80,4,1,0,60,0,1
79068,-80,4,1,0,100,0,1
79777,-80,4,1,0,60,0,1
86627,-80,4,1,0,50,0,1
87572,-100,4,2,0,70,0,0
87808,-100,4,2,1,70,0,0
89462,-100,4,2,0,70,0,0
89698,-100,4,2,1,70,0,0
91351,-100,4,2,0,70,0,0
97966,-100,4,2,0,70,0,0
98910,-100,4,1,0,100,0,0
99147,-100,4,1,0,70,0,0
113556,-100,4,2,0,50,0,0
114029,-100,4,2,0,70,0,0
121115,-100,4,2,0,50,0,0
121233,-100,4,2,0,70,0,0
127257,-100,4,1,0,80,0,0
127375,-100,4,1,0,70,0,0
128320,-100,4,1,0,70,0,0
129147,-100,4,1,0,80,0,0
129265,-100,4,1,0,70,0,0
132926,-100,4,1,0,80,0,0
133162,-100,4,1,0,70,0,0
135997,-100,4,2,0,70,0,0
136706,-100,4,1,0,80,0,0
136824,-100,4,1,0,70,0,0
140485,-100,4,1,0,80,0,0
140603,-100,4,1,0,70,0,0
142375,-133.333333333333,4,1,0,80,0,0
142493,-133.333333333333,4,1,0,70,0,0
143438,-100,4,1,0,70,0,0
144265,-100,4,1,0,80,0,0
144383,-100,4,1,0,70,0,0
146155,-100,4,1,0,80,0,0
147218,-100,4,1,0,70,0,0
147808,-100,4,1,0,40,0,0
148044,-66.6666666666667,4,1,0,60,0,1
154658,-66.6666666666667,4,1,0,100,0,1
155367,-66.6666666666667,4,1,0,60,0,1
162218,-66.6666666666667,4,1,0,100,0,1
163044,-66.6666666666667,4,1,0,60,0,0
163162,-66.6666666666667,4,1,0,60,0,1
169777,-66.6666666666667,4,1,0,100,0,1
170485,-66.6666666666667,4,1,0,60,0,1
178281,-100,4,2,0,100,0,0
178517,-100,4,2,0,70,0,0
182060,-100,4,1,0,100,0,0

[Colours]
Combo1 : 255,162,68
Combo2 : 70,251,70
Combo3 : 79,79,251
Combo4 : 252,88,88

[HitObjects]
256,192,3477,12,0,6312,0:0:0
428,164,6784,5,0,0:0:0
428,164,7257,1,0,0:0:0
285,133,7493,1,0,0:0:0
382,241,7729,1,0,0:0:0
367,97,7966,1,0,0:0:0
294,223,8202,1,4,0:0:0
96,172,8556,5,0,0:0:0
96,172,8674,2,0,P|92:244|128:276,1,90,2|2,0:0|0:0,0:0:0
184,324,9147,2,0,P|276:360|276:300|368:328,1,180,2|2,0:0|0:0,0:0:0
440,268,9855,1,0,0:0:0
380,136,10092,5,2,0:0:0
356,228,10328,1,0,0:0:0
356,228,10446,1,0,0:0:0
356,228,10564,2,0,P|312:208|292:164,1,90,2|0,0:0|0:0,0:0:0
380,136,11036,1,2,0:0:0
136,112,11273,1,2,0:0:0
136,112,11509,1,2,0:0:0
76,204,11745,5,0,0:0:0
76,204,11863,1,0,0:0:0
76,204,11981,2,0,P|88:268|152:308,1,135,4|0,0:0|0:0,0:0:0
164,296,12454,1,2,0:0:0
336,264,12690,1,2,0:0:0
336,264,12926,2,0,P|232:264,1,90,2|0,0:0|0:0,0:0:0
180,168,13399,1,2,0:0:0
296,152,13635,1,0,0:0:0
416,196,13871,6,0,P|454:209|486:250,1,90,2|0,0:0|0:0,0:0:0
480,293,14225,1,0,0:0:0
437,310,14344,2,0,P|398:296|366:255,1,90,2|2,0:0|0:0,0:0:0
239,124,14816,1,2,0:0:0
100,88,15052,1,0,0:0:0
232,144,15288,1,2,0:0:0
88,145,15524,1,0,0:0:0
228,164,15761,6,0,P|256:224|324:234,1,135,4|0,0:0|0:0,0:0:0
362,164,16233,2,0,P|328:192|318:235,1,90,2|2,0:0|0:0,0:0:0
408,340,16706,2,0,P|442:312|451:269,1,90,2|2,0:0|0:0,0:0:0
388,100,17178,1,0,0:0:0
212,140,17414,1,0,0:0:0
248,316,17651,6,0,B|304:308|312:240,1,90,2|0,0:0|0:0,0:0:0
316,236,18005,1,0,0:0:0
320,212,18123,1,2,0:0:0
220,224,18359,1,2,0:0:0
408,272,18595,2,0,B|464:264|472:196,1,90,2|2,0:0|0:0,0:0:0
316,152,19068,1,2,0:0:0
260,308,19304,6,2,P|308:308,3,30,2|0|0|4,0:0|0:0|0:0|0:0,0:0:0
156,280,19777,1,0,0:0:0
156,280,19895,1,0,0:0:0
156,280,20013,2,0,P|124:268|96:220,1,90,2|2,0:0|0:0,0:0:0
348,72,20485,2,0,P|380:84|408:132,1,90,2|0,0:0|0:0,0:0:0
428,224,20958,2,0,P|356:220|300:312,1,180,2|0,0:0|0:0,0:0:0
256,192,21548,12,0,22847,0:1:0
144,96,23320,6,0,P|112:176|156:264,1,180,2|2,0:0|0:0,0:0:0
224,168,24029,1,0,0:0:0
224,168,24265,2,0,P|308:196|356:292,1,180,2|0,0:0|0:0,0:0:0
224,292,24973,5,0,0:0:0
224,292,25210,2,0,B|352:148,1,180,2|2,0:0|0:0,0:0:0
428,96,25918,2,0,B|464:128|456:176,1,90,0|2,0:0|0:0,0:0:0
420,308,26391,1,0,0:0:0
420,308,26509,1,0,0:0:0
420,308,26627,2,2,B|300:292,1,90
200,328,27099,6,0,B|152:328|132:276,1,90,2|0,0:0|0:0,0:0:0
124,240,27454,1,0,0:0:0
120,204,27572,1,2,0:0:0
188,88,27808,1,0,0:0:0
256,168,28044,1,2,0:0:0
324,88,28281,1,2,0:0:0
392,204,28517,1,2,0:0:0
444,336,28753,6,0,B|400:352|356:328,1,90,2|2,0:0|0:0,0:0:0
60,264,29462,1,2,0:0:0
296,76,29934,1,2,0:0:0
416,152,30170,1,0,0:0:0
416,152,30288,1,0,0:0:0
416,152,30407,1,2,0:0:0
440,292,30643,1,2,0:0:0
440,292,30879,6,0,B|352:316,1,90,2|0,0:0|0:0,0:0:0
320,316,31233,1,0,0:0:0
284,316,31351,2,0,B|236:312|215:267,1,90,2|0,0:0|0:0,0:0:0
296,228,31824,1,2,0:0:0
112,312,32060,1,2,0:0:0
108,144,32296,1,0,0:0:0
256,60,32533,1,0,0:0:0
348,160,32769,6,0,B|392:184|436:160,1,90,2|0,0:0|0:0,0:0:0
432,252,33241,2,0,B|388:276|344:252,1,90,2|0,0:0|0:0,0:0:0
228,184,33714,1,2,0:0:0
124,96,33950,1,0,0:0:0
124,96,34068,1,0,0:0:0
124,96,34186,1,2,0:0:0
68,220,34422,1,2,0:0:0
176,300,34658,6,0,B|256:256,1,90,2|2,0:0|0:0,0:0:0
272,120,35131,2,0,B|192:168,1,90
256,256,35603,2,0,P|296:284|336:284,1,90,2|2,0:0|0:0,0:0:0
352,148,36076,2,0,P|312:120|272:120,1,90,2|2,0:0|0:0,0:0:0
164,140,36548,5,4,0:2:0
164,140,37021,1,4,0:2:0
164,140,37493,2,4,B|172:188|216:208,1,90,4|0,0:2|0:0,0:0:0
216,208,37847,1,0,0:0:0
216,208,37966,2,4,B|260:228|268:276,1,90,8|2,0:2|0:0,0:0:0
268,276,38438,6,0,P|304:320|396:320,1,135,4|0,0:0|0:0,0:0:0
416,316,38910,2,0,B|456:288|456:240,1,90,8|0,0:0|0:0,0:0:0
432,108,39383,2,0,B|376:180,1,90
360,196,39737,1,0,0:0:0
344,212,39855,2,0,B|296:200|260:236,1,90,8|0,0:0|0:0,0:0:0
88,284,40328,6,0,B|140:168,1,90
140,172,40682,1,0,0:0:0
156,140,40800,1,8,0:0:0
228,236,41036,2,0,B|272:260|316:236,1,90
448,188,41509,1,0,0:0:0
448,188,41627,1,0,0:0:0
448,188,41745,2,0,B|468:236|452:276,1,90,8|0,0:0|0:0,0:0:0
196,340,42218,6,0,P|144:324|104:248,1,135,4|0,0:0|0:0,0:0:0
104,228,42690,1,8,0:0:0
216,224,42926,1,0,0:0:0
376,264,43162,1,0,0:0:0
216,224,43399,1,0,0:0:0
376,264,43635,2,0,B|420:240|464:264,1,90,8|0,0:0|0:0,0:0:0
296,324,44107,6,0,P|236:348|172:328,1,135,0|0,0:0|0:0,0:0:0
144,312,44580,1,8,0:0:0
72,216,44816,2,0,B|72:126,1,90
172,52,45288,2,2,B|208:52,3,30
296,136,45761,1,2,0:0:0
420,204,45997,5,4,0:0:0
364,276,46233,1,0,0:0:0
364,276,46351,1,0,0:0:0
364,276,46470,2,0,B|320:304|328:352,1,90,8|0,0:0|0:0,0:0:0
252,304,46942,2,0,B|228:260|176:264,1,90
132,272,47296,1,0,0:0:0
100,304,47414,1,8,0:0:0
48,224,47651,1,0,0:0:0
48,224,47887,6,0,P|120:160,1,90
184,108,48359,1,8,0:0:0
348,116,48595,1,0,0:0:0
460,240,48832,2,0,B|408:232|380:272,1,90
344,296,49186,1,0,0:0:0
304,320,49304,2,0,B|204:320,1,90,8|0,0:0|0:0,0:0:0
88,144,49777,6,0,B|56:176|76:232,1,90,4|0,0:0|0:0,0:0:0
152,272,50249,2,0,B|184:240|164:184,1,90,8|0,0:0|0:0,0:0:0
224,120,50721,1,0,0:0:0
316,272,50958,1,0,0:1:0
268,196,51194,1,8,0:1:0
364,348,51430,1,0,0:0:0
416,268,51666,6,0,B|392:212|440:168|440:168|388:124,2,180,4|4|4,0:2|0:2|0:2,0:0:0
284,312,52847,1,8,0:0:0
148,312,53084,1,8,0:0:0
68,272,53320,5,0,0:0:0
68,272,53438,1,0,0:0:0
68,272,53556,2,0,B|36:240|52:188,1,90
136,220,54029,1,8,0:0:0
204,164,54265,2,0,B|236:196|220:248,1,90
288,80,54737,2,0,B|331:91|343:144,1,90,0|8,0:0|0:0,0:0:0
388,288,55210,1,0,0:0:0
388,288,55446,6,0,B|336:288|312:324|312:324|288:288|228:288,2,180,4|4|4,0:2|0:2|0:2,0:0:0
448,192,56627,5,0,0:0:0
448,192,56745,1,0,0:0:0
448,192,56863,2,0,B|448:140|408:116,1,90,8|0,0:0|0:0,0:0:0
192,180,57336,5,6,0:0:0
292,336,57572,1,0,0:0:0
372,268,57808,2,2,P|416:260|468:304,1,112.5,8|2,0:0|0:0,0:0:0
292,336,58281,2,2,P|204:344|152:280,1,168.75,2|0,0:0|0:0,0:0:0
132,248,58753,1,10,0:0:0
132,248,58989,1,0,0:0:0
132,248,59225,5,2,0:0:0
132,102,59462,1,2,0:0:0
46,220,59698,1,8,0:0:0
184,175,59934,1,2,0:0:0
46,130,60170,1,2,0:0:0
132,248,60407,1,0,0:0:0
132,248,60525,1,0,0:0:0
132,248,60643,2,0,P|172:292|224:296,1,112.5,8|0,0:0|0:0,0:0:0
380,332,61115,6,0,B|348:216,1,112.499998323619,2|2,0:0|0:0,0:0:0
428,72,61588,2,2,B|460:188,1,112.499998323619,8|2,0:0|0:0,0:0:0
380,332,62060,1,2,0:0:0
240,292,62296,1,2,0:0:0
100,248,62533,2,2,B|72:188|116:144,1,112.5,8|2,0:0|0:0,0:0:0
292,208,63005,6,0,B|179:208,1,112.5,2|0,0:0|0:0,0:0:0
180,208,63359,1,0,0:0:0
180,208,63477,1,8,0:0:0
432,76,63714,1,8,0:0:0
432,76,63950,5,6,0:2:0
256,144,64186,1,6,0:2:0
80,76,64422,1,6,0:2:0
128,176,64658,5,0,0:0:0
128,176,64777,1,0,0:0:0
128,176,64895,2,2,B|84:220|116:284,1,112.499998323619,2|0,0:0|0:0,0:0:0
276,328,65367,2,2,B|320:284|288:220,1,112.499998323619,8|2,0:0|0:0,0:0:0
124,112,65840,2,0,P|176:164|264:152,1,168.75,2|0,0:0|0:0,0:0:0
284,140,66312,1,10,0:0:0
212,72,66548,1,0,0:0:0
284,232,66784,6,0,B|412:232,1,112.499998323619,2|2,0:0|0:0,0:0:0
228,60,67257,1,10,0:0:0
144,268,67493,1,2,0:0:0
356,336,67729,1,2,0:0:0
440,128,67966,1,0,0:0:0
440,128,68084,1,0,0:0:0
440,128,68202,2,0,P|392:128|328:168,1,112.5,8|0,0:0|0:0,0:0:0
240,252,68674,5,2,0:0:0
308,344,68910,1,2,0:0:0
364,240,69147,1,8,0:0:0
188,352,69383,1,2,0:0:0
64,352,69619,2,0,B|16:312|36:252,1,112.5,2|2,0:0|0:0,0:0:0
60,232,69973,1,0,0:0:0
84,220,70092,2,2,B|84:84,1,112.499998323619,8|2,0:0|0:0,0:0:0
192,24,70564,5,2,0:0:0
220,156,70800,1,0,0:0:0
220,156,70918,1,0,0:0:0
220,156,71036,1,8,0:0:0
344,84,71273,1,8,0:0:0
460,144,71509,5,6,0:2:0
420,272,71745,1,6,0:2:0
420,272,71863,1,0,0:0:0
420,272,71981,1,6,0:2:0
292,312,72218,1,0,0:0:0
292,312,72454,6,2,B|164:312,1,112.499998323619,2|0,0:0|0:0,0:0:0
136,308,72808,1,0,0:0:0
92,296,72926,2,2,B|40:264|44:200,1,112.5,8|2,0:0|0:0,0:0:0
172,76,73399,2,0,B|220:92|252:164|232:228,1,168.75,2|0,0:0|0:0,0:0:0
232,252,73871,2,2,B|296:268|332:216,1,112.5,10|0,0:0|0:0,0:0:0
460,140,74344,5,2,0:0:0
340,92,74580,2,0,B|228:92,1,112.5,2|10,0:0|0:0,0:0:0
120,92,75052,1,2,0:0:0
44,192,75288,2,2,P|48:280|124:312,1,168.75,2|0,0:0|0:0,0:0:0
140,312,75761,2,0,B|268:312,1,112.5,8|0,0:0|0:0,0:0:0
392,268,76233,5,2,0:0:0
452,172,76470,1,2,0:0:0
356,112,76706,1,10,0:0:0
297,207,76942,1,2,0:0:0
224,292,77178,1,2,0:0:0
124,240,77414,1,2,0:0:0
68,152,77651,2,2,B|124:120|176:152,1,112.5,8|2,0:0|0:0,0:0:0
360,256,78123,6,2,P|288:292|212:248,1,168.75,2|0,0:0|0:0,0:0:0
196,224,78595,1,10,0:0:0
84,116,78832,1,2,0:0:0
84,116,79068,5,6,0:2:0
240,276,79304,1,6,0:2:0
300,60,79540,1,6,0:2:0
384,132,79777,5,0,0:0:0
384,132,79895,1,0,0:0:0
384,132,80013,2,2,B|432:168|416:232,1,112.5,2|0,0:0|0:0,0:0:0
228,364,80485,2,2,B|180:328|196:264,1,112.5,8|2,0:0|0:0,0:0:0
264,100,80958,2,2,P|212:156|124:140,1,168.75,0|0,0:0|0:0,0:0:0
104,120,81430,1,10,0:0:0
256,192,81666,1,0,0:0:0
368,196,81903,6,2,P|424:200|464:240,1,112.5,2|2,0:0|0:0,0:0:0
464,284,82257,1,0,0:0:0
428,312,82375,2,2,P|372:308|332:268,1,112.5,8|2,0:0|0:0,0:0:0
192,220,82847,1,2,0:0:0
60,332,83084,1,0,0:0:0
60,332,83202,1,0,0:0:0
60,332,83320,1,8,0:0:0
192,220,83556,1,0,0:0:0
192,220,83792,6,0,B|144:160|204:96,1,112.499998323619,2|2,0:0|0:0,0:0:0
320,164,84265,2,2,B|368:224|308:288,1,112.499998323619,8|2,0:0|0:0,0:0:0
192,220,84737,5,2,0:0:0
320,164,84973,1,2,0:0:0
324,267,85210,1,10,0:0:0
187,116,85446,1,2,0:0:0
60,276,85682,5,2,0:0:0
256,312,86036,1,0,0:0:0
256,312,86155,2,0,P|272:252|264:192,1,112.5,8|0,0:0|0:0,0:0:0
84,100,86627,1,6,0:2:0
104,120,86745,1,0,0:0:0
124,140,86863,1,6,0:2:0
144,160,86981,1,0,0:0:0
160,176,87099,2,0,B|296:176,1,112.499998323619,6|0,0:2|0:0,0:0:0
364,172,87572,5,4,0:0:0
432,232,87808,1,0,0:0:0
432,232,87926,1,0,0:0:0
432,232,88044,2,0,B|424:284|376:304,1,90,8|0,0:0|0:0,0:0:0
256,312,88517,1,0,0:0:0
130,301,88753,5,0,0:0:0
130,301,88871,1,0,0:0:0
130,301,88989,2,0,B|88:284|80:232,1,90,8|0,0:0|0:0,0:0:0
380,128,89462,1,6,0:0:0
412,212,89698,1,0,0:0:0
412,212,89816,1,0,0:0:0
412,212,89934,2,0,B|360:232|360:284,1,90,8|0,0:0|0:0,0:0:0
268,276,90407,2,0,B|216:280|196:324,1,90
164,336,90761,1,0,0:0:0
128,332,90879,2,0,B|76:320|68:268,1,90,8|0,0:0|0:0,0:0:0
180,152,91351,6,4,P|240:172|280:232,1,135,4|0,0:0|0:0,0:0:0
284,256,91824,1,8,0:0:0
168,264,92060,1,0,0:0:0
168,264,92296,2,0,B|288:120,1,180,0|8,0:0|0:0,0:0:0
352,184,93005,1,0,0:0:0
342,324,93241,5,0,0:0:0
123,278,93477,1,0,0:0:0
169,59,93714,1,8,0:0:0
388,105,93950,1,0,0:0:0
312,196,94186,2,0,B|324:248|372:260,1,90,0|8,0:0|0:0,0:0:0
412,252,94540,1,0,0:0:0
428,208,94658,2,0,B|416:156|370:144,1,90,8|0,0:0|0:0,0:0:0
192,140,95131,6,0,P|88:140,1,90
192,140,95603,2,0,P|101:192,1,90,8|0,0:0|0:0,0:0:0
84,268,96076,1,0,0:0:0
152,328,96312,1,0,0:0:0
240,308,96548,1,8,0:0:0
312,248,96784,1,0,0:0:0
312,248,97021,6,0,B|452:212,1,135
472,208,97493,1,2,0:0:0
428,128,97729,5,0,0:0:0
282,22,97966,1,4,0:0:0
136,127,98202,1,4,0:0:0
192,299,98438,1,4,0:0:0
372,299,98674,1,4,0:0:0
280,168,98910,5,4,0:0:0
256,192,112139,12,0,113556,0:0:0
436,192,114029,6,0,B|420:144|372:128,1,90
264,220,114501,2,0,B|280:268|328:280,1,90,2|0,0:0|0:0,0:0:0
376,128,114973,2,0,B|268:128,1,90
256,128,115328,1,0,0:0:0
228,128,115446,2,0,B|180:136|164:192,1,90,2|0,0:0|0:0,0:0:0
128,268,115918,6,0,B|196:268|220:328|220:328|288:328,2,180,2|2|0,0:0|0:0|0:0,0:0:0
136,360,117099,1,0,0:0:0
200,228,117336,1,2,0:0:0
312,136,117572,1,0,0:0:0
392,176,117808,6,0,P|368:224|404:292,1,135,2|0,0:0|0:0,0:0:0
428,304,118281,2,0,B|316:340,1,90,2|0,0:0|0:0,0:0:0
256,356,118753,1,2,0:0:0
188,252,118989,5,2,0:0:0
253,6,119225,1,2,0:0:0
97,96,119462,1,2,0:0:0
344,164,119698,2,0,P|416:188|472:156,1,135,2|0,0:0|0:0,0:0:0
404,104,120170,2,0,P|408:196|364:268,1,180,2|4,0:0|0:0,0:0:0
80,300,121115,1,2,0:0:0
80,300,121588,6,0,B|64:252|96:212,1,90,2|2,0:0|0:0,0:0:0
112,196,121942,1,0,0:0:0
128,180,122060,2,0,B|157:142|141:94,1,90,2|0,0:0|0:0,0:0:0
56,128,122533,1,2,0:0:0
220,204,122769,2,0,B|336:204,1,90,2|0,0:0|0:0,0:0:0
384,252,123241,1,2,0:0:0
364,340,123477,6,0,B|312:332|300:280,1,90,2|2,0:0|0:0,0:0:0
384,252,123950,1,0,0:0:0
232,320,124186,1,2,0:0:0
68,300,124422,2,0,B|68:176,1,90,2|0,0:0|0:0,0:0:0
72,68,124895,1,2,0:0:0
176,164,125131,1,2,0:0:0
176,164,125367,6,0,B|196:208|248:208,1,90,2|2,0:0|0:0,0:0:0
372,156,125840,2,0,B|352:112|300:112,1,90,2|2,0:0|0:0,0:0:0
196,272,126312,2,0,B|220:320|272:316,1,90,2|2,0:0|0:0,0:0:0
304,316,126666,1,0,0:0:0
340,308,126784,2,0,B|388:296|400:248,1,90,2|0,0:0|0:0,0:0:0
396,148,127257,6,0,B|328:184|260:128|264:76,2,180,4|4|4,0:2|0:2|0:2,0:0:0
356,60,128438,1,0,0:0:0
356,60,128556,1,0,0:0:0
356,60,128674,1,8,0:0:0
456,80,128910,1,0,0:0:0
448,184,129147,6,0,P|392:220|396:296,1,135,4|0,0:0|0:0,0:0:0
400,312,129619,2,0,B|280:264,1,90,8|0,0:0|0:0,0:0:0
148,212,130092,1,0,0:0:0
232,244,130328,1,0,0:0:0
304,192,130564,1,8,0:0:0
220,160,130800,1,0,0:0:0
160,300,131036,6,0,P|216:340|280:324,1,135
276,240,131509,2,0,P|264:280|276:326,1,90,8|0,0:0|0:0,0:0:0
440,324,131981,2,0,P|452:284|439:237,1,90,0|0,0:0|0:0,0:0:0
428,220,132336,1,0,0:0:0
412,204,132454,1,8,0:0:0
332,132,132690,1,0,0:0:0
228,96,132926,5,4,0:0:0
124,132,133162,1,0,0:0:0
124,132,133281,1,0,0:0:0
124,132,133399,2,0,B|104:184|136:220,1,90,8|0,0:0|0:0,0:0:0
264,348,133871,2,0,B|306:268,1,90
260,128,134344,2,0,B|217:207,1,90,8|0,0:0|0:0,0:0:0
348,252,134816,6,0,B|388:232|444:244|460:300,1,135
384,340,135288,2,0,B|440:152,1,180,8|0,0:0|0:0,0:0:0
328,76,135997,2,2,B|288:104,3,30
184,60,136470,1,2,0:0:0
64,144,136706,6,0,B|108:244,1,90,4|0,0:0|0:0,0:0:0
108,248,137060,1,0,0:0:0
116,268,137178,2,0,B|168:280|180:328,1,90,8|0,0:0|0:0,0:0:0
296,348,137651,1,0,0:0:0
404,308,137887,1,0,0:0:0
404,308,138005,1,0,0:0:0
404,308,138123,2,0,P|440:288|452:232,1,90,8|0,0:0|0:0,0:0:0
300,224,138595,5,0,0:0:0
212,252,138832,1,0,0:0:0
300,244,139068,1,8,0:0:0
212,232,139304,1,0,0:0:0
120,204,139540,2,0,B|76:188|32:204,2,90,0|0|8,0:0|0:0|0:0,0:0:0
256,300,140249,5,0,0:0:0
256,300,140367,1,0,0:0:0
256,300,140485,2,0,B|304:324|344:300,1,90,4|0,0:0|0:0,0:0:0
494,237,140958,2,0,B|446:213|408:236,1,90,8|0,0:0|0:0,0:0:0
448,316,141430,1,0,0:0:0
448,136,141666,1,0,0:0:0
304,24,141903,1,8,0:0:0
280,204,142139,1,0,0:0:0
348,116,142375,6,0,B|392:56|468:84,2,135.000005149842,4|4|4,0:2|0:2|0:2,0:0:0
232,196,143556,1,8,0:0:0
232,196,143792,2,0,B|248:244|296:252,1,90,8|0,0:0|0:0,0:0:0
388,244,144265,5,4,0:0:0
352,328,144501,1,0,0:0:0
176,292,144737,1,8,0:0:0
352,328,144973,1,0,0:0:0
176,292,145210,2,0,B|128:280|116:232,1,90
336,92,145682,2,0,B|384:104|396:152,1,90,8|0,0:0|0:0,0:0:0
400,244,146155,6,0,B|352:236|304:256|280:312|292:360,2,180,4|4|4,0:2|0:2|0:2,0:0:0
388,340,147336,1,0,0:0:0
388,340,147454,1,0,0:0:0
388,340,147572,1,8,0:0:0
388,340,147808,1,0,0:0:0
228,316,148044,6,0,B|152:320|132:240,1,135.000005149842,6|0,0:0|0:0,0:0:0
124,208,148399,1,0,0:0:0
116,176,148517,2,2,B|96:96|20:100,1,135.000005149842,8|2,0:0|0:0,0:0:0
32,192,148989,2,2,B|44:136|144:104|200:164,1,202.500007724762,2|0,0:0|0:0,0:0:0
224,188,149462,2,2,B|276:244|348:208,1,135.000005149842,10|0,0:0|0:0,0:0:0
444,164,149934,5,2,0:0:0
460,56,150170,1,2,0:0:0
428,272,150407,1,8,0:0:0
292,268,150643,2,2,P|224:264|172:312,1,135.000005149842,0|2,0:0|0:0,0:0:0
356,348,151115,1,0,0:0:0
356,348,151233,1,0,0:0:0
356,348,151351,2,0,P|388:304|380:216,1,135.000005149842,8|0,0:0|0:0,0:0:0
90,59,151824,5,2,0:0:0
224,244,152060,1,2,0:0:0
306,130,152296,1,8,0:0:0
224,16,152533,1,2,0:0:0
90,199,152769,2,2,P|96:276|144:308,1,135.000005149842,2|0,0:0|0:0,0:0:0
292,228,153241,2,2,P|224:208|164:228,1,135.000005149842,8|2,0:0|0:0,0:0:0
372,272,153714,5,2,0:0:0
296,68,153950,1,0,0:0:0
296,68,154068,1,0,0:0:0
296,68,154186,1,8,0:0:0
180,136,154422,1,8,0:0:0
64,204,154658,5,6,0:2:0
296,68,154895,1,6,0:2:0
64,204,155131,1,6,0:2:0
176,268,155367,5,0,0:0:0
176,268,155485,1,0,0:0:0
176,268,155603,2,2,B|256:280|264:360,1,135.000005149842,2|0,0:0|0:0,0:0:0
128,332,156076,1,10,0:0:0
312,268,156312,1,2,0:0:0
312,268,156548,2,2,P|416:228|416:84,1,270.000010299683,2|10,0:0|0:0,0:0:0
284,60,157257,1,0,0:0:0
88,256,157493,6,0,B|128:328|200:304,1,135.000005149842,2|2,0:0|0:0,0:0:0
256,180,157966,2,2,B|216:108|144:132,1,135.000005149842,8|2,0:0|0:0,0:0:0
324,256,158438,1,2,0:0:0
432,320,158674,1,0,0:0:0
432,320,158792,1,0,0:0:0
432,320,158910,1,8,0:0:0
444,212,159147,1,0,0:0:0
456,104,159383,5,2,0:0:0
360,152,159619,1,2,0:0:0
444,212,159855,1,8,0:0:0
456,104,160092,1,2,0:0:0
360,152,160328,2,0,B|304:100|236:140,1,135.000005149842,2|2,0:0|0:0,0:0:0
208,160,160682,1,0,0:0:0
176,176,160800,2,2,B|108:216|52:164,1,135.000005149842,8|2,0:0|0:0,0:0:0
124,88,161273,2,2,B|112:292,1,202.500007724762,2|0,0:0|0:0,0:0:0
112,316,161745,1,8,0:0:0
224,256,161981,6,0,B|296:224|352:280,1,135.000005149842,8|6,0:0|0:2,0:0:0
200,344,162454,1,6,0:2:0
272,64,162690,1,6,0:2:0
436,164,162926,5,0,0:0:0
436,164,163044,1,0,0:0:0
436,164,163162,2,2,B|376:184|368:252|380:304|432:328,1,202.500007724762,2|0,0:0|0:0,0:0:0
460,336,163635,1,10,0:0:0
480,248,163871,1,2,0:0:0
284,328,164107,2,2,P|184:316|136:232,1,202.500007724762,2|0,0:0|0:0,0:0:0
140,200,164580,1,10,0:0:0
368,76,164816,5,0,0:0:0
368,76,164934,1,0,0:0:0
368,76,165052,2,0,B|432:116|416:192,1,135.000005149842,2|2,0:0|0:0,0:0:0
360,328,165525,1,10,0:0:0
256,188,165761,1,2,0:0:0
348,232,165997,2,2,P|176:340,1,202.500007724762,2|0,0:0|0:0,0:0:0
148,360,166470,2,0,P|96:324|92:256,1,135.000005149842,8|0,0:0|0:0,0:0:0
104,224,166824,1,0,0:0:0
124,196,166942,6,2,P|120:128|68:92,1,135.000005149842,0|2,0:0|0:0,0:0:0
104,224,167414,2,2,P|232:152,1,135.000005149842,8|2,0:0|0:0,0:0:0
388,64,167887,2,0,B|324:20|260:64,1,135.000005149842,2|2,0:0|0:0,0:0:0
104,224,168359,1,10,0:0:0
268,336,168595,1,2,0:0:0
440,232,168832,5,2,0:0:0
404,100,169068,1,0,0:0:0
404,100,169186,1,0,0:0:0
404,100,169304,1,10,0:0:0
304,192,169540,1,2,0:0:0
148,320,169777,5,6,0:2:0
116,120,170013,1,6,0:2:0
304,192,170249,1,6,0:2:0
396,340,170485,5,0,0:0:0
396,340,170603,1,0,0:0:0
396,340,170721,2,2,B|456:292|432:212,1,134.999995976687,2|0,0:0|0:0,0:0:0
292,72,171194,2,2,B|232:120|256:200,1,134.999995976687,8|2,0:0|0:0,0:0:0
260,328,171666,1,2,0:0:0
400,204,171903,1,0,0:0:0
400,204,172021,1,0,0:0:0
400,204,172139,1,10,0:0:0
200,180,172375,1,2,0:0:0
200,180,172611,6,2,B|120:184|88:248,1,135.000005149842,2|2,0:0|0:0,0:0:0
168,356,173084,2,2,B|248:352|280:288,1,135.000005149842,10|2,0:0|0:0,0:0:0
344,88,173556,1,2,0:0:0
344,88,173792,5,0,0:0:0
256,192,174029,1,8,0:0:0
304,320,174265,1,0,0:0:0
304,320,174383,1,0,0:0:0
304,320,174501,2,0,B|384:304|384:224,1,135.000005149842,2|2,0:0|0:0,0:0:0
464,156,174973,6,0,B|410:94|340:134,1,135.000005149842,10|2,0:0|0:0,0:0:0
240,100,175446,2,0,B|220:176|283:217,1,135.000005149842,2|2,0:0|0:0,0:0:0
312,140,175918,2,2,P|240:152|204:204,1,135.000005149842,8|2,0:0|0:0,0:0:0
216,336,176391,5,2,0:0:0
416,284,176627,1,0,0:0:0
416,284,176745,1,0,0:0:0
416,284,176863,2,0,B|456:228|436:156,1,135.000005149842,8|0,0:0|0:0,0:0:0
300,156,177336,2,0,P|244:128|216:64,1,135.000005149842,2|2,0:0|0:0,0:0:0
328,48,177808,1,2,0:0:0
128,128,178044,5,0,0:0:0
128,128,178162,1,0,0:0:0
128,128,178281,1,4,0:0:0
64,200,178517,1,0,0:0:0
64,200,178635,1,0,0:0:0
64,200,178753,1,2,0:0:0
104,280,178989,1,0,0:0:0
104,280,179107,1,0,0:0:0
104,280,179225,1,0,0:0:0
168,216,179462,6,2,B|220:216,2,45,0|0|2,0:0|0:0|0:0,0:0:0
256,288,179934,1,0,0:0:0
256,288,180052,1,0,0:0:0
256,288,180170,2,0,B|308:280|348:308,1,90,0|0,0:0|0:0,0:0:0
360,320,180525,1,0,0:0:0
372,336,180643,1,2,0:0:0
432,256,180879,5,2,0:0:0
464,224,180997,1,0,0:0:0
476,180,181115,1,2,0:0:0
468,136,181233,1,0,0:0:0
436,104,181351,1,2,0:0:0
392,92,181470,1,2,0:0:0
352,112,181588,1,2,0:0:0
324,148,181706,1,2,0:0:0
292,180,181824,1,2,0:0:0
248,196,181942,1,2,0:0:0
204,184,182060,5,4,0:0:0
