osu file format v11

[General]
AudioFilename: Phoenix Legend - Zui Xuan Min Zu Feng.mp3
AudioLeadIn: 0
PreviewTime: 23202
Countdown: 0
SampleSet: Normal
StackLeniency: 0.4
Mode: 0
LetterboxInBreaks: 1

[Editor]
Bookmarks: 8203,23320,38438,57336,72454,73399,87572,98910,114029,123241,125131,129147,148044,163162,178281
DistanceSpacing: 1.3
BeatDivisor: 4
GridSize: 4

[Metadata]
Title:Zui Xuan Min Zu Feng
TitleUnicode:最炫民族风
Artist:Phoenix Legend
ArtistUnicode:凤凰传奇
Creator:a3272509123
Version:Insane
Source:
Tags:lkx_shore [CSGA]Ar3sgice raririn 384059043
BeatmapID:155120
BeatmapSetID:50453

[Difficulty]
HPDrainRate:7
CircleSize:5
OverallDifficulty:7
ApproachRate:8
SliderMultiplier:1.8
SliderTickRate:2

[Events]
//Background and Video events
0,0,"background.jpg"
//Break Periods
2,99110,111861
//Storyboard Layer 0 (Background)
//Storyboard Layer 1 (Fail)
//Storyboard Layer 2 (Pass)
//Storyboard Layer 3 (Foreground)
//Storyboard Sound Samples
//Background Colour Transformations
3,100,163,162,255

[TimingPoints]
2533,472.44094488189,4,2,0,70,1,0
3477,-100,4,2,0,30,0,0
6784,-100,4,2,0,40,0,0
7257,-100,4,2,0,50,0,0
7729,-100,4,2,0,60,0,0
8202,-100,4,2,0,70,0,0
8674,-100,4,2,1,70,0,0
15761,-100,4,2,0,70,0,0
15997,-100,4,2,1,70,0,0
22847,-50,4,1,0,30,0,0
23084,-100,4,2,1,5,0,0
23320,-100,4,2,0,70,0,0
25210,-200,4,2,0,70,0,0
26391,-100,4,2,0,70,0,0
28989,-200,4,2,0,70,0,0
30407,-200,4,2,0,40,0,0
30879,-100,4,2,0,70,0,0
37493,-100,4,1,1,60,0,0
38202,-100,4,2,1,20,0,0
38438,-100,4,1,1,60,0,0
40328,-200,4,1,1,60,0,0
41509,-100,4,1,1,60,0,0
45052,-100,4,2,1,60,0,0
45997,-100,4,1,1,60,0,0
56627,-100,4,1,1,40,0,0
57336,-100,4,1,0,70,0,1
72336,-100,4,1,0,70,0,0
72454,-100,4,1,0,70,0,1
79068,-100,4,2,0,70,0,1
79698,-100,4,1,0,70,0,1
83792,-100,4,2,0,70,0,1
84029,-100,4,1,0,70,0,1
84265,-100,4,2,0,70,0,1
84501,-100,4,1,0,70,0,1
84737,-100,4,2,0,70,0,1
85210,-100,4,1,0,70,0,1
86863,-66.6666666666667,4,1,0,70,0,1
87099,-50,4,1,0,70,0,1
87336,-100,4,2,0,20,0,1
87572,-100,4,2,0,70,0,0
89225,-100,4,1,0,70,0,0
91351,-100,4,2,0,70,0,0
91470,-100,4,2,1,70,0,0
95131,-100,4,2,0,70,0,0
95603,-100,4,2,1,70,0,0
96076,-100,4,2,0,70,0,0
96548,-100,4,2,1,70,0,0
97021,-200,4,2,0,20,0,0
97966,-100,4,1,0,70,0,0
98910,-100,4,2,0,70,0,0
115918,-200,4,2,0,70,0,0
117099,-100,4,2,0,70,0,0
119698,-200,4,2,0,70,0,0
121588,-100,4,2,0,70,0,0
128202,-100,4,1,1,70,0,0
128674,-200,4,1,1,70,0,0
128910,-100,4,2,1,20,0,0
129147,-100,4,1,1,70,0,0
142375,-100,4,2,1,70,0,0
143674,-100,4,1,1,70,0,0
147572,-66.6666666666667,4,1,1,70,0,0
147808,-100,4,2,1,20,0,0
148044,-100,4,1,0,70,0,1
163044,-100,4,1,0,70,0,0
163162,-100,4,1,0,70,0,1
169777,-100,4,2,0,70,0,1
170407,-100,4,1,0,70,0,1
174501,-100,4,2,0,70,0,1
174737,-100,4,1,0,70,0,1
174973,-100,4,2,0,70,0,1
175209,-100,4,1,0,70,0,1
175445,-100,4,2,0,70,0,1
175918,-100,4,1,0,70,0,1
177335,-200,4,1,0,70,0,1
177571,-100,4,1,0,70,0,1
177808,-66.6666666666667,4,1,0,70,0,1
178044,-100,4,2,0,20,0,1
178281,-100,4,2,0,50,0,0

[Colours]
Combo1 : 255,162,68
Combo2 : 70,251,70
Combo3 : 79,79,251
Combo4 : 252,88,88

[HitObjects]
256,192,3241,2,0,B|256:236,3,30,0|0|0|2,0:0|0:0|0:0|0:0,0:0:0
256,192,3595,12,4,8202,0:0:0
64,96,8674,5,8,0:0:0
160,128,8910,1,2,0:0:0
256,160,9147,2,0,B|384:192,2,90,4|2|8,0:0|0:0|0:0,0:0:0
64,288,9855,1,2,0:0:0
64,288,9973,1,0,0:0:0
64,288,10092,2,0,B|160:288,1,90,4|0,0:0|0:0,0:0:0
154,288,10446,1,0,0:0:0
154,288,10564,1,8,0:0:0
236,244,10800,1,2,0:0:0
312,200,11036,2,0,B|404:200,2,90,4|2|8,0:0|0:0|0:0,0:0:0
232,156,11745,1,2,0:0:0
232,156,11863,1,2,0:0:0
232,156,11981,6,0,B|176:204|104:192,1,135,4|0,0:0|0:0,0:0:0
44,188,12454,1,8,0:0:0
152,256,12690,1,2,0:0:0
232,156,12926,2,0,B|288:188|348:152,2,90,4|2|8,0:0|0:0|0:0,0:0:0
288,256,13635,5,2,0:0:0
352,288,13753,1,2,0:0:0
416,256,13871,1,4,0:0:0
473,125,14107,2,0,B|409:117,1,45,0|2,0:0|0:0,0:0:0
360,96,14344,1,8,0:0:0
216,104,14580,1,0,0:0:0
144,112,14698,2,0,B|96:104,1,45,2|4,0:0|0:0,0:0:0
144,240,15052,2,2,B|152:272,1,30
216,264,15210,2,2,B|228:304,1,30,2|10,0:0|0:0,0:0:0
352,288,15525,1,4,0:0:0
416,192,15761,5,4,0:0:0
320,136,15997,1,2,0:0:0
224,80,16233,2,0,B|136:80,1,90,8|2,0:0|0:0,0:0:0
134,80,16588,1,0,0:0:0
134,80,16706,1,4,0:0:0
72,152,16942,2,0,B|72:240,2,90,2|8|0,0:0|0:0|0:0,0:0:0
168,168,17651,1,4,0:0:0
251,219,17887,5,2,0:0:0
300,220,18005,1,0,0:0:0
347,219,18123,1,8,0:0:0
406,296,18359,1,2,0:0:0
356,296,18477,1,0,0:0:0
310,296,18595,1,4,0:0:0
212,296,18832,1,4,0:0:0
121,259,19068,6,0,B|74:229|55:164|111:105|176:120,1,180,8|4,0:0|0:0,0:0:0
240,152,19777,1,2,0:0:0
344,165,20013,2,0,B|392:181|440:157,1,90,8|0,0:0|0:0,0:0:0
384,256,20485,1,4,0:0:0
248,304,20721,1,2,0:0:0
112,352,20958,2,0,B|56:349|7:302|26:223|90:204,1,180,8|4,0:0|0:0,0:0:0
136,264,21666,1,2,0:0:0
232,212,21903,5,2,0:0:0
268,272,22021,1,0,0:0:0
336,296,22139,1,0,0:0:0
400,260,22257,1,0,0:0:0
428,196,22375,1,2,0:0:0
392,136,22493,1,0,0:0:0
328,108,22611,1,0,0:0:0
264,144,22729,1,0,0:0:0
232,212,22847,6,2,B|132:290|219:293|276:263|134:193,1,180
112,120,23320,5,0,0:0:0
328,88,23792,1,2,0:0:0
432,104,24029,1,0,0:0:0
360,184,24265,2,0,B|328:240|352:328|400:344,1,180,0|2,0:0|0:0,0:0:0
432,256,24973,1,0,0:0:0
256,320,25210,6,0,B|152:320,2,90,0|2|0,0:0|0:0|0:0,0:0:0
412,236,26391,1,0,0:0:0
412,236,26509,1,0,0:0:0
412,236,26627,1,2,0:0:0
256,320,26863,1,2,0:0:0
224,232,27099,5,0,0:0:0
432,184,27572,1,2,0:0:0
328,150,27808,1,0,0:0:0
328,42,28044,1,0,0:0:0
432,10,28281,1,2,0:0:0
494,96,28517,1,2,0:0:0
432,184,28753,1,0,0:0:0
328,150,28989,6,0,B|238:150,2,90,0|2|2,0:0|0:0|0:0,0:0:0
448,320,30407,1,2,0:0:0
272,248,30879,6,0,B|240:328|128:304,1,135,4|0,0:0|0:0,0:0:0
120,280,31351,1,2,0:0:0
128,168,31588,1,0,0:0:0
200,88,31824,1,0,0:0:0
232,192,32060,2,0,B|424:224,1,180,2|2,0:0|0:0,0:0:0
408,328,32769,6,0,B|328:352|272:288,1,135
288,236,33241,2,0,B|296:292|228:332,1,90,2|0,0:0|0:0,0:0:0
160,328,33714,1,0,0:0:0
40,156,33950,1,0,0:0:0
40,156,34068,1,0,0:0:0
40,156,34186,1,2,0:0:0
160,328,34422,1,2,0:0:0
188,232,34658,6,0,B|236:240|280:176,1,90
176,128,35131,1,2,0:0:0
176,128,35367,1,0,0:0:0
188,232,35603,2,0,B|284:228|324:88,1,180,0|2,0:0|0:0,0:0:0
428,148,36312,1,0,0:0:0
348,224,36548,5,4,0:0:0
108,300,37021,5,2,0:0:0
152,52,37493,5,0,0:0:0
256,124,37729,1,0,0:0:0
280,144,37847,1,0,0:0:0
308,164,37966,2,0,B|412:164,1,90,8|0,0:0|0:0,0:0:0
448,256,38438,6,0,B|356:280,1,90,4|2,0:0|0:0,0:0:0
264,308,38910,1,8,0:0:0
264,308,39147,1,0,0:0:0
264,308,39383,2,0,B|204:360|124:264|184:216,1,180,0|8,0:0|0:0,0:0:0
248,152,40092,1,2,0:0:0
348,112,40328,6,0,B|460:112,2,90,0|8|0,0:0|0:0|0:0,0:0:0
220,116,41509,1,0,0:0:0
220,116,41627,1,0,0:0:0
220,116,41745,1,8,0:0:0
256,208,41981,1,0,0:0:0
352,240,42218,6,0,B|412:256|480:232,1,90,0|2,0:0|0:0,0:0:0
364,340,42690,2,0,B|292:352|248:316,1,90,8|0,0:0|0:0,0:0:0
186,330,43162,1,0,0:0:0
100,303,43399,1,2,0:0:0
100,211,43635,1,8,0:0:0
188,184,43871,1,0,0:0:0
241,256,44107,5,0,0:0:0
464,136,44580,1,8,0:0:0
241,256,45052,1,2,0:0:0
336,276,45288,2,0,B|384:276,3,30,2|0|0|2,0:0|0:0|0:0|0:0,0:0:0
308,184,45761,1,2,0:0:0
416,68,45997,6,0,B|464:136|408:196,1,135,4|0,0:0|0:0,0:0:0
360,228,46470,1,8,0:0:0
236,252,46706,1,2,0:0:0
212,128,46942,1,0,0:0:0
236,252,47178,2,0,B|256:348,2,90,2|8|0,0:0|0:0|0:0,0:0:0
324,160,47887,2,0,B|352:280,1,90
344,247,48241,1,0,0:0:0
344,247,48359,1,8,0:0:0
456,192,48595,1,0,0:0:0
396,80,48832,6,0,B|344:116|228:92,1,135
208,68,49304,1,8,0:0:0
152,192,49540,1,0,0:0:0
276,244,49777,6,0,B|384:244,1,90,4|2,0:0|0:0,0:0:0
460,100,50249,2,0,B|364:100,1,90,8|0,0:0|0:0,0:0:0
248,136,50721,2,0,B|216:176|156:160,1,90,0|2,0:0|0:0,0:0:0
167,162,51076,1,0,0:0:0
167,162,51194,1,8,0:0:0
120,264,51430,1,0,0:0:0
40,344,51666,5,4,0:0:0
472,344,52139,5,4,0:0:0
364,280,52375,1,0,0:0:0
336,272,52493,1,0,0:0:0
308,264,52611,1,4,0:0:0
208,240,52847,1,0,0:0:0
220,140,53084,1,8,0:0:0
336,104,53320,1,2,0:0:0
360,112,53438,1,0,0:0:0
388,120,53556,6,0,B|396:212,1,90,0|0,0:0|0:0,0:0:0
256,308,54029,2,0,B|248:204,1,90,8|0,0:0|0:0,0:0:0
388,120,54501,2,0,B|352:232,1,90
224,304,54973,2,0,B|260:192,1,90,8|0,0:0|0:0,0:0:0
260,188,55328,1,0,0:0:0
268,156,55446,1,4,0:0:0
296,140,55918,5,4,0:0:0
324,128,56391,5,4,0:0:0
448,104,56627,1,0,0:0:0
448,104,56745,1,0,0:0:0
448,104,56863,1,8,0:0:0
404,220,57099,1,0,0:0:0
296,240,57336,5,2,0:0:0
200,256,57572,1,2,0:0:0
96,264,57808,2,0,B|44:268|0:248,1,90,8|0,0:0|0:0,0:0:0
164,188,58281,2,0,B|112:164|92:104,1,90,2|0,0:0|0:0,0:0:0
220,88,58753,1,8,0:0:0
356,52,58989,1,0,0:0:0
408,160,59225,5,2,0:0:0
352,260,59462,1,2,0:0:0
264,336,59698,2,0,B|224:360|168:352,1,90,8|0,0:0|0:0,0:0:0
92,224,60170,2,0,B|132:200|188:208,1,90,2|0,0:0|0:0,0:0:0
244,204,60525,1,0,0:0:0
304,228,60643,1,8,0:0:0
340,280,60761,1,0,0:0:0
400,304,60879,1,0,0:0:0
460,288,60997,1,0,0:0:0
416,244,61115,6,0,B|344:216,1,45,2|0,0:0|0:0,0:0:0
288,196,61351,1,2,0:0:0
100,72,61588,6,0,B|112:132,1,45,10|0,0:0|0:0,0:0:0
132,204,61824,1,2,0:0:0
356,72,62060,6,0,B|336:128,1,45,2|0,0:0|0:0,0:0:0
264,168,62296,2,0,B|236:232,1,45,2|0,0:0|0:0,0:0:0
320,276,62533,2,0,P|280:268|224:296,1,90,8|0,0:0|0:0,0:0:0
175,309,62887,1,0,0:0:0
175,309,63005,2,0,B|120:308,1,45,2|0,0:0|0:0,0:0:0
120,248,63241,2,0,B|72:264,1,45
184,240,63477,6,0,B|232:184|312:208,1,135,8|0,0:0|0:0,0:0:0
368,236,63950,2,0,P|432:244,1,45,2|0,0:0|0:0,0:0:0
468,192,64186,1,2,0:0:0
468,192,64304,1,0,0:0:0
480,124,64422,2,0,P|432:124|400:156,1,90,8|0,0:0|0:0,0:0:0
336,156,64777,1,0,0:0:0
288,112,64895,6,0,B|252:148|196:148,1,90,2|2,0:0|0:0,0:0:0
132,116,65249,1,0,0:0:0
68,164,65367,6,0,B|28:212|68:260,1,90,8|0,0:0|0:0,0:0:0
108,312,65721,1,0,0:0:0
188,288,65840,6,0,B|232:312|280:292,1,90,2|0,0:0|0:0,0:0:0
348,260,66194,1,0,0:0:0
408,204,66312,6,0,B|448:172|432:112,1,90,8|0,0:0|0:0,0:0:0
424,44,66666,1,0,0:0:0
424,44,66784,5,2,0:0:0
220,64,67021,1,2,0:0:0
436,56,67257,1,8,0:0:0
208,48,67493,1,0,0:0:0
488,180,67729,1,2,0:0:0
344,256,67966,1,2,0:0:0
344,256,68084,1,0,0:0:0
344,256,68202,6,0,P|288:276,1,45,8|0,0:0|0:0,0:0:0
236,284,68438,1,0,0:0:0
172,264,68556,1,0,0:0:0
144,200,68674,6,0,B|196:200,1,45,2|0,0:0|0:0,0:0:0
248,164,68910,2,0,B|300:172,1,45,2|0,0:0|0:0,0:0:0
364,184,69147,2,0,B|388:232|360:296,1,90,8|0,0:0|0:0,0:0:0
260,328,69619,6,0,B|148:348,1,90,2|2,0:0|0:0,0:0:0
252,56,70092,2,0,B|364:36,1,90,8|0,0:0|0:0,0:0:0
256,192,70564,12,0,71273,0:0:0
200,192,71509,6,0,B|168:248|168:248|216:244,1,90,2|2,0:0|0:0,0:0:0
256,224,71863,1,2,0:0:0
318,245,71981,2,0,B|344:248|344:248|312:192,1,90,2|0,0:0|0:0,0:0:0
364,68,72454,6,0,B|272:80,1,90,2|2,0:0|0:0,0:0:0
274,79,72808,1,0,0:0:0
274,79,72926,1,8,0:0:0
168,172,73162,1,0,0:0:0
304,220,73399,6,0,B|396:208,1,90,2|2,0:0|0:0,0:0:0
393,208,73753,1,0,0:0:0
393,208,73871,1,8,0:0:0
500,116,74107,1,0,0:0:0
364,72,74344,6,0,B|304:72,1,45,2|0,0:0|0:0,0:0:0
280,132,74580,2,0,B|220:132,1,45,2|0,0:0|0:0,0:0:0
204,68,74816,2,0,B|100:68,1,90,8|0,0:0|0:0,0:0:0
116,69,75170,1,0,0:0:0
116,69,75288,2,0,B|58:89|58:161|94:205|146:193,1,180,2|8,0:0|0:0,0:0:0
224,228,75997,1,0,0:0:0
224,228,76115,1,0,0:0:0
224,228,76233,6,0,B|332:248,1,90,2|2,0:0|0:0,0:0:0
424,124,76706,2,0,B|316:104,1,90,8|0,0:0|0:0,0:0:0
224,228,77178,2,0,B|196:268|196:268|212:320,1,90,2|2,0:0|0:0,0:0:0
424,124,77651,2,0,B|452:84|452:84|436:32,1,90,8|0,0:0|0:0,0:0:0
368,56,78005,1,0,0:0:0
368,56,78123,2,0,B|324:64,1,45,2|0,0:0|0:0,0:0:0
248,96,78359,2,0,B|284:124,1,45,2|0,0:0|0:0,0:0:0
352,132,78595,2,0,B|352:252,1,90,8|2,0:0|0:0,0:0:0
256,324,79068,5,4,0:0:0
256,180,79304,1,4,0:0:0
256,324,79540,1,4,0:0:0
376,248,79777,1,0,0:0:0
376,248,79895,1,0,0:0:0
376,248,80013,6,0,B|288:264,1,90,2|2,0:0|0:0,0:0:0
224,244,80367,1,0,0:0:0
260,324,80485,2,0,B|228:332|228:332|204:316|204:316|144:336,1,90,8|0,0:0|0:0,0:0:0
108,332,80840,1,0,0:0:0
108,332,80958,1,2,0:0:0
176,200,81194,1,2,0:0:0
107,177,81312,1,0,0:0:0
107,105,81430,1,8,0:0:0
176,83,81548,1,0,0:0:0
218,141,81666,1,0,0:0:0
356,104,81903,6,0,B|328:140|328:140|328:200,1,90,2|2,0:0|0:0,0:0:0
336,256,82257,1,0,0:0:0
272,224,82375,2,0,B|184:236,1,90,8|0,0:0|0:0,0:0:0
68,148,82847,2,0,B|136:128,1,45,2|0,0:0|0:0,0:0:0
272,224,83084,2,0,B|228:240,1,45,2|0,0:0|0:0,0:0:0
136,228,83320,2,0,B|80:260|124:344,1,90,8|0,0:0|0:0,0:0:0
180,320,83674,1,0,0:0:0
252,328,83792,5,4,0:0:0
300,192,84029,1,0,0:0:0
160,156,84265,1,4,0:0:0
128,296,84501,1,0,0:0:0
308,276,84737,5,4,0:0:0
284,96,84973,1,4,0:0:0
104,116,85210,1,0,0:0:0
128,296,85446,1,0,0:0:0
312,180,85682,6,2,B|364:200|404:156,2,90,2|2|8,0:0|0:0|0:0,0:0:0
256,80,86391,1,0,0:0:0
148,160,86627,6,2,B|72:196,1,60,2|0,0:0|0:0,0:0:0
148,160,86863,6,2,B|116:216|148:256,1,90.0000034332277,2|0,0:0|0:0,0:0:0
148,160,87099,6,2,B|140:232|228:264|268:192,1,180,2|0,0:0|0:0,0:0:0
266,194,87572,5,4,0:0:0
156,112,89225,5,0,0:0:0
156,112,89462,1,4,2:0:0
384,128,90761,5,0,0:0:0
384,128,90879,1,8,0:0:0
460,228,91115,1,8,0:0:0
256,320,91351,6,0,B|204:328|164:288,1,90,4|2,0:0|0:0,0:0:0
136,192,91824,2,0,B|188:184|228:224,1,90,8|2,0:0|0:0,0:0:0
316,260,92296,1,4,0:0:0
368,164,92533,1,2,0:0:0
272,116,92769,1,8,0:0:0
219,216,93005,1,2,0:0:0
219,216,93123,1,0,0:0:0
219,216,93241,2,0,B|252:304,1,90,4|2,0:0|0:0,0:0:0
380,224,93714,2,0,B|356:324,1,90,8|2,0:0|0:0,0:0:0
358,311,94186,1,2,0:0:0
358,311,94422,1,8,0:0:0
358,311,94658,1,8,0:0:0
160,224,95131,6,0,B|64:256,1,90,4|2,0:0|0:0,0:0:0
352,224,95603,2,8,B|448:256,1,90,8|2,0:0|0:0,0:0:0
128,96,96076,6,0,B|64:160,1,90,4|2,0:0|0:0,0:0:0
384,96,96548,2,0,B|448:160,1,90,8|2,0:0|0:0,0:0:0
256,64,97021,6,0,B|204:140|308:140|240:228,1,157.5
188,216,97966,6,2,B|124:248,1,60
224,268,98202,2,2,B|192:332,1,60
284,268,98438,2,2,B|316:332,1,60
324,216,98674,2,2,B|388:248,1,60
377,242,98910,5,4,0:0:0
256,192,112611,12,0,114029,0:0:0
156,68,114501,5,2,0:0:0
180,168,114737,1,0,0:0:0
272,224,114973,2,0,B|364:272|464:228,1,180,0|2,0:0|0:0,0:0:0
396,120,115682,1,0,0:0:0
446,235,115918,6,0,B|468:292|464:332,2,90,0|2|0,0:0|0:0|0:0,0:0:0
340,300,117099,1,0,0:0:0
340,300,117218,1,0,0:0:0
340,300,117336,2,0,B|300:320|248:316,1,90,2|0,0:0|0:0,0:0:0
148,192,117808,6,0,B|188:172|240:176,1,90,0|0,0:0|0:0,0:0:0
324,88,118281,1,2,0:0:0
352,212,118517,1,0,0:0:0
264,312,118753,2,0,B|228:352|180:364,1,90,0|2,0:0|0:0,0:0:0
108,228,119225,2,0,B|156:200|208:212,1,90,2|0,0:0|0:0,0:0:0
300,132,119698,6,0,B|300:192|348:224,2,90,0|2|4,0:0|0:0|0:0,0:0:0
300,132,120761,1,0,0:0:0
20,308,121588,6,0,B|148:312,1,90,4|0,0:0|0:0,0:0:0
232,336,122060,2,0,B|200:228,1,90,2|0,0:0|0:0,0:0:0
200,124,122533,1,0,0:0:0
324,124,122769,2,0,B|344:128|372:124,2,45,0|0|2,0:0|0:0|0:0,0:0:0
288,244,123241,2,0,B|307:251|335:252,1,45
396,248,123477,6,0,B|396:308|344:348,1,90
300,340,123832,1,0,0:0:0
240,320,123950,2,0,B|204:280|144:300,1,90,2|0,0:0|0:0,0:0:0
96,316,124304,1,0,0:0:0
32,328,124422,1,0,0:0:0
84,216,124658,2,0,B|100:172,1,45
124,116,124895,1,2,0:0:0
232,180,125131,2,0,B|248:136,1,45,0|2,0:0|0:0,0:0:0
292,92,125367,6,0,B|324:136|400:112,1,90
436,120,125721,2,0,B|456:168,1,45,0|2,0:0|0:0,0:0:0
340,216,126076,1,0,0:0:0
368,272,126194,2,0,B|388:320,1,45,0|0,0:0|0:0,0:0:0
260,336,126548,1,0,0:0:0
236,212,126784,1,2,0:0:0
360,184,127021,1,0,0:0:0
385,313,127257,5,4,0:0:0
256,96,127729,1,2,0:0:0
126,313,128202,1,0,0:0:0
216,292,128438,1,0,0:0:0
216,292,128556,1,0,0:0:0
216,292,128674,6,0,B|288:292,1,45,8|0,0:0|0:0,0:0:0
260,292,129147,6,0,B|303:288|312:292|312:292|344:260|412:260,1,135,2|0,0:0|0:0,0:0:0
444,284,129619,2,0,B|464:224|416:176,1,90,8|0,0:0|0:0,0:0:0
433,197,129973,1,0,0:0:0
433,197,130092,1,2,0:0:0
320,140,130328,2,0,B|264:164,2,45,2|0|8,0:0|0:0|0:0,0:0:0
224,60,130800,2,0,B|180:48,1,45,0|0,0:0|0:0,0:0:0
116,48,131036,6,0,B|48:96|92:196|156:184,1,180,2|8,0:0|0:0,0:0:0
184,104,131745,1,0,0:0:0
220,224,131981,2,0,B|148:300,1,90,2|0,0:0|0:0,0:0:0
158,289,132336,1,0,0:0:0
158,289,132454,1,8,0:0:0
244,316,132690,1,2,0:0:0
288,320,132808,1,0,0:0:0
332,324,132926,5,0,0:0:0
420,304,133162,1,2,0:0:0
400,216,133399,1,8,0:0:0
312,236,133635,1,0,0:0:0
312,236,133753,1,0,0:0:0
312,236,133871,2,0,B|266:219|244:164,1,90,2|0,0:0|0:0,0:0:0
364,152,134344,2,0,B|327:121|324:61,1,90,8|0,0:0|0:0,0:0:0
200,64,134816,6,0,B|132:104|132:176,1,135,0|2,0:0|0:0,0:0:0
188,200,135288,2,0,B|176:144|108:148,1,90,8|0,0:0|0:0,0:0:0
44,248,135761,6,0,B|84:316|156:316,1,135,0|2,0:0|0:0,0:0:0
180,260,136233,2,0,B|124:272|128:340,1,90,8|0,0:0|0:0,0:0:0
256,316,136706,2,0,B|304:308,1,45,4|0,0:0|0:0,0:0:0
344,248,136942,2,0,B|408:236,1,45,2|0,0:0|0:0,0:0:0
439,184,137178,2,0,B|367:156|343:80,1,135,8|0,0:0|0:0,0:0:0
292,44,137651,1,2,0:0:0
168,72,137887,1,2,0:0:0
196,196,138123,1,8,0:0:0
320,168,138359,1,0,0:0:0
280,288,138595,5,0,0:0:0
156,272,138832,1,2,0:0:0
92,264,138950,1,0,0:0:0
28,256,139068,1,8,0:0:0
112,164,139304,1,0,0:0:0
171,138,139422,1,0,0:0:0
230,113,139540,2,0,B|352:112,1,90,2|2,0:0|0:0,0:0:0
388,108,139895,1,0,0:0:0
452,136,140013,2,0,P|432:224|448:232,1,90,8|0,0:0|0:0,0:0:0
384,280,140485,6,0,B|332:252|264:280,1,90,4|2,0:0|0:0,0:0:0
236,288,140840,1,0,0:0:0
176,312,140958,2,0,B|136:332|136:332|112:320|80:340,1,90,8|0,0:0|0:0,0:0:0
44,216,141430,2,0,B|84:196|84:196|108:208|140:188,1,90,2|0,0:0|0:0,0:0:0
244,200,141903,1,8,0:0:0
268,84,142139,1,0,0:0:0
384,88,142375,6,0,B|432:80,2,45,2|0|0,0:0|0:0|0:0,0:0:0
364,188,142847,2,0,B|352:236,1,45,2|0,0:0|0:0,0:0:0
400,276,143084,2,0,B|360:320,1,45
304,304,143320,2,0,B|260:320,1,45,2|0,0:0|0:0,0:0:0
156,328,143674,1,0,0:0:0
156,328,143792,2,0,B|160:296|160:296|176:272|176:272|184:228,1,90,8|0,0:0|0:0,0:0:0
232,204,144147,1,0,0:0:0
292,184,144265,6,0,B|344:176|380:192,1,90,2|0,0:0|0:0,0:0:0
404,344,144737,2,0,B|352:352|316:336,1,90,8|0,0:0|0:0,0:0:0
188,328,145210,1,2,0:0:0
68,288,145446,1,2,0:0:0
68,162,145682,1,8,0:0:0
188,124,145918,1,0,0:0:0
262,226,146155,5,4,0:0:0
464,76,146627,1,4,0:0:0
262,226,147099,6,0,B|256:224|256:224|248:216|248:216|240:224|240:224|232:216|232:216|224:224|224:224|216:216|216:216|208:224|208:224|200:216|200:216|192:224|192:224|184:216|184:216|177:219|177:219|152:220,1,135,2|0,0:0|0:0,0:0:0
158,219,147572,6,0,B|88:208|32:272,1,135.000005149842,8|0,0:0|0:0,0:0:0
136,368,148044,5,2,0:0:0
208,264,148281,2,0,B|304:264,1,90,2|8,0:0|0:0,0:0:0
272,144,148753,1,2,0:0:0
272,144,148871,1,0,0:0:0
272,144,148989,1,0,0:0:0
432,212,149225,1,2,0:0:0
360,316,149462,2,0,B|336:304|336:304|276:324,1,90,8|0,0:0|0:0,0:0:0
212,336,149816,1,0,0:0:0
148,328,149934,5,2,0:0:0
384,120,150170,1,2,0:0:0
144,192,150407,2,0,B|244:180,1,90,8|0,0:0|0:0,0:0:0
452,64,150879,2,0,B|352:76,1,90,2|0,0:0|0:0,0:0:0
216,72,151351,1,8,0:0:0
144,192,151588,1,0,0:0:0
240,284,151824,6,0,B|268:312|336:312,1,90,2|2,0:0|0:0,0:0:0
444,280,152296,1,8,0:0:0
364,184,152533,1,0,0:0:0
280,88,152769,1,2,0:0:0
156,64,153005,1,2,0:0:0
220,176,153241,1,8,0:0:0
288,280,153477,1,0,0:0:0
352,284,153595,1,0,0:0:0
352,284,153714,6,0,B|360:232,1,45,2|0,0:0|0:0,0:0:0
416,200,153950,2,0,B|424:244,1,45,0|0,0:0|0:0,0:0:0
484,300,154186,2,0,B|436:296|396:320,1,90,8|0,0:0|0:0,0:0:0
328,344,154540,1,0,0:0:0
260,316,154658,6,0,P|216:332|156:328,1,90,2|2,0:0|0:0,0:0:0
112,296,155013,1,0,0:0:0
112,224,155131,1,8,0:0:0
156,168,155249,1,0,0:0:0
224,140,155367,1,0,0:0:0
288,172,155485,1,0,0:0:0
288,172,155603,5,2,0:0:0
412,288,155840,1,2,0:0:0
392,220,155958,1,0,0:0:0
376,152,156076,1,8,0:0:0
252,80,156312,1,0,0:0:0
252,80,156430,1,0,0:0:0
252,80,156548,2,0,B|212:116|212:116|200:184,1,90,2|0,0:0|0:0,0:0:0
205,151,156903,1,0,0:0:0
205,151,157021,2,0,P|224:240,1,90,8|0,0:0|0:0,0:0:0
328,320,157493,6,0,B|324:276|340:228,1,90,2|2,0:0|0:0,0:0:0
184,64,157966,2,0,B|188:108|172:156,1,90,8|2,0:0|0:0,0:0:0
364,116,158438,1,2,0:0:0
364,116,158556,2,0,B|392:164|392:164|376:232,1,90
344,244,158910,1,8,0:0:0
280,236,159029,1,0,0:0:0
240,284,159147,1,0,0:0:0
188,248,159265,1,0,0:0:0
128,268,159383,6,0,B|36:304,1,90,2|2,0:0|0:0,0:0:0
32,240,159737,1,0,0:0:0
24,176,159855,2,0,B|124:136,1,90,10|2,0:0|0:0,0:0:0
168,120,160210,1,0,0:0:0
228,96,160328,1,2,0:0:0
352,116,160564,2,0,B|396:116,3,30,2|0|0|8,0:0|0:0|0:0|0:0,0:0:0
284,192,161036,1,2,0:0:0
312,316,161273,5,2,0:0:0
192,288,161509,1,2,0:0:0
244,240,161627,1,0,0:0:0
176,220,161745,1,8,0:0:0
228,176,161863,1,0,0:0:0
168,148,161981,6,0,B|276:152,1,90,2|2,0:0|0:0,0:0:0
456,72,162454,1,2,0:0:0
237,72,162690,1,2,0:0:0
308,88,162808,1,0,0:0:0
364,132,162926,1,0,0:0:0
380,204,163044,1,0,0:0:0
356,276,163163,5,2,0:0:0
232,296,163399,1,2,0:0:0
168,296,163517,1,0,0:0:0
104,292,163635,1,8,0:0:0
188,200,163871,1,0,0:0:0
125,183,163989,1,0,0:0:0
65,162,164107,2,0,B|32:120|36:44,1,90,2|2,0:0|0:0,0:0:0
56,8,164462,1,0,0:0:0
120,44,164580,2,0,P|144:76|140:152,1,90,8|0,0:0|0:0,0:0:0
160,80,165052,6,0,B|256:76,1,90,2|2,0:0|0:0,0:0:0
249,76,165407,1,0,0:0:0
249,76,165525,1,8,0:0:0
376,68,165761,1,0,0:0:0
316,180,165997,2,0,B|296:228,1,45,2|0,0:0|0:0,0:0:0
360,240,166233,2,0,B|364:296,1,45
404,336,166470,2,0,B|348:364,1,45,8|0,0:0|0:0,0:0:0
304,336,166706,2,0,B|268:304,1,45
236,252,166942,6,0,B|192:248|144:264,1,90,0|2,0:0|0:0,0:0:0
20,88,167414,2,0,P|64:96|104:132,1,90,8|2,0:0|0:0,0:0:0
228,152,167887,1,2,0:0:0
356,120,168123,1,2,0:0:0
356,120,168241,1,0,0:0:0
356,120,168359,1,8,0:0:0
284,200,168595,1,2,0:0:0
284,200,168832,6,0,B|240:200,1,45,2|0,0:0|0:0,0:0:0
208,124,169068,2,0,B|160:124,1,45,2|0,0:0|0:0,0:0:0
136,200,169304,2,0,B|56:200,1,45,8|0,0:0|0:0,0:0:0
40,268,169540,6,0,B|60:368,1,90,2|4,0:0|0:0,0:0:0
256,280,170013,1,4,0:0:0
454,356,170249,1,4,0:0:0
364,244,170485,1,0,0:0:0
324,108,170721,5,2,0:0:0
196,176,170958,1,2,0:0:0
140,208,171076,1,0,0:0:0
92,248,171194,2,0,B|56:304|80:360,1,90,8|0,0:0|0:0,0:0:0
172,308,171548,1,0,0:0:0
248,348,171666,2,0,B|284:292|260:236,1,90,2|0,0:0|0:0,0:0:0
267,262,172021,1,0,0:0:0
267,262,172139,1,8,0:0:0
280,192,172257,1,0,0:0:0
336,144,172375,1,0,0:0:0
392,100,172493,1,0,0:0:0
336,144,172611,5,2,0:0:0
368,284,172847,1,2,0:0:0
228,316,173084,1,8,0:0:0
196,176,173320,1,0,0:0:0
264,56,173556,1,2,0:0:0
264,56,173674,2,0,B|308:76|308:76|384:64,1,90,2|0,0:0|0:0,0:0:0
408,92,174029,2,0,B|376:132|376:132|380:184,1,90,8|0,0:0|0:0,0:0:0
320,256,174501,5,4,0:0:0
224,288,174737,1,0,0:0:0
192,192,174973,1,4,0:0:0
288,160,175210,1,0,0:0:0
128,96,175446,5,4,0:0:0
64,256,175682,1,4,0:0:0
224,320,175918,1,8,0:0:0
288,160,176155,1,0,0:0:0
412,140,176390,6,0,B|396:196|432:252,2,90,2|2|8,0:0|0:0|0:0,0:0:0
352,52,177099,1,0,0:0:0
256,76,177335,6,0,B|220:68,1,30,2|0,0:0|0:0,0:0:0
256,76,177571,6,0,B|180:104,1,60,2|0,0:0|0:0,0:0:0
256,76,177808,6,0,B|184:120|184:192,1,135.000005149842,2|0,0:0|0:0,0:0:0
256,276,178281,1,4,0:0:0
256,192,178399,12,4,182060,0:0:0
