osu file format v9

[General]
AudioFilename: 08-.mp3
AudioLeadIn: 485
PreviewTime: -1
Countdown: 1
SampleSet: Soft
StackLeniency: 0.2
Mode: 0
LetterboxInBreaks: 1

[Editor]
DistanceSpacing: 1.7
BeatDivisor: 4
GridSize: 8

[Metadata]
Title:The Coolest Ethnic Trend
Artist:Phoenix Legend
Creator:Torein 13rd
Version:Hei Wei Gou
Source:The Coolest Ethnic Trend
Tags:Laobi Torein 13rd pop chinese

[Difficulty]
HPDrainRate:2
CircleSize:4
OverallDifficulty:3
ApproachRate:8
SliderMultiplier:1.2
SliderTickRate:1

[Events]
//Background and Video events
0,0,"LaoB.jpg"
//Break Periods
2,8192,10785
2,11971,14092
2,15751,18344
2,19530,20470
2,98900,111179
//Storyboard Layer 0 (Background)
//Storyboard Layer 1 (Fail)
//Storyboard Layer 2 (Pass)
//Storyboard Layer 3 (Foreground)
//Storyboard Sound Samples
//Background Colour Transformations
3,100,163,162,255

[TimingPoints]
433,472.44094488189,4,2,0,5,1,0
2795,-100,4,2,0,11,0,0
2854,-100,4,2,0,17,0,0
2913,-100,4,2,0,24,0,0
2972,-100,4,2,0,30,0,0
3031,-100,4,2,0,36,0,0
3090,-100,4,2,0,43,0,0
3149,-100,4,2,0,49,0,0
3208,-100,4,2,0,55,0,0
3267,-100,4,2,0,61,0,0
6397,-100,4,2,0,30,0,0
6929,-100,4,2,0,66,0,0
7165,-100,4,2,0,73,0,0
7401,-100,4,2,0,81,0,0
7637,-100,4,2,0,90,0,0
7873,-100,4,1,0,100,0,0
11535,-100,4,2,0,70,0,0
11614,-100,4,2,0,80,0,0
11692,-100,4,2,0,90,0,0
11771,-100,4,2,0,100,0,0
14921,-100,4,2,0,95,0,0
14999,-100,4,2,0,90,0,0
15078,-100,4,2,0,100,0,0
19094,-100,4,2,0,70,0,0
19173,-100,4,2,0,80,0,0
19251,-100,4,2,0,90,0,0
19330,-100,4,2,0,100,0,0
21692,-100,4,2,0,40,0,0
21771,-100,4,2,0,50,0,0
21850,-100,4,2,0,60,0,0
21929,-100,4,2,0,70,0,0
22007,-100,4,2,0,80,0,0
22086,-100,4,2,0,90,0,0
22165,-100,4,2,0,100,0,0
22637,-100,4,1,0,100,0,0
23110,-100,4,2,0,100,0,0
29488,-100,4,2,0,60,0,0
29547,-100,4,2,0,70,0,0
29606,-100,4,2,0,80,0,0
29665,-100,4,2,0,90,0,0
29724,-100,4,2,0,100,0,0
30196,-100,4,1,0,100,0,0
30669,-100,4,2,0,100,0,0
37755,-100,4,1,0,100,0,0
45078,-100,4,2,0,100,0,0
45787,-100,4,1,0,100,0,0
51456,-100,4,2,0,100,0,0
51515,-100,4,2,0,80,0,0
51574,-100,4,2,0,60,0,0
51929,-100,4,2,0,100,0,0
52047,-100,4,2,0,90,0,0
52165,-100,4,2,0,80,0,0
52283,-100,4,2,0,70,0,0
52401,-100,4,2,0,100,0,0
52873,-66.6666666666667,4,1,0,100,0,0
56181,-66.6666666666667,4,1,0,100,0,1
56653,-66.6666666666667,4,1,0,100,0,0
57125,-66.6666666666667,4,1,0,100,0,1
64684,-66.6666666666667,4,1,0,100,0,0
70590,-66.6666666666667,4,2,0,60,0,0
71299,-66.6666666666667,4,1,0,100,0,1
71771,-66.6666666666667,4,1,0,100,0,0
72244,-66.6666666666667,4,1,0,100,0,1
85472,-66.6666666666667,4,1,0,100,0,0
86417,-66.6666666666667,4,1,0,100,0,1
86653,-50,4,1,0,100,0,1
86889,-100,4,1,0,100,0,0
94448,-100,4,2,0,100,0,0
94921,-100,4,1,0,100,0,0
95157,-100,4,2,0,100,0,0
95866,-100,4,1,0,100,0,0
96102,-100,4,2,0,100,0,0
96574,-100,4,1,0,100,0,0
96810,-100,4,2,0,100,0,0
97755,-100,4,1,0,100,0,1
97873,-100,4,2,0,100,0,0
97992,-100,4,1,0,100,0,1
98110,-100,4,2,0,100,0,0
98228,-100,4,1,0,100,0,1
98346,-100,4,2,0,100,0,0
98464,-100,4,1,0,100,0,1
98582,-100,4,2,0,100,0,0
98700,-100,4,1,0,100,0,1
98818,-100,4,1,0,100,0,0
111929,-100,4,2,0,100,0,0
112165,-100,4,2,0,60,0,0
112401,-100,4,2,0,100,0,0
112480,-100,4,2,0,90,0,0
112558,-100,4,2,0,80,0,0
112637,-100,4,2,0,70,0,0
112716,-100,4,2,0,60,0,0
113346,-100,4,2,0,20,0,0
113818,-100,4,2,0,100,0,0
128936,-66.6666666666667,4,1,0,100,0,0

[Colours]
Combo1 : 128,255,0
Combo2 : 255,0,0

[HitObjects]
256,64,2322,2,0,B|272:96|240:160|256:192,1,120,2|0
256,208,2854,1,0
272,224,2913,1,0
288,240,2972,1,0
272,256,3031,1,0
256,272,3090,1,0
240,256,3149,1,0
224,240,3208,1,0
240,224,3267,1,0
256,192,3326,12,0,6574
48,144,7047,5,0
160,160,7283,1,0
240,240,7519,1,2
256,352,7755,1,8
272,128,7992,5,4
320,176,11535,5,0
336,224,11614,1,0
352,272,11692,1,0
368,320,11771,1,0
80,80,14842,5,0
96,128,14921,1,0
112,176,14999,1,0
128,224,15078,1,2
224,176,15314,5,0
368,272,15551,1,4
384,88,19094,5,0
408,112,19173,1,0
384,136,19251,1,0
360,112,19330,1,0
432,136,21220,5,2
368,240,21456,1,0
256,192,21692,5,0
224,192,21771,1,0
192,176,21850,1,0
160,168,21929,1,0
128,176,22007,1,0
96,192,22086,1,0
64,192,22165,2,0,B|32:192,5,20
43,192,22637,1,12
400,288,23110,6,0,B|384:224|400:160,1,120,2|8
296,192,23818,1,0
192,168,24055,2,0,B|176:104|112:72,1,120,2|8
224,80,24763,1,0
328,96,24999,5,2
288,296,25472,1,8
136,160,25944,1,2
193,76,26181,5,0
184,176,26417,1,8
224,272,26654,1,0
304,336,26889,2,0,B|319:267|383:235,1,120,2|8
288,192,27598,1,0
192,224,27834,5,2
224,128,28070,1,0
320,112,28307,1,8
384,192,28543,1,0
288,192,28779,2,0,B|288:240|320:272|320:320,1,120,2|8
320,304,29488,1,0
336,299,29547,1,0
352,291,29606,1,0
368,299,29665,1,0
384,307,29724,2,0,B|408:307,7,15,2|0|0|0|0|0|0|0
399,307,30196,1,4
96,96,30669,5,2
128,192,30905,2,0,B|160:208|208:192,1,60,0|8
256,272,31377,2,0,B|224:288|176:272,1,60,0|2
256,192,31850,2,0,B|320:208|384:192,1,120,0|2
320,112,32558,1,2
224,64,32795,1,0
160,144,33031,1,8
256,192,33267,2,0,B|240:208|288:240|256:256,1,60,0|2
368,208,33740,5,0
384,104,33976,1,8
320,184,34212,1,0
224,224,34448,2,0,B|208:208|208:208|192:224|192:240,1,60,2|0
288,288,34921,2,0,B|320:304|352:304,1,60,8|0
376,208,35393,1,2
440,128,35629,1,0
336,144,35866,1,8
232,144,36102,1,0
136,120,36338,2,0,B|176:168|176:240,1,120,2|8
376,192,37283,2,0,B|376:248|416:296,1,90
402,277,37755,1,4
120,104,38228,6,0,B|72:128|168:128|120:216,1,120,0|8
224,208,38936,1,0
224,312,39173,2,0,B|256:296|328:328|360:312,1,120,0|8
336,216,39881,1,0
328,112,40118,2,0,B|360:96|432:128|464:112,2,120,0|8|0
224,136,41299,1,0
128,96,41535,1,8
144,200,41771,1,0
96,288,42007,6,0,B|152:264|224:280,1,120,0|8
192,176,42716,1,0
128,96,42952,1,0
216,152,43188,1,0
312,176,43425,1,8
416,176,43661,1,0
376,80,43897,5,0
352,280,44370,1,8
192,160,44842,1,0
112,96,45078,2,0,B|88:96,2,20
112,96,45314,2,0,B|104:120|120:152|104:168,1,60,12|2
112,256,45787,5,0
200,200,46023,1,0
112,256,46259,1,8
208,296,46495,1,0
112,256,46732,2,0,B|96:224|120:168|96:136,1,120,0|8
192,104,47440,2,0,B|208:128|240:80|256:104,1,60
296,184,47913,2,0,B|312:208|344:160|360:184,1,60,0|8
336,80,48385,2,0,B|360:64|400:64,1,60
440,152,48858,5,0
336,144,49094,1,8
256,200,49330,1,0
224,296,49566,1,0
120,280,49803,5,0
224,296,50039,1,8
168,208,50275,1,0
224,296,50511,1,0
256,200,50747,1,0
224,296,50984,2,0,B|296:296,1,60,8|0
384,296,51456,6,0,B|400:312,2,15,0|0|0
256,136,51929,1,0
296,168,52047,1,0
344,192,52165,1,0
392,208,52283,1,0
440,216,52401,1,2
272,336,52873,1,8
384,112,53346,5,0
256,208,53582,1,0
296,136,53818,5,8
280,288,54055,1,0
256,208,54291,5,0
352,328,54527,1,0
200,312,54763,1,8
144,168,54999,1,0
256,64,55236,6,0,B|176:104|344:168|256:208,1,179.999994635582,0|8
256,208,56181,5,4
256,208,56535,1,0
256,208,56653,1,8
80,304,57125,6,0,B|120:224|120:128,1,179.999994635582,0|8
240,328,57952,1,0
280,336,58070,1,0
368,208,58307,2,0,B|368:256|408:288,1,89.9999973177911,0|8
208,56,59015,6,0,B|200:88|160:96|152:128,1,89.9999973177911
296,64,59488,2,0,B|288:96|248:104|240:136,1,89.9999973177911,8|0
240,133,59842,1,0
240,133,59960,1,0
160,264,60196,1,0
320,264,60433,1,8
80,72,60905,6,0,B|128:80|176:72,1,89.9999973177911
80,192,61377,2,0,B|88:240|80:288,1,89.9999973177911,0|0
80,281,61732,1,0
80,281,61850,1,0
176,168,62086,1,4
320,128,62322,1,8
464,176,62558,1,0
344,272,62795,2,0,B|320:208|320:128|320:128|304:112|280:120,1,179.999994635582,0|8
192,328,63621,1,0
232,344,63740,1,0
256,192,63976,2,0,B|248:168|264:128|256:104,1,89.9999973177911,4|8
421,319,64684,6,0,B|344:272|248:280,1,179.999994635582,0|8
464,224,65393,1,0
456,184,65511,1,0
448,144,65629,1,0
328,48,65866,2,0,B|344:72|328:112|344:136,1,89.9999973177911,0|8
216,48,66338,1,0
293,179,66574,2,0,B|262:147|210:147,1,89.9999973177911
328,48,67047,1,8
212,147,67283,1,0
212,147,67401,1,0
212,147,67519,2,0,B|184:168|168:200|144:216,1,89.9999973177911
149,211,67992,1,8
424,344,68464,5,0
272,328,68700,1,0
136,264,68936,1,8
72,128,69173,1,0
200,208,69409,1,0
344,248,69645,1,0
248,136,69881,1,8
400,120,70118,2,0,B|368:128|352:160|320:168,1,89.9999973177911
168,152,70590,6,0,B|248:200|264:184|344:232,1,179.999994635582
247,100,71299,1,4
332,225,71535,1,4
180,238,71771,1,4
96,80,72244,6,0,B|80:168|112:176|88:264,1,179.999994635582,0|8
256,48,73070,1,0
216,40,73188,1,0
256,192,73425,2,0,B|256:240|296:280,1,89.9999973177911,0|8
384,64,74133,6,0,B|360:88|368:128|344:152,1,89.9999973177911
376,296,74606,2,0,B|394:278|386:238|410:214,1,89.9999973177911,8|0
410,214,74960,1,0
410,214,75078,1,0
288,304,75314,1,0
432,360,75551,1,8
256,112,76023,5,0
400,64,76259,1,0
304,184,76495,1,8
152,224,76732,1,0
256,112,76968,1,0
112,152,77204,1,0
256,112,77440,1,8
400,160,77677,1,4
256,200,77913,2,0,B|208:240|304:320|256:368,1,179.999994635582,0|8
256,368,78740,1,0
256,368,78858,1,0
256,368,79094,2,0,B|248:344|264:304|256:280,1,89.9999973177911,4|0
432,88,79803,6,0,B|392:160|400:264,1,179.999994635582,0|8
304,144,80511,1,0
288,112,80629,1,0
272,80,80747,1,0
296,232,80984,2,0,B|344:224|376:192,1,89.9999973177911,0|8
288,320,81456,1,0
224,184,81692,2,0,B|200:224|216:272,1,89.9999973177911
304,144,82165,2,0,B|321:187|369:203,1,89.9999973177911,8|0
368,202,82519,1,0
368,202,82637,1,0
328,56,82873,2,0,B|416:56,1,89.9999973177911,0|8
400,192,83346,5,0
328,56,83582,1,0
192,128,83818,1,0
264,264,84055,1,8
296,160,84291,1,0
432,88,84527,1,0
160,224,84763,1,0
296,160,84999,2,0,B|328:176|312:224|344:240,1,89.9999973177911,8|0
256,192,85472,12,4,86417
256,136,86653,6,4,B|256:256,1,120
88,88,91141,6,0,B|152:96|208:88,1,120,0|8
160,176,91850,1,0
64,216,92086,2,0,B|120:240|160:288,1,120,0|8
160,176,92795,1,0
256,208,93031,6,0,B|288:232|328:248,2,60,0|0|8
296,112,93740,1,0
392,152,93976,2,0,B|384:208|400:272,1,120,0|8
96,64,94921,5,0
416,64,95157,5,8
160,192,95393,5,4
352,192,95629,5,2
192,104,95866,1,0
304,272,96102,1,8
320,104,96338,1,4
208,272,96574,1,8
256,192,96810,2,0,B|280:168|360:232|256:272|152:312|232:368|256:344,1,240,2|4
288,336,97873,1,0
296,304,97992,1,4
280,280,98110,1,0
256,264,98228,1,4
232,248,98346,1,0
216,224,98464,1,4
224,200,98582,1,0
256,192,98700,1,4
256,192,111929,5,0
256,192,112165,1,2
240,312,112401,1,0
256,320,112480,1,0
272,312,112558,1,0
256,304,112637,1,0
240,312,112716,1,0
256,312,112795,1,0
256,312,112873,2,0,B|264:280|240:224|256:192,1,120
424,96,113818,6,0,B|368:128|304:128,1,120,2|8
208,128,114527,1,0
152,40,114763,2,0,B|96:80|104:152,1,120,2|8
208,128,115472,1,0
232,224,115708,2,0,B|288:256|320:304,1,120,2|8
208,128,116653,1,2
304,96,116889,5,0
240,176,117125,1,8
192,264,117361,1,0
168,360,117598,2,0,B|224:344|288:352,1,120,2|8
344,272,118307,1,0
424,336,118543,1,2
320,320,118779,1,0
232,272,119015,1,8
168,192,119251,1,0
80,136,119488,2,0,B|64:168|96:232|72:264,1,120,2|8
77,254,120433,1,4
320,64,121141,5,2
336,88,121259,1,2
352,112,121377,2,0,B|344:144|352:176,1,60,2|0
416,96,121850,2,0,B|408:128|416:160,1,60,8|0
368,232,122322,2,0,B|272:232|192:272,1,180,2|2
128,192,123267,1,2
184,112,123503,1,0
280,144,123740,1,8
280,248,123976,1,0
184,272,124212,1,2
280,248,124448,6,0,B|296:240|328:248|344:248,1,60,0|8
280,144,124921,2,0,B|320:96,1,60,0|2
248,32,125393,1,0
184,112,125629,1,8
280,144,125866,1,0
376,176,126102,1,2
312,256,126338,1,0
216,216,126574,2,0,B|208:248|208:280,1,60,8|0
112,240,127047,2,0,B|112:288|96:320|96:368,2,120,2|8|2
256,192,128464,12,0,128936
424,256,129409,6,0,B|408:216|408:168,1,89.9999973177911
320,288,129881,2,0,B|320:192|288:104,1,179.999994635582
224,248,130590,1,0
128,128,130826,2,0,B|144:176|112:240|136:312,2,179.999994635582
