osu file format v9

[General]
AudioFilename: 927.mp3
AudioLeadIn: 0
PreviewTime: 95344
Countdown: 1
SampleSet: Normal
StackLeniency: 0.7
Mode: 0
LetterboxInBreaks: 1

[Editor]
DistanceSpacing: 1.7
BeatDivisor: 4
GridSize: 8

[Metadata]
Title:Free to Soar
Artist:Phoenix Legend
Creator:LaunchedthousandShip
Version:Easy
Source:
Tags:Deepsea

[Difficulty]
HPDrainRate:2
CircleSize:3
OverallDifficulty:2
ApproachRate:3
SliderMultiplier:1.00000000596046
SliderTickRate:2

[Events]
//Background and Video events
0,0,"8f9f4a385bf1390997ddd814.jpg"
//Break Periods
2,53356,61717
//Storyboard Layer 0 (Background)
//Storyboard Layer 1 (Fail)
//Storyboard Layer 2 (Pass)
//Storyboard Layer 3 (Foreground)
//Storyboard Sound Samples
//Background Colour Transformations
3,100,163,162,255

[TimingPoints]
2512,645.161290322581,4,1,0,70,1,0
2592,-100,4,2,1,100,0,0
3721,-100,4,1,0,70,0,0
3882,-100,4,2,1,100,0,0
5011,-100,4,1,0,70,0,0
5173,-100,4,2,1,100,0,0
6302,-100,4,1,0,70,0,0
6463,-100,4,2,1,100,0,0
7592,-100,4,1,0,70,0,0
7753,-100,4,2,1,100,0,0
8882,-100,4,1,0,70,0,0
9044,-100,4,2,1,100,0,0
9850,-100,4,1,0,70,0,0
10334,-100,4,2,1,100,0,0
12753,-100,4,1,0,70,0,0
12915,-100,4,2,2,100,0,0
13963,-100,4,2,1,100,0,0
15011,-100,4,1,0,55,0,0
15172,-100,4,1,0,70,0,0
15495,-100,4,2,1,100,0,0
15898,-100,4,2,2,100,0,0
17270,-100,4,1,0,55,0,0
17834,-100,4,1,0,70,0,0
18076,-100,4,2,1,100,0,0
18479,-100,4,2,2,100,0,0
19528,-100,4,1,0,40,0,0
19689,-100,4,2,1,100,0,0
20173,-100,4,1,0,55,0,0
20415,-100,4,1,0,70,0,0
20657,-100,4,2,1,100,0,0
21060,-100,4,2,2,100,0,0
21705,-100,4,1,0,70,0,0
22350,-100,4,2,1,100,0,0
22672,-100,4,1,0,70,0,0
22995,-100,4,1,0,70,0,0
23237,-100,4,2,1,100,0,0
24689,-100,4,1,0,50,0,0
25334,-100,4,1,0,70,0,0
25818,-100,4,2,1,100,0,0
28156,-100,4,1,0,70,0,0
28399,-100,4,2,1,100,0,0
30576,-100,4,1,0,70,0,0
31221,-100,4,2,1,100,0,0
32108,-100,4,1,0,70,0,0
32672,-100,4,2,1,100,0,0
33075,-100,4,1,0,50,0,0
33398,-100,4,1,0,70,0,0
33559,-100,4,2,1,100,0,0
34689,-100,4,1,0,70,0,0
34850,-100,4,2,1,100,0,0
35979,-100,4,1,0,70,0,0
36140,-100,4,2,1,100,0,0
37269,-100,4,1,0,70,0,0
37430,-100,4,2,1,100,0,0
38560,-100,4,1,0,70,0,0
38720,-100,4,2,1,100,0,0
39849,-100,4,1,0,70,0,0
40010,-100,4,2,1,100,0,0
40494,-100,4,1,0,40,0,0
40817,-100,4,1,0,70,0,0
41300,-100,4,2,1,100,0,0
42429,-100,4,1,0,70,0,0
42913,-100,4,2,1,100,0,0
43719,-100,4,1,0,70,0,0
43881,-100,4,2,1,100,0,0
44848,-100,4,1,0,70,0,0
45171,-100,4,2,1,100,0,0
46299,-100,4,1,0,70,0,0
46461,-100,4,2,1,100,0,0
47589,-100,4,1,0,70,0,0
47751,-100,4,2,1,100,0,0
48879,-100,4,1,0,70,0,0
49041,-100,4,2,1,100,0,0
50170,-100,4,1,0,70,0,0
50331,-100,4,2,1,100,0,0
51056,-100,4,2,0,10,0,0
62995,-100,4,2,1,80,0,0
63318,-100,4,2,1,100,0,0
63641,-100,4,2,1,80,0,0
63963,-100,4,2,1,100,0,0
65657,-100,4,1,0,70,0,0
65818,-100,4,2,1,100,0,0
66302,-100,4,1,0,40,0,0
66544,-100,4,1,0,70,0,0
67108,-100,4,2,1,100,0,0
68076,-100,4,1,0,70,0,0
68237,-100,4,2,1,100,0,0
69528,-100,4,1,0,70,0,0
69689,-100,4,2,1,100,0,0
72108,-100,4,2,1,50,0,0
72753,-100,4,2,1,70,0,0
73398,-100,4,2,1,100,0,0
73560,-100,4,2,1,70,0,0
73963,-100,4,2,1,100,0,0
74688,-100,4,1,0,70,0,0
74850,-100,4,2,1,100,0,0
75979,-100,4,1,0,70,0,0
76141,-100,4,2,1,100,0,0
77269,-100,4,1,0,70,0,0
77431,-100,4,2,1,100,0,0
78560,-100,4,1,0,70,0,0
78721,-100,4,2,1,100,0,0
79850,-100,4,1,0,70,0,0
80011,-100,4,2,1,100,0,0
81140,-100,4,1,0,70,0,0
81301,-100,4,2,1,100,0,0
82108,-100,4,2,1,100,0,0
83721,-100,4,1,0,70,0,0
83882,-100,4,2,1,100,0,0
84366,-100,4,1,0,70,0,0
84527,-100,4,2,1,100,0,0
85011,-100,4,1,0,70,0,0
85172,-100,4,2,1,100,0,0
86301,-100,4,1,0,70,0,0
86462,-100,4,2,1,100,0,0
87510,-100,4,1,0,70,0,0
87753,-100,4,2,1,100,0,0
88882,-100,4,1,0,70,0,0
89043,-100,4,2,1,100,0,0
90172,-100,4,1,0,50,0,0
90333,-100,4,2,1,100,0,0
91462,-100,4,1,0,70,0,0
91623,-100,4,2,1,100,0,0
92430,-100,4,2,0,10,0,0
94608,-100,4,2,1,60,0,0
94850,-100,4,2,1,70,0,0
95012,-100,4,2,1,80,0,0
95173,-100,4,2,1,90,0,0
95334,-100,4,2,1,100,0,0
96624,-100,4,1,0,50,0,0
96785,-100,4,2,1,100,0,0
97592,-100,4,1,0,50,0,0
97914,-100,4,1,0,70,0,0
98075,-100,4,2,1,100,0,0
99204,-100,4,1,0,70,0,0
99366,-100,4,2,1,100,0,0
99527,-100,4,1,0,70,0,0
99688,-100,4,2,1,100,0,0
100173,-100,4,1,0,50,0,0
100415,-100,4,2,1,50,0,0
101785,-100,4,1,0,50,0,0
101947,-100,4,2,1,100,0,0
102753,-100,4,1,0,50,0,0
103075,-100,4,1,0,70,0,0
103237,-100,4,2,1,100,0,0
104365,-100,4,1,0,70,0,0
104930,-100,4,2,1,60,0,0
105172,-100,4,2,1,70,0,0
105333,-100,4,2,1,80,0,0
105494,-100,4,2,1,90,0,0
105657,-100,4,2,1,100,0,0
106948,-100,4,1,0,70,0,0
107109,-100,4,2,1,100,0,0
107915,-100,4,1,0,50,0,0
108238,-100,4,1,0,70,0,0
108399,-100,4,2,1,100,0,0
109528,-100,4,1,0,70,0,0
109689,-100,4,2,1,100,0,0
110818,-100,4,1,0,70,0,0
111301,-100,4,2,1,100,0,0
112108,-100,4,1,0,70,0,0
112269,-100,4,2,1,100,0,0
113076,-100,4,1,0,70,0,0
113883,-100,4,2,1,100,0,0
114689,-100,4,1,0,70,0,0
114689,-100,4,2,1,100,0,0
115899,-100,4,2,1,50,0,0
116544,-100,4,2,1,100,0,0

[Colours]
Combo1 : 64,0,64
Combo2 : 128,0,0
Combo3 : 0,0,160

[HitObjects]
408,64,2512,2,0,B|352:64,1,50
272,64,3157,2,0,B|208:64,1,50,8|0
136,64,3802,2,0,B|80:64,1,50
96,152,4447,2,0,B|160:152,2,50,8|0|0
104,240,5415,2,0,B|136:256,2,25,2|2|10
48,304,6060,2,0,B|56:344,2,25,2|2|0
216,336,7028,6,0,B|272:352|320:320,1,99.9999999999999,8|0
392,296,7995,2,0,B|432:304,2,25,0|0|8
328,240,8641,2,0,B|312:192,1,50
184,80,9608,2,0,B|224:120,1,50,8|0
144,160,10253,2,0,B|152:216|104:256,1,99.9999999999999,0|8
112,336,11221,5,2
200,336,11544,2,0,B|240:336,8,25,2|2|2|2|2|2|2|2|4
208,248,13157,6,0,B|176:200|200:152,1,99.9999999999999,0|0
280,120,14124,2,0,B|368:128|384:224,1,150
336,288,15415,2,0,B|184:288,1,150,0|0
104,288,16705,1,4
216,160,17350,2,0,B|272:160,1,50
328,216,17995,6,0,B|400:176|424:96,1,150
360,48,19286,2,0,B|304:48,1,50
280,128,19931,2,0,B|216:128,1,50
152,96,20576,2,0,B|96:160|136:248,1,150
160,312,21866,2,0,B|104:312,3,50,0|0|8|0
64,240,23157,6,0,B|40:136,1,99.9999999999999,0|8
208,104,24447,2,0,B|304:48,1,99.9999999999999
424,168,25737,2,0,B|432:272,1,99.9999999999999,0|8
272,328,27028,2,4,B|216:336,3,50
160,280,28318,2,0,B|208:248|200:192,1,99.9999999999999,0|8
112,200,29286,2,0,B|112:120|176:64,1,150
344,64,30899,1,0
344,64,31544,1,8
344,64,32189,2,0,B|408:72|424:128,1,99.9999999999999,0|8
320,256,33479,5,0
192,256,34124,1,8
64,256,34770,2,0,B|32:152,1,99.9999999999999
144,88,36060,5,0
272,88,36705,1,8
400,88,37350,2,0,B|432:184,1,99.9999999999999
384,304,38641,5,0
384,304,39286,1,8
384,304,39931,1,0
384,304,40576,1,0
384,304,41221,2,0,B|280:304,2,99.9999999999999,0|8|0
464,200,43157,6,0,B|464:144,2,50,0|0|4
352,128,44447,1,8
352,128,45092,1,0
352,128,45737,1,0
352,128,46382,1,0
352,128,47028,1,8
352,128,47673,2,0,B|248:128,1,99.9999999999999
184,240,48963,5,0
56,240,49608,1,8
168,112,50253,2,0,B|224:112,1,50
256,192,51221,12,0,53156
352,72,63157,6,0,B|408:72,3,50,4|4|4|4
448,144,64447,2,0,B|472:248,1,99.9999999999999,0|8
304,280,65737,2,0,B|208:336,1,99.9999999999999
88,216,67028,2,0,B|80:112,1,99.9999999999999,0|8
240,56,68318,2,0,B|296:48,3,50,4|4|4|4
352,104,69608,2,0,B|304:136|312:192,1,99.9999999999999,0|8
400,184,70576,2,0,B|400:264|336:320,1,150,0|8
168,320,72189,1,4
168,320,72834,1,4
24,232,73479,2,0,B|24:128,1,99.9999999999999,0|8
192,128,74770,5,0
320,128,75415,1,8
448,128,76060,2,0,B|480:232,1,99.9999999999999,0|8
368,296,77350,5,0
240,296,77995,1,8
112,296,78641,2,0,B|80:200,1,99.9999999999999,0|8
128,80,79931,5,0
128,80,80576,1,8
128,80,81221,1,0
128,80,81866,1,8
128,80,82512,2,0,B|232:80,2,99.9999999999999,0|8|0
48,184,84447,6,0,B|48:240,2,50
160,256,85737,1,8
160,256,86382,1,0
160,256,87028,1,8
160,256,87673,1,0
160,256,88318,1,8
160,256,88963,2,0,B|264:256,1,99.9999999999999,0|8
328,144,90253,5,0
456,144,90899,1,8
368,288,91544,2,0,B|312:288,1,50
256,192,92512,12,0,94125
256,192,94770,6,4,B|256:152,4,25
376,72,96060,1,8
464,216,96705,2,0,B|392:288,1,99.9999999999999,0|8
224,280,97995,5,0
160,120,98641,1,8
48,248,99286,2,0,B|144:208,1,99.9999999999999,0|8
232,64,100576,5,0
400,88,101221,1,0
272,200,101866,1,0
440,224,102512,1,8
312,336,103157,5,0
144,312,103802,1,8
272,200,104447,1,0
120,128,105092,2,4,B|80:128,4,25
272,48,106382,1,8
360,192,107028,2,0,B|464:192,1,99.9999999999999,0|8
344,312,108318,5,0
176,320,108963,1,8
240,160,109608,2,0,B|256:264,1,99.9999999999999,0|8
408,184,110899,1,0
408,184,111544,1,8
408,184,112189,1,0
408,184,112834,1,8
280,296,113479,5,0
160,176,114124,1,8
288,64,114770,1,0
256,192,116060,5,4
256,192,116705,1,8
