osu file format v14

[General]
AudioFilename: Phoebe Ryan - Mine (Official Video).mp3
AudioLeadIn: 0
PreviewTime: 145250
Countdown: 1
SampleSet: Normal
StackLeniency: 0.7
Mode: 0
LetterboxInBreaks: 1
WidescreenStoryboard: 1

[Editor]
Bookmarks: 62826
DistanceSpacing: 1.5
BeatDivisor: 4
GridSize: 4
TimelineZoom: 1

[Metadata]
Title:Mine
TitleUnicode:Mine
Artist:Phoebe Ryan
ArtistUnicode:Phoebe Ryan
Creator:fabriciorby
Version:Insane
Source:
Tags:
BeatmapID:763955
BeatmapSetID:296564

[Difficulty]
HPDrainRate:7.5
CircleSize:3.5
OverallDifficulty:8.5
ApproachRate:8
SliderMultiplier:0.7
SliderTickRate:1

[Events]
//Background and Video events
0,0,"phoebe-ryan-marquee.jpg",0,0
//Break Periods
//Storyboard Layer 0 (Background)
//Storyboard Layer 1 (Fail)
//Storyboard Layer 2 (Pass)
//Storyboard Layer 3 (Foreground)
//Storyboard Sound Samples

[TimingPoints]
2220,303.030303030303,4,2,0,30,1,0
9492,-100,4,2,0,15,0,0
28886,-66.6666666666667,4,1,0,20,0,0
48280,-66.6666666666667,4,2,0,20,0,0
65250,-200,4,2,0,20,0,0
66462,-66.6666666666667,4,2,0,20,0,0
67674,-66.6666666666667,4,1,0,20,0,1
86159,-100,4,2,0,20,0,0
87068,-100,4,1,0,15,0,0
106462,-100,4,1,0,20,0,0
125856,-100,4,2,0,20,0,0
145250,-100,4,1,0,20,0,1
164644,-100,4,2,0,20,0,0
174341,-100,4,1,0,20,0,1
192523,-100,4,1,0,20,0,0
193735,-100,4,1,0,20,0,1
213129,-100,4,2,0,20,0,0

[HitObjects]
116,80,2220,5,0,0:0:0:0:
116,80,2523,1,0,0:0:0:0:
84,260,2826,1,0,0:0:0:0:
84,260,3129,1,0,0:0:0:0:
212,196,3432,1,0,0:0:0:0:
212,196,3735,1,0,0:0:0:0:
212,336,4038,1,0,0:0:0:0:
256,344,4189,1,0,0:0:0:0:
300,336,4341,1,0,0:0:0:0:
300,196,4644,5,0,0:0:0:0:
300,196,4947,1,0,0:0:0:0:
428,260,5250,1,0,0:0:0:0:
428,260,5553,1,0,0:0:0:0:
396,80,5856,1,0,0:0:0:0:
396,80,6159,1,0,0:0:0:0:
212,48,6462,1,0,0:0:0:0:
256,112,6614,1,0,0:0:0:0:
300,48,6765,1,0,0:0:0:0:
156,132,7068,6,0,L|96:176,1,70
412,173,7674,2,0,L|356:132,1,70
256,328,8280,1,0,0:0:0:0:
256,56,8583,5,0,0:0:0:0:
328,288,8886,1,0,0:0:0:0:
256,248,9038,1,0,0:0:0:0:
184,288,9189,1,0,0:0:0:0:
100,108,9492,6,0,P|158:145|185:208,1,140
326,208,10401,2,0,P|353:145|412:108,1,140
428,204,11310,1,0,0:0:0:0:
84,204,11613,1,0,0:0:0:0:
309,145,11916,6,0,P|377:156|427:203,1,140
340,224,12826,2,0,L|408:92,1,140
344,52,13735,1,0,0:0:0:0:
168,52,14038,1,0,0:0:0:0:
256,192,14341,5,0,0:0:0:0:
344,332,14644,1,0,0:0:0:0:
168,332,14947,1,0,0:0:0:0:
84,204,16159,5,0,0:0:0:0:
428,204,16462,1,0,0:0:0:0:
203,145,16765,2,0,P|135:156|85:203,1,140
172,224,17675,2,0,L|104:92,1,140
256,256,18583,1,0,0:0:0:0:
256,336,18886,1,0,0:0:0:0:
404,99,19189,6,0,L|340:224,1,140
256,40,20098,2,0,L|256:180,1,140
172,224,21007,1,0,0:0:0:0:
120,300,21310,1,0,0:0:0:0:
168,127,21613,6,0,P|106:157|80:220,1,140
432,220,22523,2,0,P|405:157|343:127,1,140
340,224,23432,1,0,0:0:0:0:
392,300,23735,1,0,0:0:0:0:
256,104,24038,2,0,L|256:32,1,70
256,192,24644,1,0,0:0:0:0:
256,192,25553,1,0,0:0:0:0:
188,304,25856,1,0,0:0:0:0:
324,304,26159,1,0,0:0:0:0:
80,72,26462,6,0,L|148:196,1,140
364,194,27371,2,0,L|432:72,1,140
496,172,28280,1,0,0:0:0:0:
16,172,28583,1,0,0:0:0:0:
52,340,28886,6,0,P|152:324|196:228,1,210.000008010865
256,136,29795,1,0,0:0:0:0:
460,340,30098,2,0,P|360:324|324:264,1,157.500006008148
320,258,30704,2,0,L|396:112,1,157.500006008148
119,118,31310,2,0,L|191:258,1,157.500006008148
256,164,31916,2,0,L|256:4,1,157.500006008148
393,118,32523,5,0,0:0:0:0:
119,118,32826,1,0,0:0:0:0:
393,118,33129,1,0,0:0:0:0:
436,184,33280,1,0,0:0:0:0:
119,118,33583,1,0,0:0:0:0:
76,184,33734,1,0,0:0:0:0:
256,288,34038,1,0,0:0:0:0:
436,184,34341,1,0,0:0:0:0:
256,40,34644,1,0,0:0:0:0:
29,221,34947,6,0,P|48:147|119:118,1,157.500006008148
200,192,35553,2,0,L|308:192,1,105.000004005432
392,265,36007,2,0,P|463:236|482:162,1,157.500006008148
256,40,36765,1,0,0:0:0:0:
256,40,37674,1,0,0:0:0:0:
60,312,37977,2,0,L|96:264,1,52.5000020027161
452,312,38432,2,0,L|416:264,1,52.5000020027161
256,40,38886,5,0,0:0:0:0:
256,336,39189,1,0,0:0:0:0:
256,336,39492,1,0,0:0:0:0:
316,288,39644,1,0,0:0:0:0:
378,329,39795,2,0,P|412:310|451:311,1,78.7500030040742
196,288,40250,1,0,0:0:0:0:
134,329,40401,2,0,P|99:310|60:311,1,78.7500030040742
256,232,40856,1,0,0:0:0:0:
328,200,41007,2,0,P|396:172|480:184,1,157.500006008148
184,200,41613,2,0,P|116:172|32:184,1,157.500006008148
256,48,42219,5,0,0:0:0:0:
256,48,42523,2,0,L|256:112,1,52.5000020027161
96,252,42826,2,0,L|56:296,1,52.5000020027161
256,312,43129,1,0,0:0:0:0:
416,252,43280,2,0,L|456:296,1,52.5000020027161
256,48,43735,1,0,0:0:0:0:
96,252,44038,1,0,0:0:0:0:
416,252,44341,1,0,0:0:0:0:
256,48,44492,6,0,L|256:112,1,52.5000020027161
256,192,44719,12,0,45856,0:0:0:0:
212,236,46765,5,0,0:0:0:0:
300,148,47068,1,0,0:0:0:0:
120,236,47371,2,0,L|64:236,1,52.5000020027161
392,148,47674,2,0,L|448:148,1,52.5000020027161
212,236,48280,6,0,P|192:288|152:316,1,105.000004005432
300,148,48886,2,0,P|320:96|360:68,1,105.000004005432
204,100,49492,2,0,L|100:112,1,105.000004005432
308,284,50098,2,0,L|412:272,1,105.000004005432
359,68,50704,5,0,0:0:0:0:
153,316,51007,1,0,0:0:0:0:
204,100,51310,1,0,0:0:0:0:
308,284,51613,1,0,0:0:0:0:
359,68,51916,2,0,L|455:4,1,105.000004005432
153,316,52523,2,0,L|57:380,1,105.000004005432
62,134,53129,6,0,P|152:88|204:100,1,157.500006008148
256,317,53735,2,0,L|256:160,1,157.500006008148
449,133,54341,2,0,P|385:91|308:99,1,157.500006008148
256,40,54947,1,0,0:0:0:0:
204,99,55098,1,0,0:0:0:0:
308,99,55250,1,0,0:0:0:0:
256,192,55553,12,0,56159,0:0:0:0:
180,304,56462,5,0,0:0:0:0:
256,72,56765,1,0,0:0:0:0:
332,304,57068,1,0,0:0:0:0:
132,148,57371,1,0,0:0:0:0:
380,148,57674,1,0,0:0:0:0:
80,307,57977,6,0,P|129:291|180:304,1,105.000004005432
479,144,58583,2,0,P|430:160|380:148,1,105.000004005432
32,144,59189,2,0,P|81:160|132:148,1,105.000004005432
431,307,59795,2,0,P|382:291|332:304,1,105.000004005432
256,72,60401,2,0,L|256:180,1,105.000004005432
180,352,61007,1,0,0:0:0:0:
180,352,61613,5,0,0:0:0:0:
352,272,61916,1,0,0:0:0:0:
112,192,62219,1,0,0:0:0:0:
444,112,62523,1,0,0:0:0:0:
48,44,62826,6,0,P|120:72|192:40,1,157.500006008148
444,112,63432,2,0,P|372:84|300:116,1,157.500006008148
112,192,64038,2,0,P|184:164|256:196,1,157.500006008148
352,272,64644,5,0,0:0:0:0:
226,328,64795,2,0,L|180:352,1,52.5000020027161
254,54,65250,2,0,L|254:198,1,140
254,194,66916,5,0,0:0:0:0:
352,272,67067,1,0,0:0:0:0:
226,328,67218,2,0,L|180:352,2,52.5000020027161
324,68,67674,6,0,P|407:81|446:148,1,157.500006008148
254,141,68280,2,0,L|254:209,1,52.5000020027161
188,68,68583,6,0,P|105:81|66:148,1,157.500006008148
160,152,69189,1,0,0:0:0:0:
352,152,69492,1,0,0:0:0:0:
256,240,69795,2,0,L|256:292,1,52.5000020027161
188,356,70098,6,0,P|105:343|66:276,1,157.500006008148
160,152,70704,2,0,L|160:257,1,105.000004005432
52,196,71159,1,0,0:0:0:0:
52,196,71765,5,0,0:0:0:0:
160,152,71916,1,0,0:0:0:0:
286,96,72067,2,0,L|332:72,2,52.5000020027161
188,356,72523,6,0,P|105:343|66:276,1,157.500006008148
258,283,73129,2,0,L|258:215,1,52.5000020027161
324,356,73432,6,0,P|407:343|446:276,1,157.500006008148
352,272,74038,1,0,0:0:0:0:
160,272,74341,1,0,0:0:0:0:
256,184,74644,2,0,L|256:132,1,52.5000020027161
324,68,74947,6,0,P|407:81|446:148,1,157.500006008148
352,272,75553,2,0,L|352:167,1,105.000004005432
460,228,76008,1,0,0:0:0:0:
460,228,76613,5,0,0:0:0:0:
352,272,76764,1,0,0:0:0:0:
226,328,76915,2,0,L|180:352,2,52.5000020027161
