osu file format v14

[General]
AudioFilename: Phoebe Ryan - Mine (Official Video).mp3
AudioLeadIn: 0
PreviewTime: 145250
Countdown: 1
SampleSet: Normal
StackLeniency: 0.7
Mode: 0
LetterboxInBreaks: 1
WidescreenStoryboard: 0

[Editor]
DistanceSpacing: 1
BeatDivisor: 4
GridSize: 4
TimelineZoom: 1

[Metadata]
Title:Mine
TitleUnicode:Mine
Artist:Phoebe Ryan
ArtistUnicode:Phoebe Ryan
Creator:fabriciorby
Version:Hard
Source:
Tags:
BeatmapID:665825
BeatmapSetID:296564

[Difficulty]
HPDrainRate:7.5
CircleSize:3.5
OverallDifficulty:8.5
ApproachRate:8
SliderMultiplier:0.7
SliderTickRate:1

[Events]
//Background and Video events
0,0,"phoebe-ryan-marquee.jpg",0,0
//Break Periods
2,164844,172076
//Storyboard Layer 0 (Background)
//Storyboard Layer 1 (Fail)
//Storyboard Layer 2 (Pass)
//Storyboard Layer 3 (Foreground)
//Storyboard Sound Samples

[TimingPoints]
2220,303.030303030303,4,2,0,30,1,0
9492,-100,4,2,0,15,0,0
28886,-100,4,1,0,20,0,0
48280,-100,4,2,0,20,0,0
67674,-100,4,1,0,20,0,1
86159,-100,4,2,0,20,0,0
87068,-100,4,1,0,15,0,0
106462,-100,4,1,0,20,0,0
125856,-100,4,2,0,20,0,0
145250,-100,4,1,0,20,0,1
164644,-100,4,2,0,20,0,0
174341,-100,4,1,0,20,0,1
192523,-100,4,1,0,20,0,0
193735,-100,4,1,0,20,0,1
213129,-100,4,2,0,20,0,0

[HitObjects]
160,88,2220,5,0,0:0:0:0:
256,28,2523,1,0,0:0:0:0:
352,88,2826,1,2,0:0:0:0:
312,192,3129,1,0,0:0:0:0:
200,192,3432,1,0,0:0:0:0:
312,192,3735,1,0,0:0:0:0:
352,296,4038,1,2,0:0:0:0:
256,356,4341,1,0,0:0:0:0:
160,296,4644,1,2,0:0:0:0:
200,192,4947,1,0,0:0:0:0:
404,156,5250,6,0,L|404:240,1,70,2|0,0:0|0:0,0:0:0:0:
312,192,5856,1,0,0:0:0:0:
200,192,6159,1,0,0:0:0:0:
108,226,6462,2,0,L|108:156,1,70,2|0,0:0|0:0,0:0:0:0:
447,173,7068,2,0,L|416:236,1,70,2|0,0:0|0:0,0:0:0:0:
256,288,7674,1,0,0:0:0:0:
96,236,7977,2,0,L|64:172,1,70,0|2,0:0|0:0,0:0:0:0:
48,88,8583,5,0,0:0:0:0:
120,48,8886,1,0,0:0:0:0:
120,48,9189,1,2,0:0:0:0:
152,120,9492,2,0,P|256:200|360:120,1,280,4|2,0:0|0:0,0:0:0:0:
392,48,11007,1,0,0:0:0:0:
448,112,11310,2,0,L|464:180,1,70,4|0,0:0|0:0,0:0:0:0:
424,252,11916,2,0,P|364:288|292:264,1,140,4|0,0:0|0:0,0:0:0:0:
212,268,12826,2,0,P|145:251|87:286,1,140,2|0,0:0|0:0,0:0:0:0:
160,332,13735,5,2,0:0:0:0:
160,332,14038,1,0,0:0:0:0:
76,192,14341,2,0,L|36:128,1,70,4|0,0:0|0:0,0:0:0:0:
160,332,14947,1,2,0:0:0:0:
352,52,16159,1,4,0:0:0:0:
352,52,16462,1,0,0:0:0:0:
424,97,16765,2,0,P|366:132|300:116,1,140,4|0,0:0|0:0,0:0:0:0:
212,113,17675,2,0,P|146:96|88:131,1,140,2|0,0:0|0:0,0:0:0:0:
160,176,18583,5,2,0:0:0:0:
188,256,18886,1,0,0:0:0:0:
188,256,19189,2,0,L|328:256,1,140,4|0,0:0|0:0,0:0:0:0:
328,340,20098,2,0,L|188:340,1,140,2|0,0:0|0:0,0:0:0:0:
116,300,21007,1,4,0:0:0:0:
188,256,21310,1,0,0:0:0:0:
160,176,21613,6,0,P|160:108|220:72,1,140,4|0,0:0|0:0,0:0:0:0:
296,72,22523,2,0,P|352:108|352:176,1,140,2|0,0:0|0:0,0:0:0:0:
324,256,23432,1,2,0:0:0:0:
396,300,23735,1,0,0:0:0:0:
440,228,24038,2,0,L|484:168,1,70,4|0,0:0|0:0,0:0:0:0:
444,96,24644,1,2,0:0:0:0:
68,96,25553,5,0,0:0:0:0:
30,171,25856,2,0,L|72:228,1,70,4|0,0:0|0:0,0:0:0:0:
88,312,26462,2,0,P|146:347|212:330,1,140,4|0,0:0|0:0,0:0:0:0:
300,330,27372,2,0,P|366:346|424:311,1,140,2|0,0:0|0:0,0:0:0:0:
352,268,28280,1,2,0:0:0:0:
256,248,28583,1,0,0:0:0:0:
160,268,28886,6,0,L|88:144,1,140,4|8,0:0|0:0,0:0:0:0:
152,72,29795,1,0,0:0:0:0:
220,144,30098,2,0,L|292:144,1,70
360,72,30704,1,8,0:0:0:0:
256,40,31007,1,0,0:0:0:0:
422,146,31310,2,0,L|352:268,1,140,4|8,0:0|0:0,0:0:0:0:
416,344,32219,1,0,0:0:0:0:
292,188,32826,6,0,L|220:188,1,70,4|8,0:0|0:0,0:0:0:0:
204,144,33280,2,0,L|308:144,1,105,4|4,0:0|0:0,0:0:0:0:
96,344,34341,1,8,0:0:0:0:
192,176,34947,2,0,P|256:152|320:176,1,140,0|8,0:0|0:0,0:0:0:0:
320,276,35856,2,0,P|256:300|192:276,1,140
96,344,36765,5,8,0:0:0:0:
292,188,37674,2,0,L|220:188,1,70,4|8,0:0|0:0,0:0:0:0:
204,144,38128,2,0,L|308:144,1,105,4|4,0:0|0:0,0:0:0:0:
416,344,39189,1,8,0:0:0:0:
348,160,39795,6,0,P|358:129|388:104,1,70
292,88,40401,2,0,L|220:88,1,70,8|0,0:0|0:0,0:0:0:0:
125,105,41007,2,0,P|152:127|164:160,1,70,4|0,0:0|0:0,0:0:0:0:
256,192,41613,1,8,0:0:0:0:
192,264,41916,2,0,P|199:295|188:332,1,70
322,330,42523,2,0,P|312:297|320:264,1,70,4|8,0:0|0:0,0:0:0:0:
344,220,42977,2,0,L|408:136,1,105,4|4,0:0|0:0,0:0:0:0:
256,12,44038,1,8,0:0:0:0:
256,192,44644,12,4,45856,0:0:0:0:
100,92,46765,5,0,0:0:0:0:
52,176,47068,1,0,0:0:0:0:
88,268,47371,1,4,0:0:0:0:
148,188,47674,2,0,P|180:168|216:156,1,70,8|4,0:0|0:0,0:0:0:0:
301,157,48280,6,0,P|334:169|364:188,1,70,8|0,0:0|0:0,0:0:0:0:
424,268,48886,1,8,0:0:0:0:
460,176,49189,1,0,0:0:0:0:
300,156,49492,6,0,P|320:184|333:217,1,70,8|0,0:0|0:0,0:0:0:0:
336,316,50098,1,8,0:0:0:0:
424,268,50401,1,0,0:0:0:0:
211,156,50704,6,0,P|191:184|178:217,1,70,8|0,0:0|0:0,0:0:0:0:
175,316,51310,1,8,0:0:0:0:
88,268,51613,1,0,0:0:0:0:
210,157,51916,6,0,P|177:169|148:188,1,70,8|0,0:0|0:0,0:0:0:0:
88,268,52522,1,8,0:0:0:0:
52,176,52825,1,0,0:0:0:0:
136,76,53129,6,0,L|216:64,1,70,8|0,0:0|0:0,0:0:0:0:
306,65,53735,2,0,L|376:76,1,70,8|0,0:0|0:0,0:0:0:0:
460,176,54341,1,8,0:0:0:0:
256,192,54644,12,8,55553,0:0:0:0:
412,92,56462,5,0,0:0:0:0:
460,176,56765,1,8,0:0:0:0:
424,268,57068,1,0,0:0:0:0:
364,188,57371,2,0,P|332:168|296:156,1,70,8|0,0:0|0:0,0:0:0:0:
304,256,57977,6,0,L|304:328,1,70,4|0,0:0|0:0,0:0:0:0:
208,326,58583,2,0,L|208:256,1,70,4|0,0:0|0:0,0:0:0:0:
210,157,59189,6,0,P|177:169|148:188,1,70,4|0,0:0|0:0,0:0:0:0:
88,268,59795,1,4,0:0:0:0:
52,176,60098,1,0,0:0:0:0:
116,100,60401,6,0,P|144:79|177:70,1,70,4|0,0:0|0:0,0:0:0:0:
334,69,61007,2,0,P|367:79|396:100,1,70,4|0,0:0|0:0,0:0:0:0:
316,156,61613,6,0,L|300:236,1,70,4|0,0:0|0:0,0:0:0:0:
256,312,62219,1,4,0:0:0:0:
209,224,62523,2,0,L|196:156,1,70,0|4,0:0|0:0,0:0:0:0:
156,348,63432,5,4,0:0:0:0:
356,348,64038,1,4,0:0:0:0:
256,180,64644,1,4,0:0:0:0:
208,264,64947,1,0,0:0:0:0:
304,264,65250,1,4,0:0:0:0:
256,192,65553,12,0,66462,0:0:0:0:
256,148,67068,5,0,0:0:0:0:
308,64,67371,1,2,0:0:0:0:
204,64,67674,6,0,P|136:76|72:112,1,140,4|8,0:0|0:0,0:0:0:0:
76,208,68583,2,0,P|136:241|205:254,1,140
307,254,69492,6,0,L|451:254,2,140,8|4|8,0:0|0:0|0:0,0:0:0:0:
256,340,71007,1,0,0:0:0:0:
205,254,71310,6,0,L|168:188,1,70
256,148,71916,1,8,0:0:0:0:
204,64,72219,1,0,0:0:0:0:
308,64,72522,6,0,P|376:76|440:112,1,140,4|8,0:0|0:0,0:0:0:0:
436,208,73431,2,0,P|375:241|306:254,1,140
205,254,74340,6,0,L|61:254,2,140,8|4|8,0:0|0:0|0:0,0:0:0:0:
256,340,75855,1,0,0:0:0:0:
307,254,76159,6,0,L|341:192,1,70,0|4,0:0|0:0,0:0:0:0:
256,148,76765,1,8,0:0:0:0:
308,64,77068,1,4,0:0:0:0:
212,56,77371,6,0,L|72:56,1,140,4|8,0:0|0:0,0:0:0:0:
68,152,78280,2,0,P|20:192|68:232,1,140
72,328,79189,2,0,L|212:328,1,140,8|4,0:0|0:0,0:0:0:0:
256,240,80098,5,0,0:0:0:0:
440,328,80401,2,0,L|300:328,2,140,8|4|8,0:0|0:0|0:0,0:0:0:0:
256,240,81916,1,0,0:0:0:0:
311,160,82220,6,0,P|376:136|440:160,1,140,4|8,0:0|0:0,0:0:0:0:
200,160,83432,2,0,P|136:184|72:160,1,140,4|8,0:0|0:0,0:0:0:0:
136,84,84341,1,0,0:0:0:0:
236,84,84644,2,0,L|376:84,1,140,4|8,0:0|0:0,0:0:0:0:
464,296,86159,5,0,0:0:0:0:
392,336,86462,1,0,0:0:0:0:
392,336,86765,1,2,0:0:0:0:
360,264,87068,2,0,P|256:184|152:264,1,280,4|0,0:0|0:0,0:0:0:0:
120,336,88583,1,0,0:0:0:0:
64,272,88886,2,0,L|48:204,1,70,8|0,0:0|0:0,0:0:0:0:
88,132,89492,2,0,P|148:96|220:120,1,140,4|8,0:0|0:0,0:0:0:0:
300,116,90402,2,0,P|367:133|425:98,1,140,0|4,0:0|0:0,0:0:0:0:
352,52,91311,5,8,0:0:0:0:
352,52,91614,1,0,0:0:0:0:
436,192,91917,2,0,L|476:256,1,70,4|0,0:0|0:0,0:0:0:0:
352,52,92523,1,8,0:0:0:0:
160,332,93735,1,8,0:0:0:0:
160,332,94038,1,0,0:0:0:0:
88,287,94341,2,0,P|146:252|212:268,1,140,4|8,0:0|0:0,0:0:0:0:
300,271,95251,2,0,P|366:288|424:253,1,140
352,208,96159,5,8,0:0:0:0:
324,128,96462,1,0,0:0:0:0:
324,128,96765,2,0,L|184:128,1,140,4|8,0:0|0:0,0:0:0:0:
184,44,97674,2,0,L|324:44,1,140
396,84,98583,1,8,0:0:0:0:
324,128,98886,1,0,0:0:0:0:
352,208,99189,6,0,P|352:276|292:312,1,140,4|8,0:0|0:0,0:0:0:0:
216,312,100099,2,0,P|160:276|160:208,1,140,0|4,0:0|0:0,0:0:0:0:
188,128,101008,1,8,0:0:0:0:
116,84,101311,1,0,0:0:0:0:
72,156,101614,2,0,L|28:216,1,70,4|0,0:0|0:0,0:0:0:0:
68,288,102220,1,8,0:0:0:0:
444,288,102826,5,0,0:0:0:0:
444,288,103129,1,0,0:0:0:0:
482,213,103432,2,0,L|440:156,1,70,8|0,0:0|0:0,0:0:0:0:
424,72,104038,2,0,P|366:37|300:54,1,140,4|0,0:0|0:0,0:0:0:0:
212,54,104948,2,0,P|146:38|88:73,1,140
160,116,105856,1,0,0:0:0:0:
256,136,106159,1,0,0:0:0:0:
352,116,106462,6,0,L|424:240,1,140,4|8,0:0|0:0,0:0:0:0:
360,312,107371,1,0,0:0:0:0:
292,240,107674,2,0,L|220:240,1,70
152,312,108280,1,8,0:0:0:0:
256,344,108583,1,0,0:0:0:0:
90,238,108886,2,0,L|160:116,1,140,4|8,0:0|0:0,0:0:0:0:
96,40,109795,1,0,0:0:0:0:
220,196,110402,6,0,L|292:196,1,70,4|8,0:0|0:0,0:0:0:0:
308,240,110856,2,0,L|204:240,1,105,4|4,0:0|0:0,0:0:0:0:
416,40,111917,1,8,0:0:0:0:
320,208,112523,2,0,P|256:232|192:208,1,140,0|8,0:0|0:0,0:0:0:0:
192,108,113432,2,0,P|256:84|320:108,1,140
416,40,114341,5,8,0:0:0:0:
220,196,115250,2,0,L|292:196,1,70,4|8,0:0|0:0,0:0:0:0:
308,240,115704,2,0,L|204:240,1,105,4|4,0:0|0:0,0:0:0:0:
96,40,116765,1,8,0:0:0:0:
164,224,117371,6,0,P|154:255|124:280,1,70
220,296,117977,2,0,L|292:296,1,70,8|0,0:0|0:0,0:0:0:0:
387,279,118583,2,0,P|360:257|348:224,1,70,4|0,0:0|0:0,0:0:0:0:
256,192,119189,1,8,0:0:0:0:
320,120,119492,2,0,P|313:89|324:52,1,70
190,54,120099,2,0,P|200:87|192:120,1,70,4|8,0:0|0:0,0:0:0:0:
168,164,120553,2,0,L|104:248,1,105,4|4,0:0|0:0,0:0:0:0:
256,372,121614,1,8,0:0:0:0:
256,192,122220,12,4,123432,0:0:0:0:
412,292,124341,5,0,0:0:0:0:
460,208,124644,1,0,0:0:0:0:
424,116,124947,1,4,0:0:0:0:
364,196,125250,2,0,P|332:216|296:228,1,70,8|4,0:0|0:0,0:0:0:0:
211,227,125856,6,0,P|178:215|148:196,1,70,4|0,0:0|0:0,0:0:0:0:
88,116,126462,1,4,0:0:0:0:
52,208,126765,1,0,0:0:0:0:
212,228,127068,6,0,P|192:200|179:167,1,70,4|0,0:0|0:0,0:0:0:0:
176,68,127674,1,4,0:0:0:0:
88,116,127977,1,0,0:0:0:0:
301,228,128280,6,0,P|321:200|334:167,1,70,4|0,0:0|0:0,0:0:0:0:
337,68,128886,1,4,0:0:0:0:
424,116,129189,1,0,0:0:0:0:
302,227,129492,6,0,P|335:215|364:196,1,70,4|0,0:0|0:0,0:0:0:0:
424,116,130098,1,4,0:0:0:0:
460,208,130401,1,0,0:0:0:0:
376,308,130705,6,0,L|296:320,1,70,4|0,0:0|0:0,0:0:0:0:
206,319,131311,2,0,L|136:308,1,70,4|0,0:0|0:0,0:0:0:0:
52,208,131917,1,4,0:0:0:0:
256,192,132220,12,4,133129,0:0:0:0:
100,292,134038,5,0,0:0:0:0:
52,208,134341,1,4,0:0:0:0:
88,116,134644,1,0,0:0:0:0:
148,196,134947,2,0,P|180:216|216:228,1,70,4|0,0:0|0:0,0:0:0:0:
208,128,135553,6,0,L|208:56,1,70,4|0,0:0|0:0,0:0:0:0:
304,58,136159,2,0,L|304:128,1,70,4|0,0:0|0:0,0:0:0:0:
302,227,136765,6,0,P|335:215|364:196,1,70,4|0,0:0|0:0,0:0:0:0:
424,116,137371,1,4,0:0:0:0:
460,208,137674,1,0,0:0:0:0:
396,284,137977,6,0,P|368:305|335:314,1,70,4|0,0:0|0:0,0:0:0:0:
178,315,138583,2,0,P|145:305|116:284,1,70,4|0,0:0|0:0,0:0:0:0:
196,228,139189,6,0,L|212:148,1,70,4|0,0:0|0:0,0:0:0:0:
256,72,139795,1,4,0:0:0:0:
303,160,140099,2,0,L|316:228,1,70,0|4,0:0|0:0,0:0:0:0:
356,36,141008,5,4,0:0:0:0:
156,36,141614,1,4,0:0:0:0:
256,204,142220,1,4,0:0:0:0:
304,120,142523,1,0,0:0:0:0:
208,120,142826,1,4,0:0:0:0:
256,192,143129,12,0,144038,0:0:0:0:
256,236,144644,5,0,0:0:0:0:
204,320,144947,1,2,0:0:0:0:
308,320,145250,6,0,P|376:308|440:272,1,140,4|8,0:0|0:0,0:0:0:0:
436,176,146159,2,0,P|376:143|307:130,1,140
205,130,147068,6,0,L|61:130,2,140,8|4|8,0:0|0:0|0:0,0:0:0:0:
256,44,148583,1,0,0:0:0:0:
307,130,148886,6,0,L|344:196,1,70
256,236,149492,1,8,0:0:0:0:
308,320,149795,1,0,0:0:0:0:
204,320,150098,6,0,P|136:308|72:272,1,140,4|8,0:0|0:0,0:0:0:0:
76,176,151007,2,0,P|137:143|206:130,1,140
307,130,151916,6,0,L|451:130,2,140,8|4|8,0:0|0:0|0:0,0:0:0:0:
256,44,153431,1,0,0:0:0:0:
205,130,153735,6,0,L|171:192,1,70
256,236,154341,1,8,0:0:0:0:
204,320,154644,1,0,0:0:0:0:
300,328,154947,6,0,L|440:328,1,140,4|8,0:0|0:0,0:0:0:0:
444,232,155856,2,0,P|492:192|444:152,1,140
440,56,156765,2,0,L|300:56,1,140,8|4,0:0|0:0,0:0:0:0:
256,144,157674,5,0,0:0:0:0:
72,56,157977,2,0,L|212:56,2,140,8|4|8,0:0|0:0|0:0,0:0:0:0:
256,144,159492,1,0,0:0:0:0:
200,224,159796,6,0,P|136:248|72:224,1,140,4|8,0:0|0:0,0:0:0:0:
312,224,161008,2,0,P|376:200|440:224,1,140,4|8,0:0|0:0,0:0:0:0:
376,300,161917,1,0,0:0:0:0:
256,192,162220,12,0,164644,0:0:0:0:
100,92,172826,5,0,0:0:0:0:
52,176,173129,1,0,0:0:0:0:
88,268,173432,1,8,0:0:0:0:
148,188,173735,2,0,P|180:168|216:156,1,70,4|8,0:0|0:0,0:0:0:0:
301,157,174341,6,0,P|334:169|364:188,1,70,4|0,0:0|0:0,0:0:0:0:
424,268,174947,1,8,0:0:0:0:
460,176,175250,1,0,0:0:0:0:
212,228,175553,6,0,P|192:200|179:167,1,70,4|0,0:0|0:0,0:0:0:0:
176,68,176159,1,8,0:0:0:0:
88,116,176462,1,0,0:0:0:0:
301,156,176765,6,0,P|321:184|334:217,1,70,4|0,0:0|0:0,0:0:0:0:
337,316,177371,1,8,0:0:0:0:
424,268,177674,1,0,0:0:0:0:
210,227,177977,6,0,P|177:215|148:196,1,70,4|0,0:0|0:0,0:0:0:0:
88,116,178583,1,8,0:0:0:0:
52,208,178886,1,0,0:0:0:0:
136,308,179190,6,0,L|216:320,1,70,4|0,0:0|0:0,0:0:0:0:
306,319,179796,2,0,L|376:308,1,70,8|0,0:0|0:0,0:0:0:0:
460,208,180402,1,4,0:0:0:0:
256,192,180705,12,4,181614,0:0:0:0:
412,92,182523,5,0,0:0:0:0:
460,176,182826,1,4,0:0:0:0:
424,268,183129,1,0,0:0:0:0:
301,157,183432,2,0,P|334:169|364:188,1,70,8|0,0:0|0:0,0:0:0:0:
304,256,184038,6,0,L|304:328,1,70,4|0,0:0|0:0,0:0:0:0:
208,326,184644,2,0,L|208:256,1,70,8|0,0:0|0:0,0:0:0:0:
147,188,185250,6,0,P|177:168|210:157,1,70,4|0,0:0|0:0,0:0:0:0:
88,268,185856,1,8,0:0:0:0:
52,176,186159,1,0,0:0:0:0:
177,69,186462,6,0,P|143:79|116:100,1,70,4|0,0:0|0:0,0:0:0:0:
334,69,187068,2,0,P|367:79|396:100,1,70,8|0,0:0|0:0,0:0:0:0:
302,224,187674,6,0,L|316:156,1,70,4|0,0:0|0:0,0:0:0:0:
256,312,188280,1,8,0:0:0:0:
196,156,188584,2,0,L|209:224,1,70,0|4,0:0|0:0,0:0:0:0:
156,36,189493,5,8,0:0:0:0:
356,36,190099,1,4,0:0:0:0:
256,204,190705,1,8,0:0:0:0:
208,288,191008,1,0,0:0:0:0:
304,288,191311,1,4,0:0:0:0:
256,192,191614,12,0,192523,0:0:0:0:
256,148,193129,5,0,0:0:0:0:
308,64,193432,1,8,0:0:0:0:
204,64,193735,6,0,P|136:76|72:112,1,140,4|8,0:0|0:0,0:0:0:0:
76,300,194644,2,0,P|136:333|205:346,1,140
307,346,195553,6,0,L|451:346,2,140,8|4|8,0:0|0:0|0:0,0:0:0:0:
256,264,197068,1,0,0:0:0:0:
184,200,197371,6,0,L|116:248,1,70
256,148,197977,1,8,0:0:0:0:
204,64,198280,1,0,0:0:0:0:
308,64,198583,6,0,P|376:76|440:112,1,140,4|8,0:0|0:0,0:0:0:0:
436,300,199492,2,0,P|376:333|307:346,1,140
205,346,200401,6,0,L|61:346,2,140,8|4|8,0:0|0:0|0:0,0:0:0:0:
256,264,201916,1,0,0:0:0:0:
328,200,202219,6,0,L|396:248,1,70,0|4,0:0|0:0,0:0:0:0:
256,148,202825,1,8,0:0:0:0:
308,64,203128,1,4,0:0:0:0:
212,56,203432,6,0,L|72:56,1,140,4|8,0:0|0:0,0:0:0:0:
65,232,204341,2,0,P|20:190|68:152,1,140
72,328,205250,2,0,L|212:328,1,140,8|4,0:0|0:0,0:0:0:0:
256,240,206159,5,0,0:0:0:0:
440,328,206462,2,0,L|300:328,2,140,8|4|8,0:0|0:0|0:0,0:0:0:0:
256,240,207977,1,0,0:0:0:0:
311,160,208281,6,0,P|376:136|440:160,1,140,4|8,0:0|0:0,0:0:0:0:
376,236,209189,1,0,0:0:0:0:
200,159,209493,2,0,P|135:183|71:159,1,140,4|8,0:0|0:0,0:0:0:0:
136,84,210402,1,0,0:0:0:0:
256,192,210705,12,0,213129,0:0:0:0:
