osu file format v6

[General]
AudioFilename: Perry el ornitorrinco.mp3
AudioLeadIn: 3000
PreviewTime: -1
Countdown: 0
SampleSet: Soft
StackLeniency: 0.7
Mode: 0
LetterboxInBreaks: 1
StoryFireInFront: 0

[Editor]
DistanceSpacing: 0.800000011920929
BeatDivisor: 4
GridSize: 64

[Metadata]
Title:Perry, el ornitorrinco
Artist:Phineas y Ferb
Creator:Kotomi-chan
Version:Hard
Source:PyF Latino
Tags:the platypus

[Difficulty]
HPDrainRate:4
CircleSize:5
OverallDifficulty:6
SliderMultiplier:1.4
SliderTickRate:2

[Events]
//Background and Video events
0,0,"Agent-P-and-Monogram-Wallpaper-phineas-and-ferb-5021745-1024-768.jpg"
Video,0,"Perry el ornitorrinco.avi"
//Break Periods
//Storyboard Layer 0 (Background)
//Storyboard Layer 1 (Fail)
//Storyboard Layer 2 (Pass)
//Storyboard Layer 3 (Foreground)
//Storyboard Sound Samples
//Background Colour Transformations
3,100,163,162,255

[TimingPoints]
713.759313509582,344.887049491292,4,2,0,100,1,0
4593,-100,4,1,0,100,0,0
20286,-200,4,1,0,100,0,0
20803,-100,4,1,0,100,0,0
27528,-50,4,1,0,100,0,1
33133,-50,4,1,0,100,0,0
36926,-100,4,1,0,100,0,1

[HitObjects]
0,64,23,2,12,B|88:2|192:64,1,175
105,97,627,2,0,B|169:156|228:92,1,140
384,64,1317,1,8
438,26,1489,2,4,B|478:133|414:197,1,175
384,128,2093,2,8,B|320:192|384:256,1,140
448,256,2610,2,4,B|468:332|384:320,1,105
363,300,3041,1,0
320,320,3300,2,8,B|277:340|232:342,2,70
320,256,3817,2,4,B|321:124|239:135,1,140
192,128,4593,6,6,B|128:-64|41:140,1,245
98,268,5671,5,0
128,320,5973,2,0,B|174:360|168:288,3,70
128,256,6663,2,8,B|192:192|128:128,1,140
100,87,7180,1,0
64,128,7352,2,0,B|-5:235|70:293,1,175,8|0
112,323,7999,2,8,B|240:323|240:259,1,140
256,256,8473,2,4,B|281:164|331:273,2,105
192,192,9163,6,2,B|256:192|256:256,4,70
192,256,10025,1,0
128,256,10198,2,2,B|128:320|192:320,5,70
128,192,11232,6,0,B|128:128|192:128,2,70
192,192,11750,2,0,B|256:192|256:128,4,70
192,128,12741,1,0
192,64,12957,2,2,B|128:64|93:102|137:169,1,140
192,128,13474,2,0,B|256:192|192:256,1,140
128,256,13991,1,0
64,256,14164,2,6,B|26:208|80:189|80:189|46:173|46:173|80:146|80:146|48:128|48:128|102:102|40:65,2,280
128,256,15716,5,10
192,256,15888,1,2
256,256,16061,1,10
320,256,16233,1,8
384,256,16406,5,8
448,256,16578,2,2,B|512:256|512:256,1,52.5
448,192,17009,2,2,B|512:64|406:69,1,157.5
401,130,17527,2,2,B|276:127|331:35,1,140
384,64,18044,1,0
448,64,18216,2,2,B|448:0|384:0|384:0|256:0|256:0|192:0|192:64,1,315
192,128,19294,6,0,B|192:192|254:170,1,70
256,128,19682,2,8,B|372:130|315:217,1,140
256,192,20286,2,8,B|256:256|212:299,1,105
192,320,20975,1,0
64,64,21234,5,2
64,320,21579,1,2
128,256,21751,1,2
64,256,22096,6,0,B|64:192|128:192,4,70
128,256,22958,2,0,B|192:256|212:195,1,105
247,88,23390,2,0,B|311:88|311:152,4,70
192,64,24252,2,6,B|90:39|64:127,2,157.5
130,188,26752,6,6,B|159:156|190:195|190:195|210:165|210:165|227:184|238:194|238:194|254:182|264:173|269:169|269:169|302:200|302:200|325:168|325:168|384:192,1,315
448,192,27787,2,2,B|512:320|320:320,1,210
288,318,28304,2,0,B|270:282|270:282|228:322|218:340|225:305|225:305|233:283|233:283|200:324|200:324|183:284|183:284|164:319|164:319|127:264,1,315
128,256,28822,5,2
84,215,28994,1,10
128,192,29167,1,6
90,153,29339,1,10
128,128,29512,1,10
92,100,29684,1,14
130,62,29856,6,8,B|159:-5|227:-12|275:-3|270:41,2,175,2|0|0
206,64,30546,2,2,B|256:128|320:64|320:64|408:24|474:84|474:84|466:144,1,350
448,192,31150,2,10,B|504:207|462:230|462:230|488:231|488:231|460:250|460:250|485:251|485:251|453:285|453:285|471:287|471:287|448:320,1,245
320,320,31753,5,6
256,192,32098,1,10
192,320,32443,1,6
128,192,32788,1,10
64,320,33046,6,2,B|0:256|64:256|64:256|0:192|64:192|64:192|0:128|64:128,1,280
74,90,33564,2,0,B|128:0|128:64|128:64|192:0|192:64|192:64|256:0|256:64,1,280
320,64,34081,5,10
320,256,34426,1,2
384,64,34771,1,10
384,256,35116,1,2
448,64,35461,1,2
448,256,35806,6,4,B|448:320|320:320,1,140
192,320,36582,1,4
64,320,37013,2,4,B|64:64|64:64|192:64|192:64|256:128|192:192|192:192|128:192|96:190,1,595
