osu file format v9

[General]
AudioFilename: Phineas and Ferb-Gitchi Gitchi Goo.mp3
AudioLeadIn: 0
PreviewTime: 13017
Countdown: 0
SampleSet: Normal
StackLeniency: 0.7
Mode: 0
LetterboxInBreaks: 1

[Editor]
Bookmarks: 13119,24885,36660,48420,60188,61659,63131,64603,66075,67547,69019,70491,71963,73435,76395,88171,99762,102706,105834,107306,108778
DistanceSpacing: 1
BeatDivisor: 2
GridSize: 8

[Metadata]
Title:Gitchee Gitchee Goo (Extended)
Artist:Phineas and the Ferb-Tones
Creator:NoHItter
Version:Easy
Source:Phineas and Ferb
Tags:disney candace gitchi perry platypus Krisom HeatKai

[Difficulty]
HPDrainRate:1
CircleSize:3
OverallDifficulty:1
ApproachRate:1
SliderMultiplier:0.819999999999999
SliderTickRate:2

[Events]
//Background and Video events
0,0,"bg.jpg"
Video,-1162,"New Extended Phineas And Ferb Gitchi Gitchi Goo.avi"
//Break Periods
//Storyboard Layer 0 (Background)
//Storyboard Layer 1 (Fail)
//Storyboard Layer 2 (Pass)
//Storyboard Layer 3 (Foreground)
//Storyboard Sound Samples
//Background Colour Transformations
3,100,163,162,255

[TimingPoints]
1334,367.985280588776,4,1,1,60,1,0
21941,-83.3333333333333,4,1,1,80,0,0
24169,-100,4,1,1,60,0,0
44572,-100,4,1,1,50,0,0
44959,-100,4,1,1,60,0,0
48420,367.985280588776,4,1,1,60,1,1
48420,-100,4,1,1,60,0,1
57251,-83.3333333333333,4,1,1,80,0,1
59459,-100,4,1,1,60,0,0
60188,367.985280588776,4,1,1,60,1,0
61475,-100,4,1,1,40,0,0
62806,-100,4,1,1,60,0,0
64419,-100,4,1,1,40,0,0
65750,-100,4,1,1,60,0,0
67363,-100,4,1,1,40,0,0
68326,-100,4,1,1,71,0,0
70491,-100,4,1,1,81,0,0
71963,-100,4,1,1,91,0,0
74924,367.985280588776,4,1,1,91,1,0
76395,-100,4,1,1,40,0,0
84123,-100,4,1,1,60,0,0
85222,367.985280588776,4,1,1,60,1,0
88171,367.985280588776,4,1,1,70,1,1
88171,-100,4,1,1,70,0,1
97002,-83.3333333333333,4,1,1,80,0,1
99762,-83.3333333333333,4,1,1,80,0,0
110250,-100,4,1,1,60,0,0
111722,-83.3333333333333,4,1,1,89,0,1
113762,-100,4,1,1,80,0,0

[Colours]
Combo1 : 245,163,37
Combo2 : 3,154,3
Combo3 : 4,4,230
Combo4 : 204,2,7

[HitObjects]
74,76,13109,2,0,B|-1:192|74:308,1,246,4|8
232,336,14949,5,8
315,336,15317,1,2
400,336,15685,1,8
464,288,16053,6,0,B|496:240|432:176|464:128,1,164,4|4
328,40,17525,5,2
268,97,17893,1,8
208,152,18261,1,2
371,250,18997,6,0,B|255:325|139:250,1,246,4|8
56,112,20837,5,8
57,195,21205,1,2
56,280,21573,1,8
256,192,21941,12,4,23965
256,192,24885,5,8
256,273,25253,1,2
196,344,25621,2,0,B|256:368|316:344,2,123,8|2|4
424,248,27828,5,8
464,176,28196,1,2
416,104,28564,2,0,B|384:80|328:128|296:104,1,123,8|6
40,344,30772,5,8
120,360,31140,1,2
200,344,31508,2,0,B|320:320|448:344,1,246,8|4
464,184,33348,5,2
440,104,33716,1,8
360,88,34084,1,2
280,72,34452,2,0,B|216:64|152:72,1,123,8|6
48,232,36660,5,8
24,152,37028,1,2
104,168,37396,2,0,B|184:200|232:128|304:168,1,205,8|6
464,184,39052,6,0,B|464:264|384:264,1,123,2|8
312,264,39972,1,8
232,264,40340,2,0,B|158:263|158:351,1,123,8|6
72,72,42180,5,2
152,56,42548,1,8
232,72,42916,1,2
312,56,43284,2,0,B|464:56|464:208,1,246,0|6
320,280,45124,5,2
256,328,45492,1,8
192,280,45860,1,2
256,224,46228,2,0,B|280:184|232:144|256:104,1,123,8|6
376,344,48420,6,0,B|304:296|200:384|136:344,1,246,4|8
72,192,50259,5,8
48,112,50627,1,2
128,128,50995,1,8
176,56,51363,6,0,B|256:24|336:56,1,164,4|4
256,200,52835,5,2
256,280,53203,1,8
256,360,53571,1,2
416,344,54307,6,0,B|528:272|496:128,1,246,4|8
336,80,56147,5,8
256,80,56515,1,2
176,80,56883,1,8
256,192,57251,12,4,59275
256,192,60188,5,8
256,272,60555,1,2
328,312,60923,1,4
256,192,61659,5,8
256,112,62027,1,2
184,72,62395,1,4
184,232,63131,6,0,B|184:304|152:312,2,81.9999999999999,8|2|4
328,152,64603,6,0,B|328:80|360:72,2,81.9999999999999,8|2|4
216,272,66075,5,8
216,192,66443,2,0,B|168:184|120:192,1,81.9999999999999,2|4
296,216,67547,5,8
296,136,67915,2,0,B|336:128|384:136,1,81.9999999999999,2|4
472,272,69019,5,8
416,328,69387,1,8
336,328,69755,2,0,B|256:304|168:328,1,164,4|8
112,272,70859,5,8
184,232,71227,2,0,B|144:152|184:72,1,164,4|8
256,112,72331,5,8
304,176,72699,2,0,B|344:136|432:216|464:176,1,164,4|4
256,192,73619,12,4,74924
256,192,76395,5,8
96,192,77131,1,0
96,192,77499,1,8
176,48,78235,5,8
256,56,78603,1,0
336,48,78971,1,8
408,96,79339,5,0
408,256,80075,1,8
256,320,80811,5,8
256,240,81179,1,0
256,160,81547,1,8
96,192,82283,5,8
24,344,83019,1,0
24,344,83387,1,8
184,344,84123,5,4
256,312,84491,1,4
328,344,84859,1,4
256,192,85222,12,4,87245
438,76,88171,2,0,B|513:192|438:308,1,246,4|8
280,336,90010,5,8
197,336,90378,1,2
112,336,90746,1,8
48,288,91114,6,0,B|16:240|80:176|48:128,1,164,4|0
184,40,92586,5,2
244,97,92954,1,8
304,152,93322,1,2
141,250,94058,6,0,B|257:325|373:250,1,246,4|8
456,112,95898,5,8
455,195,96266,1,2
456,280,96634,1,8
368,328,97002,6,0,B|320:312|272:328,2,98.4000023460388,4|0|4
336,232,98106,1,2
360,136,98474,2,0,B|288:160|216:136,1,147.600003519058,4|4
40,48,99762,6,0,B|16:120|40:200,1,147.600003519058,4|4
40,296,100682,1,2
120,352,101050,1,2
216,352,101418,2,0,B|288:336|368:352,1,147.600003519058,4|4
480,192,102706,6,0,B|488:104|424:64,1,147.600003519058,4|4
328,32,103626,1,2
232,32,103994,1,2
88,168,104730,1,0
96,264,105098,1,2
176,320,105466,1,2
272,320,105834,6,0,B|392:320|392:192,1,196.800004692078,4|4
240,64,107306,2,0,B|120:64|120:192,1,196.800004692078,4|4
256,192,108778,12,4,110250
256,192,111722,5,4
352,192,112090,1,2
304,104,112458,1,4
208,104,112826,1,2
168,193,113193,2,0,B|169:289|257:287,1,147.600003519058,4|4
