osu file format v9

[General]
AudioFilename: Pheon - Reach for the Moon, Immortal Smoke.mp3
AudioLeadIn: 0
PreviewTime: 88201
Countdown: 1
SampleSet: Soft
StackLeniency: 0.7
Mode: 0
LetterboxInBreaks: 1

[Editor]
Bookmarks: 3073
DistanceSpacing: 1
BeatDivisor: 4
GridSize: 8

[Metadata]
Title:Reach for the Moon, Immortal Smoke
Artist:Pheon
Creator:NachoPiggy
Version:Lunatic
Source:Touhou
Tags:

[Difficulty]
HPDrainRate:7
CircleSize:4
OverallDifficulty:8
ApproachRate:8
SliderMultiplier:1.9
SliderTickRate:1

[Events]
//Background and Video events
0,0,"nintendomokoubg.png"
//Break Periods
2,38929,44117
//Storyboard Layer 0 (Background)
//Storyboard Layer 1 (Fail)
//Storyboard Layer 2 (Pass)
//Storyboard Layer 3 (Foreground)
//Storyboard Sound Samples
//Background Colour Transformations
3,100,163,162,255

[TimingPoints]
1557,373.366521468575,4,2,0,50,1,0
13901,-100,4,1,0,50,0,0

[HitObjects]
240,328,1557,2,0,B|168:352|168:352,1,47.5
176,304,1743,2,0,B|112:312|112:312,1,47.5
144,264,1930,2,0,B|80:256|80:256,1,47.5
112,216,2117,2,0,B|40:192|40:192,1,47.5
96,168,2303,2,0,B|48:128|48:128,1,47.5
104,128,2490,2,0,B|80:72|80:72,1,47.5
128,104,2677,2,0,B|128:56|128:56,2,47.5
272,56,3050,6,0,B|344:32|344:32,1,47.5
336,80,3237,2,0,B|400:72|400:72,1,47.5
368,120,3423,2,0,B|432:128|432:128,1,47.5
400,168,3610,2,0,B|472:192|472:192,1,47.5
416,216,3797,2,0,B|464:256|464:256,1,47.5
408,256,3983,2,0,B|432:312|432:312,1,47.5
384,280,4170,2,0,B|384:328|384:328,2,47.5
240,352,4543,6,0,B|200:288|200:288,1,47.5
264,304,4730,2,0,B|304:256|304:256,1,47.5
248,256,4917,2,0,B|224:216|224:216,1,47.5
272,208,5103,2,0,B|312:152|312:152,1,47.5
256,160,5290,2,0,B|216:120|216:120,1,47.5
264,112,5477,2,0,B|312:56|312:56,1,47.5
248,64,5664,2,0,B|208:24|208:24,2,47.5
144,128,6037,5,0
96,144,6130,1,0
72,184,6224,1,0
56,232,6317,1,0
64,280,6410,1,0
88,320,6504,1,0
128,344,6597,1,0
176,352,6690,1,0
216,328,6784,1,0
256,296,6877,2,0,B|312:264|312:264,5,47.5
376,224,7530,5,0
424,208,7624,1,0
448,168,7717,1,0
464,120,7810,1,0
456,72,7904,1,0
432,32,7997,1,0
392,8,8090,1,0
344,0,8184,1,0
304,24,8277,1,0
264,56,8370,2,0,B|208:88|208:88,5,47.5
256,192,9024,12,0,10331
256,192,10517,12,0,13504
248,344,14438,5,0
240,296,14531,1,0
200,272,14624,1,0
184,224,14718,1,0
224,200,14811,5,0
256,160,14904,1,0
304,152,14998,2,0,B|432:208|480:72|480:72,1,190
376,32,15558,1,0
272,72,15744,1,0
160,48,15931,1,0
88,136,16118,1,0
136,240,16304,1,0
240,288,16491,2,0,B|328:336|360:232|448:312|448:312,2,190
320,200,17425,5,0
352,88,17611,1,0
248,48,17798,1,0
208,152,17985,1,0
256,376,18358,5,0
120,192,18731,1,0
256,8,19105,1,0
392,192,19478,1,0
392,192,19665,5,0
392,192,19758,1,0
312,272,19945,1,0
312,272,20038,1,0
200,248,20225,1,0
200,248,20318,1,0
280,168,20505,1,0
280,168,20598,1,0
280,168,20692,1,0
280,168,20785,1,0
280,168,20878,1,0
280,168,20972,6,0,B|256:64|128:48|128:48,1,190
80,144,21532,2,0,B|32:240|32:240,1,95
152,208,21905,2,0,B|128:336|128:336,1,95
248,328,22278,1,0
360,296,22465,1,0
248,328,22652,1,0
288,224,22838,1,0
400,200,23025,2,0,B|432:144|384:80|384:80,1,95
288,120,23398,5,0
176,96,23585,1,0
80,152,23772,1,0
64,256,23958,5,0
152,336,24145,1,0
224,248,24332,1,0
320,312,24519,1,0
400,232,24705,1,0
376,120,24892,1,0
288,40,25079,1,0
216,128,25265,1,0
120,64,25452,1,0
40,144,25639,1,0
120,64,25825,6,0,B|136:176|136:176,1,95
392,320,26199,2,0,B|376:208|376:208,1,95
256,192,26572,2,0,B|256:256|256:256,4,47.5
184,280,27132,6,0,B|120:296|88:224|88:224,1,95
104,128,27505,1,0
104,128,27599,1,0
104,128,27692,1,0
208,88,27879,1,0
320,64,28066,1,0
424,104,28252,1,0
360,200,28439,2,0,B|360:304|360:304,1,95
248,264,28812,6,0,B|184:272|168:208|168:208,1,95
256,144,29186,1,0
144,120,29372,1,0
256,144,29559,1,0
368,120,29746,1,0
256,40,29932,5,0
40,192,30306,1,0
256,344,30679,1,0
472,192,31052,1,0
256,192,31426,5,0
152,144,31613,2,0,B|112:104|112:104,2,47.5
256,96,31986,2,0,B|256:32|256:32,2,47.5
360,144,32359,2,0,B|400:104|400:104,2,47.5
256,192,32733,2,0,B|256:312|256:312,1,95
144,256,33106,6,0,B|88:280|96:344|96:344,1,95
208,328,33479,2,0,B|264:304|256:240|256:240,1,95
368,128,33853,6,0,B|424:104|416:40|416:40,1,95
304,56,34226,2,0,B|248:80|256:144|256:144,1,95
320,208,34599,6,0,B|448:208|424:344|424:344,1,190
192,176,35159,2,0,B|64:176|88:40|88:40,1,190
288,88,35906,6,0,B|336:96|368:152|368:152,1,95
352,256,36280,2,0,B|320:304|272:296|272:296,1,95
224,88,36653,6,0,B|176:96|144:152|144:152,1,95
160,256,37026,2,0,B|192:304|240:296|240:296,1,95
424,48,37400,6,0,B|320:32|320:32,1,95
88,336,37773,6,0,B|192:352|192:352,1,95
400,184,38146,6,0,B|288:256|240:72|104:208|104:208,1,285
96,96,44867,5,0
120,104,44960,1,0
136,120,45054,1,0
144,144,45147,1,0
152,168,45240,2,0,B|120:248|200:280|200:280,2,95
240,200,45800,5,0
352,200,45987,2,0,B|352:144|304:112|304:112,1,95
224,48,46360,1,0
248,48,46454,1,0
272,48,46547,1,0
296,48,46641,1,0
320,48,46734,2,0,B|360:88|384:8|440:80|440:80,1,95
464,160,47107,1,0
400,256,47294,1,0
464,352,47481,1,0
400,256,47667,5,0
296,296,47854,2,0,B|304:192|304:192,1,95
200,248,48227,2,0,B|144:168|144:168,1,95
80,264,48601,1,0
80,264,48694,1,0
80,264,48787,1,0
80,264,48881,1,0
80,264,48974,2,0,B|96:336|160:360|160:360,1,95
224,336,49347,5,0
320,336,49534,1,0
400,288,49721,1,0
408,192,49907,1,0
368,104,50094,1,0
280,64,50281,5,0
240,88,50374,1,0
200,112,50468,1,0
264,184,50654,1,0
296,216,50748,1,0
328,256,50841,2,0,B|328:352|328:352,1,95
232,352,51214,5,0
144,320,51401,1,0
88,248,51588,2,0,B|40:200|104:128|104:128,1,95
128,72,51961,5,0
216,32,52148,1,0
304,56,52334,2,0,B|368:56|384:128|384:128,1,95
392,200,52708,5,0
392,296,52894,1,0
312,344,53081,2,0,B|264:376|192:328|192:328,1,95
264,256,53454,5,0
248,240,53548,1,0
232,224,53641,1,0
216,200,53734,2,0,B|128:176|232:104|120:88|120:88,1,142.5
56,136,54201,5,0
40,160,54295,1,0
40,184,54388,1,0
48,208,54481,2,0,B|40:288|144:328|144:328,1,142.5
216,344,54948,5,0
232,328,55041,1,0
224,304,55135,1,0
232,280,55228,2,0,B|272:224|344:352|368:208|368:208,1,142.5
360,144,55695,5,0
344,128,55788,1,0
352,104,55881,1,0
344,80,55975,2,0,B|304:24|232:152|208:8|208:8,1,142.5
128,32,56441,5,0
80,112,56628,1,0
72,208,56815,2,0,B|80:296|136:232|168:328|240:232|240:232,1,190
256,160,57375,1,0
288,72,57561,1,0
384,64,57748,5,0
448,136,57935,1,0
352,152,58122,2,0,B|320:208|368:272|368:272,1,95
440,272,58495,1,0
440,272,58682,2,0,B|424:328|328:344|328:344,1,95
280,304,59055,1,0
192,272,59242,2,0,B|208:216|304:200|304:200,2,95
256,192,59802,12,0,62415
144,56,62789,5,0
120,96,62882,1,0
96,136,62975,1,0
192,200,63162,5,0
208,248,63255,1,0
224,288,63349,1,0
328,344,63535,5,0
392,248,63722,1,0
304,168,63909,5,0
344,136,64002,1,0
312,96,64095,1,0
352,72,64189,1,0
328,32,64282,1,0
328,32,64375,6,0,B|248:32|248:32,1,47.5
248,64,64562,2,0,B|208:104|208:104,1,47.5
168,88,64749,2,0,B|104:80|104:80,1,47.5
128,128,64935,2,0,B|96:168|96:168,1,47.5
136,192,65122,2,0,B|152:248|152:248,1,47.5
192,224,65309,2,0,B|224:288|224:288,1,47.5
256,256,65496,2,0,B|296:288|296:288,1,47.5
328,256,65682,6,0,B|384:240|384:240,2,47.5
312,208,65962,2,0,B|344:144|344:144,2,47.5
272,176,66242,2,0,B|280:112|280:112,2,47.5
240,144,66522,6,0,B|176:80|176:80,1,47.5
240,72,66709,2,0,B|224:24|224:24,1,47.5
272,32,66896,2,0,B|296:-8|296:-8,1,47.5
328,32,67082,2,0,B|384:16|384:16,1,47.5
