osu file format v13

[General]
AudioFilename: Pharrell - Happy (Despicable Me 2 - Lyric Video)-[www_flvto_com].mp3
AudioLeadIn: 0
PreviewTime: 25994
Countdown: 0
SampleSet: Normal
StackLeniency: 0.7
Mode: 0
LetterboxInBreaks: 1
WidescreenStoryboard: 1

[Editor]
DistanceSpacing: 0.9
BeatDivisor: 4
GridSize: 4
TimelineZoom: 1

[Metadata]
Title:Happy
TitleUnicode:Happy
Artist:Pharrell Williams
ArtistUnicode:Pharrell Williams
Creator:Lissette
Version:Normal
Source:Despicable Me 2
Tags:collab collaboration movie Irreversible Stefan Darksonic jonathanlfj Kenezz Dariano Vicho spboxer3 ouranhshc ykcarrot GladiOol Gladi yeahyeahyeahhh Gabe Lizbeth happy30 La Cataline Zero__wind DJPop Garven Fuuko dkun S_o_r_d_a Sorda Gero -Bakari- Frostmourne W_h_i_t_e White TicClick Xanandra Shulin Kyshiro Teara Hinsvar Sieg Natsu Kytoxid Fycho Sure
BeatmapID:427491
BeatmapSetID:163941

[Difficulty]
HPDrainRate:4
CircleSize:3
OverallDifficulty:3
ApproachRate:4
SliderMultiplier:1.2
SliderTickRate:1

[Events]
//Background and Video events
0,0,"BG.jpg",0,0
//Break Periods
2,99249,103729
//Storyboard Layer 0 (Background)
//Storyboard Layer 1 (Fail)
//Storyboard Layer 2 (Pass)
//Storyboard Layer 3 (Foreground)
//Storyboard Sound Samples

[TimingPoints]
1549,375,4,1,1,50,1,0
3424,-100,4,2,2,50,0,0
3799,-100,4,2,2,30,0,0
3892,-100,4,2,2,50,0,0
5299,-100,4,2,2,30,0,0
5392,-100,4,2,2,50,0,0
6799,-100,4,2,2,30,0,0
6892,-100,4,2,2,50,0,0
8299,-100,4,2,2,30,0,0
8392,-100,4,2,2,50,0,0
11299,-100,4,2,2,30,0,0
11392,-100,4,2,2,50,0,0
12799,-100,4,2,2,30,0,0
12892,-100,4,2,2,50,0,0
14299,-100,4,2,2,30,0,0
14392,-100,4,2,2,50,0,0
15799,-100,4,2,2,30,0,0
15892,-100,4,2,2,50,0,0
17299,-100,4,2,2,30,0,0
17392,-100,4,2,2,50,0,0
18799,-100,4,2,2,30,0,0
18892,-100,4,2,2,50,0,0
20299,-100,4,2,2,30,0,0
20392,-100,4,2,2,50,0,0
21799,-100,4,2,2,30,0,0
21892,-100,4,2,2,50,0,0
23299,-100,4,2,2,30,0,0
23392,-100,4,2,2,50,0,0
24799,-100,4,2,2,30,0,0
24892,-100,4,2,2,50,0,0
26299,-100,4,2,2,30,0,0
26392,-100,4,2,2,50,0,0
27049,-100,4,2,1,50,0,1
27142,-100,4,2,1,50,0,0
27799,-100,4,2,1,30,0,0
27892,-100,4,2,1,50,0,0
29299,-100,4,2,1,30,0,0
29392,-100,4,2,1,50,0,0
30799,-100,4,2,1,30,0,0
30892,-100,4,2,1,50,0,0
32299,-100,4,2,1,30,0,0
32392,-100,4,2,1,50,0,0
33799,-100,4,2,1,30,0,0
33892,-100,4,2,1,50,0,0
35299,-100,4,2,1,30,0,0
35392,-100,4,2,1,50,0,0
36799,-100,4,2,1,30,0,0
36892,-100,4,2,1,50,0,0
38111,-100,4,2,1,30,0,0
38392,-100,4,2,1,50,0,0
39799,-100,4,2,1,30,0,0
39892,-100,4,2,1,50,0,0
41299,-100,4,2,1,30,0,0
41392,-100,4,2,1,50,0,0
42799,-100,4,2,1,30,0,0
42892,-100,4,2,1,50,0,0
44299,-100,4,2,1,30,0,0
44392,-100,4,2,1,50,0,0
45799,-100,4,2,1,30,0,0
45892,-100,4,2,1,50,0,0
47299,-100,4,2,1,30,0,0
47392,-100,4,2,1,50,0,0
48799,-100,4,2,1,30,0,0
48892,-100,4,2,1,50,0,0
50111,-100,4,2,1,30,0,0
50392,-100,4,2,1,50,0,0
51424,-100,4,2,2,50,0,0
51799,-100,4,2,2,30,0,0
51892,-100,4,2,2,50,0,0
53299,-100,4,2,2,30,0,0
53392,-100,4,2,2,50,0,0
54799,-100,4,2,2,30,0,0
54892,-100,4,2,2,50,0,0
56299,-100,4,2,2,30,0,0
56392,-100,4,2,2,50,0,0
57799,-100,4,2,2,30,0,0
57892,-100,4,2,2,50,0,0
59299,-100,4,2,2,30,0,0
59392,-100,4,2,2,50,0,0
60799,-100,4,2,2,30,0,0
60892,-100,4,2,2,50,0,0
62299,-100,4,2,2,30,0,0
62392,-100,4,2,2,50,0,0
63799,-100,4,2,2,30,0,0
63892,-100,4,2,2,50,0,0
65299,-100,4,2,2,30,0,0
65392,-100,4,2,2,50,0,0
66799,-100,4,2,2,30,0,0
66892,-100,4,2,2,50,0,0
68299,-100,4,2,2,30,0,0
68392,-100,4,2,2,50,0,0
69799,-100,4,2,2,30,0,0
69892,-100,4,2,2,50,0,0
71299,-100,4,2,2,30,0,0
71392,-100,4,2,2,50,0,0
72799,-100,4,2,2,30,0,0
72892,-100,4,2,2,50,0,0
74299,-100,4,2,2,30,0,0
74392,-100,4,2,1,50,0,0
75049,-100,4,2,1,50,0,1
75142,-100,4,2,1,50,0,0
75799,-100,4,2,1,30,0,0
75892,-100,4,2,1,50,0,0
77299,-100,4,2,1,30,0,0
77392,-100,4,2,1,50,0,0
78799,-100,4,2,1,30,0,0
78892,-100,4,2,1,50,0,0
80299,-100,4,2,1,30,0,0
80392,-100,4,2,1,50,0,0
81799,-100,4,2,1,30,0,0
81892,-100,4,2,1,50,0,0
83299,-100,4,2,1,30,0,0
83392,-100,4,2,1,50,0,0
84799,-100,4,2,1,30,0,0
84892,-100,4,2,1,50,0,0
86111,-100,4,2,1,30,0,0
86392,-100,4,2,1,50,0,0
87799,-100,4,2,1,30,0,0
87892,-100,4,2,1,50,0,0
89299,-100,4,2,1,30,0,0
89392,-100,4,2,1,50,0,0
90799,-100,4,2,1,30,0,0
90892,-100,4,2,1,50,0,0
92299,-100,4,2,1,30,0,0
92392,-100,4,2,1,50,0,0
93799,-100,4,2,1,30,0,0
93892,-100,4,2,1,50,0,0
95299,-100,4,2,1,30,0,0
95392,-100,4,2,1,50,0,0
96799,-100,4,2,1,30,0,0
96892,-100,4,2,1,50,0,0
98111,-100,4,2,1,30,0,0
98392,-100,4,2,0,50,0,0
99049,-100,4,2,0,50,0,0
99142,-100,4,2,0,50,0,0
105049,-100,4,2,1,40,0,0
106361,-100,4,2,1,30,0,0
106455,-100,4,2,1,40,0,0
109361,-100,4,2,1,30,0,0
109455,-100,4,2,1,40,0,0
111611,-100,4,2,1,30,0,0
111705,-100,4,2,1,40,0,0
114611,-100,4,2,1,30,0,0
114705,-100,4,2,1,40,0,0
118361,-100,4,2,1,30,0,0
118455,-100,4,2,1,40,0,0
120611,-100,4,2,1,30,0,0
120705,-100,4,2,1,40,0,0
121361,-100,4,2,1,30,0,0
121455,-100,4,2,1,40,0,0
122299,-100,4,2,1,30,0,0
122486,-100,4,2,1,50,0,0
123049,-100,4,2,1,50,0,1
123142,-100,4,2,1,50,0,0
123799,-100,4,2,1,30,0,0
123892,-100,4,2,1,50,0,0
125299,-100,4,2,1,30,0,0
125392,-100,4,2,1,50,0,0
126799,-100,4,2,1,30,0,0
126892,-100,4,2,1,50,0,0
128299,-100,4,2,1,30,0,0
128392,-100,4,2,1,50,0,0
129799,-100,4,2,1,30,0,0
129892,-100,4,2,1,50,0,0
131299,-100,4,2,1,30,0,0
131392,-100,4,2,1,50,0,0
132799,-100,4,2,1,30,0,0
132892,-100,4,2,1,50,0,0
134111,-100,4,2,1,30,0,0
134392,-100,4,2,1,50,0,0
135799,-100,4,2,1,30,0,0
135892,-100,4,2,1,50,0,0
137299,-100,4,2,1,30,0,0
137392,-100,4,2,1,50,0,0
138799,-100,4,2,1,30,0,0
138892,-100,4,2,1,50,0,0
140299,-100,4,2,1,30,0,0
140392,-100,4,2,1,50,0,0
141799,-100,4,2,1,30,0,0
141892,-100,4,2,1,50,0,0
143299,-100,4,2,1,30,0,0
143392,-100,4,2,1,50,0,0
144799,-100,4,2,1,30,0,0
144892,-100,4,2,1,50,0,0
146111,-100,4,2,1,30,0,0
146392,-100,4,2,1,50,0,0
147049,-100,4,2,1,50,0,1
147142,-100,4,2,1,50,0,0
147799,-100,4,2,1,30,0,0
147892,-100,4,2,1,50,0,0
149299,-100,4,2,1,30,0,0
149392,-100,4,2,1,50,0,0
150799,-100,4,2,1,30,0,0
150892,-100,4,2,1,50,0,0
152299,-100,4,2,1,30,0,0
152392,-100,4,2,1,50,0,0
153799,-100,4,2,1,30,0,0
153892,-100,4,2,1,50,0,0
155299,-100,4,2,1,30,0,0
155392,-100,4,2,1,50,0,0
156799,-100,4,2,1,30,0,0
156892,-100,4,2,1,50,0,0
158111,-100,4,2,1,30,0,0
158392,-100,4,2,1,50,0,0
159799,-100,4,2,1,30,0,0
159892,-100,4,2,1,50,0,0
161299,-100,4,2,1,30,0,0
161392,-100,4,2,1,50,0,0
162799,-100,4,2,1,30,0,0
162892,-100,4,2,1,50,0,0
164299,-100,4,2,1,30,0,0
164392,-100,4,2,1,50,0,0
165799,-100,4,2,1,30,0,0
165892,-100,4,2,1,50,0,0
167299,-100,4,2,1,30,0,0
167392,-100,4,2,1,50,0,0
168799,-100,4,2,1,30,0,0
168892,-100,4,2,1,50,0,0
170111,-100,4,2,1,30,0,0
170392,-100,4,2,1,50,0,0
171236,-100,4,2,1,40,0,0
171611,-100,4,2,1,30,0,0
171705,-100,4,2,1,40,0,0
173111,-100,4,2,1,30,0,0
173205,-100,4,2,1,40,0,0
174611,-100,4,2,1,30,0,0
174705,-100,4,2,1,40,0,0
178361,-100,4,2,1,30,0,0
178455,-100,4,2,1,40,0,0
180611,-100,4,2,1,30,0,0
180705,-100,4,2,1,40,0,0
181361,-100,4,2,1,30,0,0
181455,-100,4,2,1,40,0,0
182111,-100,4,2,1,30,0,0
182299,-100,4,2,1,50,0,0
183049,-100,4,2,1,50,0,1
183142,-100,4,2,1,50,0,0
183799,-100,4,2,1,30,0,0
183892,-100,4,2,1,50,0,0
185299,-100,4,2,1,30,0,0
185392,-100,4,2,1,50,0,0
186799,-100,4,2,1,30,0,0
186892,-100,4,2,1,50,0,0
188299,-100,4,2,1,30,0,0
188392,-100,4,2,1,50,0,0
189799,-100,4,2,1,30,0,0
189892,-100,4,2,1,50,0,0
191299,-100,4,2,1,30,0,0
191392,-100,4,2,1,50,0,0
192799,-100,4,2,1,30,0,0
192892,-100,4,2,1,50,0,0
194111,-100,4,2,1,30,0,0
194392,-100,4,2,1,50,0,0
195799,-100,4,2,1,30,0,0
195892,-100,4,2,1,50,0,0
197299,-100,4,2,1,30,0,0
197392,-100,4,2,1,50,0,0
198799,-100,4,2,1,30,0,0
198892,-100,4,2,1,50,0,0
200299,-100,4,2,1,30,0,0
200392,-100,4,2,1,50,0,0
201799,-100,4,2,1,30,0,0
201892,-100,4,2,1,50,0,0
203299,-100,4,2,1,30,0,0
203392,-100,4,2,1,50,0,0
204799,-100,4,2,1,50,0,0
204892,-100,4,2,1,50,0,0
206111,-100,4,2,1,30,0,0
206392,-100,4,2,1,50,0,0
207049,-100,4,2,1,50,0,1
207142,-100,4,2,1,50,0,0
207799,-100,4,2,1,30,0,0
207892,-100,4,2,1,50,0,0
209299,-100,4,2,1,30,0,0
209392,-100,4,2,1,50,0,0
210799,-100,4,2,1,30,0,0
210892,-100,4,2,1,50,0,0
212299,-100,4,2,1,30,0,0
212392,-100,4,2,1,50,0,0
213799,-100,4,2,1,30,0,0
213892,-100,4,2,1,50,0,0
215299,-100,4,2,1,30,0,0
215392,-100,4,2,1,50,0,0
216799,-100,4,2,1,30,0,0
216892,-100,4,2,1,50,0,0
218111,-100,4,2,1,30,0,0
218392,-100,4,2,1,50,0,0
219799,-100,4,2,1,30,0,0
219892,-100,4,2,1,50,0,0
221299,-100,4,2,1,30,0,0
221392,-100,4,2,1,50,0,0
222799,-100,4,2,1,30,0,0
222892,-100,4,2,1,50,0,0
224299,-100,4,2,1,30,0,0
224392,-100,4,2,1,50,0,0
225799,-100,4,2,1,30,0,0
225892,-100,4,2,1,50,0,0
227299,-100,4,2,1,30,0,0
227392,-100,4,2,1,50,0,0
228799,-100,4,2,1,30,0,0
228892,-100,4,2,1,50,0,0
230111,-100,4,2,1,30,0,0
230392,-100,4,2,1,50,0,0

[Colours]
Combo1 : 223,223,0
Combo2 : 128,0,255
Combo3 : 0,128,255
Combo4 : 255,0,128
Combo5 : 0,234,0
Combo6 : 255,128,0

[HitObjects]
132,84,1549,6,0,L|12:98,4,120,0|0|0|0|0,0:0|0:0|0:0|0:0|0:0,0:0:0:0:
184,176,3424,5,0,1:0:0:0:
228,276,3799,2,0,P|300:264|336:204,1,120,4|0,0:2|1:0,0:0:0:0:
376,132,4549,2,0,P|384:72|440:32,1,120,0|0,0:0|1:0,0:0:0:0:
484,128,5299,1,4,0:2:0:0:
468,236,5674,1,0,1:0:0:0:
360,268,6049,6,0,P|340:320|268:344,1,120,0|0,0:0|1:0,0:0:0:0:
264,240,6799,2,0,P|300:144|368:120,2,180,4|0|0,0:2|0:0|1:0,0:0:0:0:
192,320,8299,2,0,P|124:308|84:260,2,120,4|0|0,0:2|1:0|0:0,0:0:0:0:
180,212,9424,6,0,L|169:92,1,120,0|0,1:0|0:0,0:0:0:0:
264,44,10174,2,0,L|275:164,1,120,0|0,1:0|0:0,0:0:0:0:
288,272,10924,1,0,1:0:0:0:
376,332,11299,1,4,0:2:0:0:
480,300,11674,1,0,1:0:0:0:
488,192,12049,6,0,P|442:154|383:145,1,120,0|0,0:0|1:0,0:0:0:0:
276,160,12799,2,0,P|188:148|128:83,2,180,4|0|0,0:2|0:0|1:0,0:0:0:0:
332,68,14299,2,0,L|472:56,2,120,4|0|0,0:2|1:0|0:0,0:0:0:0:
300,172,15424,5,0,1:0:0:0:
252,268,15799,2,0,L|120:276,1,120,4|0,0:2|1:0,0:0:0:0:
72,184,16549,2,0,L|191:176,1,120,0|0,0:0|1:0,0:0:0:0:
300,172,17299,1,4,0:0:0:0:
364,260,17674,1,8,0:0:0:0:
436,180,18049,5,0,0:0:0:0:
380,88,18424,1,0,1:0:0:0:
272,72,18799,2,0,P|204:128|204:220,2,180,4|0|0,0:2|0:0|1:0,0:0:0:0:
300,176,20299,2,0,P|320:236|376:268,1,120,4|0,0:2|1:0,0:0:0:0:
452,328,21049,6,0,P|408:368|332:360,1,120,0|0,0:0|1:0,0:0:0:0:
256,316,21799,2,0,P|200:296|132:316,1,120,4|0,0:2|1:0,0:0:0:0:
48,360,22549,1,0,0:0:0:0:
28,252,22924,2,0,L|20:124,2,120,0|4|0,1:0|0:2|1:0,0:0:0:0:
136,248,24049,6,0,P|200:260|252:224,1,120,0|0,0:0|1:0,0:0:0:0:
348,204,24799,2,0,P|296:140|184:148,2,180,4|0|0,0:2|0:0|1:0,0:0:0:0:
364,312,26299,5,4,0:2:0:0:
260,340,26674,1,0,1:0:0:0:
152,356,27049,2,0,L|37:319,1,120,0|8,0:0|0:0,0:0:0:0:
28,212,27799,2,0,L|143:249,1,120,4|8,0:0|0:0,0:0:0:0:
216,168,28549,2,0,L|101:131,1,120,0|8,0:0|0:0,0:0:0:0:
76,28,29299,2,0,L|191:65,1,120,4|8,0:0|0:0,0:0:0:0:
292,100,30049,5,0,0:0:0:0:
396,136,30424,1,8,0:0:0:0:
424,240,30799,2,0,P|376:288|304:280,1,120,4|8,0:0|0:0,0:0:0:0:
220,272,31549,2,0,P|156:256|108:280,1,120,0|8,0:0|0:0,0:0:0:0:
32,356,32299,5,4,0:0:0:0:
4,252,32674,1,8,0:0:0:0:
56,156,33049,2,0,L|16:24,1,120,0|8,0:0|0:0,0:0:0:0:
128,44,33799,2,0,L|162:158,1,120,4|8,0:0|0:0,0:0:0:0:
272,156,34549,2,0,L|232:24,1,120,0|8,0:0|0:0,0:0:0:0:
344,36,35299,2,0,L|378:150,1,120,4|8,0:0|0:0,0:0:0:0:
412,252,36049,5,0,0:0:0:0:
304,240,36424,1,8,0:0:0:0:
240,328,36799,2,0,P|152:352|72:312,2,180,4|0|8,0:0|0:0|0:0,0:0:0:0:
164,252,38299,5,4,0:0:0:0:
168,144,38674,1,8,0:0:0:0:
244,64,39049,2,0,L|372:60,1,120,0|8,0:0|0:0,0:0:0:0:
420,152,39799,2,0,L|300:155,1,120,4|8,0:0|0:0,0:0:0:0:
248,248,40549,2,0,L|376:244,1,120,0|8,0:0|0:0,0:0:0:0:
424,336,41299,2,0,L|304:339,1,120,4|8,0:0|0:0,0:0:0:0:
196,340,42049,5,0,0:0:0:0:
92,308,42424,1,8,0:0:0:0:
76,200,42799,2,0,L|88:12,2,180,4|0|8,0:0|0:0|0:0,0:0:0:0:
180,232,44299,5,4,0:0:0:0:
216,332,44674,1,8,0:0:0:0:
324,332,45049,2,0,P|394:342|455:310,1,120,0|8,0:0|0:0,0:0:0:0:
496,232,45799,2,0,P|425:221|364:253,1,120,4|8,0:0|0:0,0:0:0:0:
288,188,46549,2,0,P|332:144|412:132,1,120,0|8,0:0|0:0,0:0:0:0:
456,56,47299,2,0,P|396:28|324:44,1,120,4|8,0:0|0:0,0:0:0:0:
244,72,48049,5,0,0:0:0:0:
272,176,48424,1,8,0:0:0:0:
316,276,48799,2,0,P|404:284|480:238,2,180,4|0|8,0:0|0:0|0:0,0:0:0:0:
212,248,50299,2,0,L|180:372,2,120,4|8|0,0:0|0:0|3:0,0:0:0:0:
132,176,51424,5,0,1:0:0:0:
220,112,51799,2,0,P|260:128|340:100,1,120,4|0,0:2|1:0,0:0:0:0:
360,4,52549,2,0,P|413:29|436:84,1,120,0|0,0:0|1:0,0:0:0:0:
448,192,53299,1,4,0:2:0:0:
396,288,53674,1,0,1:0:0:0:
292,320,54049,6,0,L|284:200,1,120,0|0,0:0|1:0,0:0:0:0:
180,168,54799,2,0,L|190:347,2,180,4|0|0,0:2|0:0|1:0,0:0:0:0:
76,192,56299,2,0,L|68:72,2,120,4|0|0,0:2|1:0|0:0,0:0:0:0:
172,240,57424,5,0,1:0:0:0:
232,152,57799,2,0,P|290:131|364:156,1,120,4|0,0:2|1:0,0:0:0:0:
420,220,58549,1,0,0:0:0:0:
368,316,58924,2,0,P|426:328|481:308,2,120,0|4|0,1:0|0:2|1:0,0:0:0:0:
420,220,60049,6,0,L|424:88,1,120,0|0,0:0|1:0,0:0:0:0:
320,64,60799,2,0,L|312:268,2,180,4|0|0,0:2|0:0|1:0,0:0:0:0:
216,92,62299,2,0,L|212:211,2,120,4|0|0,0:2|1:0|0:0,0:0:0:0:
116,52,63424,5,0,1:0:0:0:
36,124,63799,1,4,0:2:0:0:
44,232,64174,1,0,1:0:0:0:
100,324,64549,2,0,L|240:300,1,120,0|0,0:0|1:0,0:0:0:0:
316,348,65299,2,0,L|456:324,1,120,4|0,0:2|1:0,0:0:0:0:
436,220,66049,5,0,0:0:0:0:
348,160,66424,1,0,1:0:0:0:
244,124,66799,2,0,P|304:60|396:60,2,180,4|0|0,0:2|0:0|1:0,0:0:0:0:
180,212,68299,2,0,L|52:192,2,120,4|0|0,0:2|1:0|0:0,0:0:0:0:
260,284,69424,5,0,1:0:0:0:
352,340,69799,2,0,P|405:364|461:348,2,120,4|0|0,0:2|1:0|0:0,0:0:0:0:
260,284,70924,2,0,P|207:259|151:276,2,120,0|4|0,1:0|0:2|1:0,0:0:0:0:
352,340,72049,5,0,0:0:0:0:
372,232,72424,1,0,1:0:0:0:
448,156,72799,2,0,P|480:228|432:320,2,180,4|0|0,0:2|0:0|1:0,0:0:0:0:
404,56,74299,5,4,0:2:0:0:
316,116,74674,1,0,1:0:0:0:
224,60,75049,2,0,P|164:44|100:68,1,120,0|8,0:0|0:0,0:0:0:0:
48,148,75799,2,0,P|108:164|176:144,1,120,4|8,0:0|0:0,0:0:0:0:
260,180,76549,2,0,P|220:236|148:248,1,120,0|8,0:0|0:0,0:0:0:0:
92,320,77299,2,0,P|140:352|212:348,1,120,4|8,0:0|0:0,0:0:0:0:
308,348,78049,5,0,0:0:0:0:
344,244,78424,1,8,0:0:0:0:
452,232,78799,2,0,L|448:48,2,180,4|0|8,0:0|0:0|0:0,0:0:0:0:
412,332,80299,5,4,0:0:0:0:
304,352,80674,1,8,0:0:0:0:
200,328,81049,2,0,L|72:320,1,120,0|8,0:0|0:0,0:0:0:0:
24,228,81799,2,0,L|143:235,1,120,4|8,0:0|0:0,0:0:0:0:
208,148,82549,2,0,L|80:140,1,120,0|8,0:0|0:0,0:0:0:0:
32,48,83299,2,0,L|151:55,1,120,4|8,0:0|0:0,0:0:0:0:
260,64,84049,5,0,0:0:0:0:
352,116,84424,1,8,0:0:0:0:
404,213,84799,2,0,P|456:142|444:56,2,180,4|0|8,0:0|0:0|0:0,0:0:0:0:
296,232,86299,5,4,0:0:0:0:
240,140,86674,1,8,0:0:0:0:
192,44,87049,2,0,L|60:44,1,120,0|8,0:0|0:0,0:0:0:0:
12,132,87799,2,0,L|132:132,1,120,4|8,0:0|0:0,0:0:0:0:
192,220,88549,2,0,L|72:220,1,120,0|8,0:0|0:0,0:0:0:0:
132,308,89299,2,0,L|264:308,1,120,4|8,0:0|0:0,0:0:0:0:
360,308,90049,5,0,0:0:0:0:
468,312,90424,1,8,0:0:0:0:
420,216,90799,2,0,L|444:28,2,180,4|0|8,0:0|0:0|0:0,0:0:0:0:
312,208,92299,5,4,0:0:0:0:
212,252,92674,1,8,0:0:0:0:
112,212,93049,2,0,P|88:160|112:76,1,120,0|8,0:0|0:0,0:0:0:0:
204,96,93799,2,0,P|232:48|304:28,1,120,4|8,0:0|0:0,0:0:0:0:
340,120,94549,2,0,P|400:128|444:180,1,120,0|8,0:0|0:0,0:0:0:0:
384,264,95299,2,0,P|384:320|336:364,1,120,4|8,0:0|0:0,0:0:0:0:
244,312,96049,6,0,L|104:324,1,120,0|8,0:0|0:0,0:0:0:0:
80,224,96799,2,0,L|284:208,2,180,4|0|8,0:0|0:0|0:0,0:0:0:0:
112,120,98299,2,0,L|231:109,1,120,4|8,0:0|0:0,0:0:0:0:
340,96,99049,1,0,3:3:0:0:
128,312,105049,6,0,P|76:280|64:208,1,120,0|8,0:0|0:0,0:0:0:0:
168,216,105799,2,0,B|204:188|252:212|252:212|300:240|360:192,2,180,0|8|8,0:0|0:0|0:0,0:0:0:0:
104,128,107299,1,0,0:0:0:0:
104,128,107674,1,8,0:0:0:0:
64,36,108049,6,0,P|120:28|188:76,1,120,0|8,0:0|0:0,0:0:0:0:
248,136,108799,2,0,P|308:200|412:188,2,180,0|8|8,0:0|0:0|0:0,0:0:0:0:
348,100,110299,1,0,0:0:0:0:
348,100,110674,1,8,0:0:0:0:
272,20,111049,6,0,P|184:32|132:108,1,180,0|8,0:0|0:0,0:0:0:0:
128,156,111799,2,0,P|116:216|60:260,1,120,0|8,0:0|0:0,0:0:0:0:
8,340,112549,2,0,B|60:380|124:352|124:352|184:328|256:364,1,240,0|0,0:0|0:0,0:0:0:0:
344,380,113674,1,8,0:0:0:0:
308,280,114049,6,0,P|288:204|360:116,1,180,0|8,0:0|0:0,0:0:0:0:
392,108,114799,2,0,P|436:52|420:-12,1,120,0|8,0:0|0:0,0:0:0:0:
324,24,115549,2,0,B|268:52|204:28|204:28|140:4|76:56,1,240,0|0,0:0|0:0,0:0:0:0:
164,124,116674,1,8,0:0:0:0:
248,192,117049,6,0,P|216:216|124:220,1,120,0|8,0:0|0:0,0:0:0:0:
136,332,117799,2,0,P|232:328|320:268,2,180,0|8|8,0:0|0:0|0:0,0:0:0:0:
56,260,119299,1,0,0:0:0:0:
56,260,119674,1,8,0:0:0:0:
88,156,120049,6,0,P|165:112|254:110,1,180,0|8,0:0|0:0,0:0:0:0:
308,128,120799,2,0,P|372:136|480:80,2,180,0|8|0,0:0|0:0|0:0,0:0:0:0:
272,28,122299,5,0,0:0:0:0:
164,40,122674,1,8,0:0:0:0:
88,116,123049,2,0,L|96:252,1,120,0|8,0:0|0:0,0:0:0:0:
188,292,123799,2,0,L|180:172,1,120,4|8,0:0|0:0,0:0:0:0:
264,108,124549,2,0,L|272:244,1,120,0|8,0:0|0:0,0:0:0:0:
364,280,125299,2,0,L|356:160,1,120,4|8,0:0|0:0,0:0:0:0:
436,88,126049,5,0,0:0:0:0:
452,196,126424,1,8,0:0:0:0:
460,304,126799,2,0,P|404:368|300:360,2,180,4|0|8,0:0|0:0|0:0,0:0:0:0:
452,196,128299,5,4,0:0:0:0:
360,248,128674,1,8,0:0:0:0:
296,160,129049,2,0,P|244:124|172:132,1,120,0|8,0:0|0:0,0:0:0:0:
224,228,129799,2,0,P|140:240|112:288,1,120,4|8,0:0|0:0,0:0:0:0:
208,328,130549,2,0,P|260:324|316:264,1,120,0|8,0:0|0:0,0:0:0:0:
296,160,131299,2,0,P|240:128|168:140,1,120,4|8,0:0|0:0,0:0:0:0:
128,224,132049,5,0,0:0:0:0:
52,148,132424,1,8,0:0:0:0:
112,60,132799,2,0,B|192:12|296:48,2,180,4|0|8,0:0|0:0|0:0,0:0:0:0:
52,148,134299,5,4,0:0:0:0:
16,256,134674,1,8,0:0:0:0:
92,332,135049,2,0,L|224:328,1,120,0|8,0:0|0:0,0:0:0:0:
320,324,135799,2,0,L|452:320,1,120,4|8,0:0|0:0,0:0:0:0:
464,216,136549,2,0,L|344:219,1,120,0|8,0:0|0:0,0:0:0:0:
236,224,137299,2,0,L|116:227,1,120,4|8,0:0|0:0,0:0:0:0:
76,128,138049,5,0,0:0:0:0:
136,40,138424,1,8,0:0:0:0:
240,68,138799,2,0,L|440:60,2,180,4|0|8,0:0|0:0|0:0,0:0:0:0:
192,164,140299,5,4,0:0:0:0:
240,260,140674,1,8,0:0:0:0:
168,340,141049,2,0,P|112:328|64:280,1,120,0|8,0:0|0:0,0:0:0:0:
40,180,141799,2,0,P|48:120|92:72,1,120,4|8,0:0|0:0,0:0:0:0:
188,36,142549,2,0,P|244:28|300:60,1,120,0|8,0:0|0:0,0:0:0:0:
364,144,143299,2,0,P|376:208|352:260,1,120,4|8,0:0|0:0,0:0:0:0:
292,344,144049,5,0,0:0:0:0:
252,244,144424,1,8,0:0:0:0:
184,328,144799,2,0,B|136:304|92:324|92:324|48:344|8:320,2,180,4|0|8,0:0|0:0|0:0,0:0:0:0:
292,344,146299,5,4,0:0:0:0:
252,244,146674,1,0,0:0:0:0:
164,180,147049,2,0,L|160:48,1,120,0|8,0:0|0:0,0:0:0:0:
260,20,147799,2,0,L|263:139,1,120,4|8,0:0|0:0,0:0:0:0:
364,180,148549,2,0,L|360:48,1,120,0|8,0:0|0:0,0:0:0:0:
460,16,149299,2,0,L|463:135,1,120,4|8,0:0|0:0,0:0:0:0:
472,244,150049,5,0,0:0:0:0:
424,340,150424,1,8,0:0:0:0:
316,344,150799,2,0,L|136:336,2,180,4|0|8,0:0|0:0|0:0,0:0:0:0:
328,236,152299,6,0,P|332:176|296:124,1,120,4|8,0:0|0:0,0:0:0:0:
196,96,153049,2,0,P|192:156|228:208,1,120,0|8,0:0|0:0,0:0:0:0:
256,308,153799,1,4,0:0:0:0:
256,308,154174,1,8,0:0:0:0:
156,352,154549,1,0,0:0:0:0:
156,352,154924,1,8,0:0:0:0:
56,312,155299,1,4,0:0:0:0:
56,312,155674,1,8,0:0:0:0:
84,208,156049,6,0,L|232:200,1,120,0|8,0:0|0:0,0:0:0:0:
228,96,156799,2,0,L|40:108,2,180,4|0|8,0:0|0:0|0:0,0:0:0:0:
336,88,158299,5,4,0:0:0:0:
336,88,158674,1,8,0:0:0:0:
444,96,159049,2,0,P|464:152|440:212,1,120,0|8,0:0|0:0,0:0:0:0:
376,288,159799,2,0,P|336:308|264:296,1,120,4|8,0:0|0:0,0:0:0:0:
184,224,160549,1,0,0:0:0:0:
184,224,160924,1,8,0:0:0:0:
184,116,161299,1,4,0:0:0:0:
184,116,161674,1,8,0:0:0:0:
80,88,162049,6,0,L|83:207,1,120,0|8,0:0|0:0,0:0:0:0:
92,316,162799,2,0,P|156:356|268:320,2,180,4|0|8,0:0|0:0|0:0,0:0:0:0:
83,207,164299,5,4,0:0:0:0:
184,168,164674,1,8,0:0:0:0:
268,232,165049,2,0,L|392:220,1,120,0|8,0:0|0:0,0:0:0:0:
496,208,165799,1,4,0:0:0:0:
496,208,166174,1,8,0:0:0:0:
508,100,166549,2,0,L|388:111,1,120,0|8,0:0|0:0,0:0:0:0:
280,120,167299,1,4,0:0:0:0:
280,120,167674,1,8,0:0:0:0:
172,116,168049,6,0,P|140:156|55:163,1,120,0|8,0:0|0:0,0:0:0:0:
83,70,168799,2,0,P|148:20|244:44,2,180,4|0|8,0:0|0:0|0:0,0:0:0:0:
76,168,170299,1,4,0:0:0:0:
120,268,170674,1,8,0:0:0:0:
216,320,171049,6,0,P|312:336|368:264,1,180,0|8,3:3|0:0,0:0:0:0:
348,228,171799,2,0,P|360:168|416:124,1,120,0|8,0:0|0:0,0:0:0:0:
512,144,172549,2,0,P|460:32|340:40,1,240,0|0,0:0|0:0,0:0:0:0:
264,84,173674,1,8,0:0:0:0:
156,76,174049,6,0,P|184:156|272:192,1,180,0|8,0:0|0:0,0:0:0:0:
320,200,174799,2,0,P|372:228|392:284,1,120,0|8,0:0|0:0,0:0:0:0:
288,304,175549,2,0,B|216:324|164:288|164:288|112:256|52:284,1,240,0|0,0:0|0:0,0:0:0:0:
8,184,176674,1,8,0:0:0:0:
48,84,177049,6,0,P|96:52|172:56,1,120,0|8,0:0|0:0,0:0:0:0:
252,100,177799,2,0,P|343:105|432:48,2,180,0|8|8,0:0|0:0|0:0,0:0:0:0:
184,184,179299,1,0,0:0:0:0:
184,184,179674,1,8,0:0:0:0:
120,272,180049,6,0,P|208:288|280:232,1,180,0|8,0:0|0:0,0:0:0:0:
316,200,180799,2,0,P|387:148|473:165,2,180,0|8|8,0:0|0:0|0:0,0:0:0:0:
412,252,182299,5,0,0:0:0:0:
324,316,182674,1,8,0:0:0:0:
228,268,183049,2,0,L|96:276,1,120,0|8,0:0|0:0,0:0:0:0:
60,176,183799,2,0,L|179:168,1,120,4|8,0:0|0:0,0:0:0:0:
272,116,184549,2,0,L|391:108,1,120,0|8,0:0|0:0,0:0:0:0:
344,10,185299,2,0,L|224:17,1,120,4|8,0:0|0:0,0:0:0:0:
120,40,186049,5,0,0:0:0:0:
60,132,186424,1,8,0:0:0:0:
112,228,186799,2,0,P|84:316|8:352,2,180,4|0|8,0:0|0:0|0:0,0:0:0:0:
60,132,188299,5,4,0:0:0:0:
60,132,188674,1,8,0:0:0:0:
120,40,189049,2,0,P|168:20|240:52,1,120,0|8,0:0|0:0,0:0:0:0:
308,120,189799,2,0,P|324:176|292:244,1,120,4|8,0:0|0:0,0:0:0:0:
197,264,190549,2,0,P|226:315|280:340,1,120,0|8,0:0|0:0,0:0:0:0:
388,336,191299,2,0,P|439:307|465:254,1,120,4|8,0:0|0:0,0:0:0:0:
452,148,192049,5,0,0:0:0:0:
452,148,192424,1,8,0:0:0:0:
404,52,192799,2,0,B|352:32|316:56|316:56|272:84|208:48,2,180,4|0|8,0:0|0:0|0:0,0:0:0:0:
452,148,194299,5,4,0:0:0:0:
360,204,194674,1,8,0:0:0:0:
252,204,195049,1,0,0:0:0:0:
156,256,195424,2,0,P|165:313|212:368,2,120,8|4|8,0:0|0:0|0:0,0:0:0:0:
164,148,196549,2,0,P|154:90|108:36,2,120,0|8|4,0:0|0:0|0:0,0:0:0:0:
72,204,197674,1,8,0:0:0:0:
88,312,198049,5,0,0:0:0:0:
192,288,198424,1,8,0:0:0:0:
296,320,198799,2,0,L|480:340,2,180,4|0|8,0:0|0:0|0:0,0:0:0:0:
336,220,200299,5,4,0:0:0:0:
312,116,200674,1,8,0:0:0:0:
216,68,201049,2,0,L|76:60,1,120,0|8,0:0|0:0,0:0:0:0:
68,164,201799,2,0,L|187:170,1,120,4|8,0:0|0:0,0:0:0:0:
200,280,202549,2,0,L|60:272,1,120,0|8,0:0|0:0,0:0:0:0:
52,376,203299,2,0,L|171:382,1,120,4|8,0:0|0:0,0:0:0:0:
276,352,204049,6,0,P|300:296|284:220,1,120,0|8,0:0|0:0,0:0:0:0:
268,132,204799,2,0,P|280:44|372:0,2,180,4|0|8,0:0|0:0|0:0,0:0:0:0:
184,200,206299,5,4,0:0:0:0:
184,200,206674,1,8,0:0:0:0:
112,280,207049,2,0,P|152:304|236:292,1,120,0|8,0:0|0:0,0:0:0:0:
292,216,207799,2,0,P|344:196|420:224,1,120,4|8,0:0|0:0,0:0:0:0:
472,296,208549,2,0,P|420:316|344:288,1,120,0|8,0:0|0:0,0:0:0:0:
292,216,209299,2,0,P|235:200|179:220,1,120,4|8,0:0|0:0,0:0:0:0:
116,308,210049,5,0,0:0:0:0:
8,292,210424,1,8,0:0:0:0:
28,184,210799,2,0,B|52:140|32:96|32:96|8:48|52:0,2,180,4|0|8,0:0|0:0|0:0,0:0:0:0:
8,292,212299,5,4,0:0:0:0:
116,308,212674,1,8,0:0:0:0:
212,256,213049,2,0,L|344:252,1,120,0|8,0:0|0:0,0:0:0:0:
428,300,213799,2,0,P|440:236|408:180,1,120,4|8,0:0|0:0,0:0:0:0:
348,104,214549,1,0,0:0:0:0:
348,104,214924,1,8,0:0:0:0:
248,148,215299,2,0,L|128:151,1,120,4|8,0:0|0:0,0:0:0:0:
40,92,216049,5,0,0:0:0:0:
32,200,216424,1,8,0:0:0:0:
108,276,216799,2,0,L|308:272,2,180,4|0|8,0:0|0:0|0:0,0:0:0:0:
32,200,218299,5,4,0:0:0:0:
40,92,218674,1,8,0:0:0:0:
136,40,219049,2,0,L|268:36,1,120,0|8,0:0|0:0,0:0:0:0:
208,132,219799,2,0,L|340:128,1,120,4|8,0:0|0:0,0:0:0:0:
280,224,220549,2,0,L|399:220,1,120,0|8,0:0|0:0,0:0:0:0:
352,316,221299,2,0,L|471:312,1,120,4|8,0:0|0:0,0:0:0:0:
508,212,222049,5,0,0:0:0:0:
492,104,222424,1,8,0:0:0:0:
392,68,222799,2,0,P|360:80|224:48,2,180,4|0|8,0:0|0:0|0:0,0:0:0:0:
492,104,224299,5,4,0:0:0:0:
492,104,224674,1,8,0:0:0:0:
484,212,225049,2,0,P|424:240|352:220,1,120,0|8,0:0|0:0,0:0:0:0:
276,180,225799,1,4,0:0:0:0:
276,180,226174,1,8,0:0:0:0:
192,112,226549,2,0,P|116:108|76:132,1,120,0|8,0:0|0:0,0:0:0:0:
28,224,227299,1,4,0:0:0:0:
28,224,227674,1,8,0:0:0:0:
92,312,228049,5,0,0:0:0:0:
192,272,228424,1,8,0:0:0:0:
288,320,228799,2,0,B|332:340|372:316|372:316|416:292|472:324,2,180,4|0|8,0:0|0:0|0:0,0:0:0:0:
192,272,230299,5,4,0:0:0:0:
200,164,230674,1,8,0:0:0:0:
