osu file format v13

[General]
AudioFilename: Pharrell - Happy (Despicable Me 2 - Lyric Video)-[www_flvto_com].mp3
AudioLeadIn: 0
PreviewTime: 25994
Countdown: 0
SampleSet: Soft
StackLeniency: 0.7
Mode: 0
LetterboxInBreaks: 1
WidescreenStoryboard: 1

[Editor]
DistanceSpacing: 0.9
BeatDivisor: 4
GridSize: 4
TimelineZoom: 1

[Metadata]
Title:Happy
TitleUnicode:Happy
Artist:Pharrell Williams
ArtistUnicode:Pharrell Williams
Creator:Lissette
Version:Hard
Source:Despicable Me 2
Tags:collab collaboration movie Irreversible Stefan Darksonic jonathanlfj Kenezz Dariano Vicho spboxer3 ouranhshc ykcarrot GladiOol Gladi yeahyeahyeahhh Gabe Lizbeth happy30 La Cataline Zero__wind DJPop Garven Fuuko dkun S_o_r_d_a Sorda Gero -Bakari- Frostmourne W_h_i_t_e White TicClick Xanandra Shulin Kyshiro Teara Hinsvar Sieg Natsu Kytoxid Fycho Sure
BeatmapID:427490
BeatmapSetID:163941

[Difficulty]
HPDrainRate:5
CircleSize:4
OverallDifficulty:6
ApproachRate:7
SliderMultiplier:1.4
SliderTickRate:1

[Events]
//Background and Video events
0,0,"BG.jpg",0,0
//Break Periods
2,99249,104149
//Storyboard Layer 0 (Background)
//Storyboard Layer 1 (Fail)
//Storyboard Layer 2 (Pass)
//Storyboard Layer 3 (Foreground)
//Storyboard Sound Samples

[TimingPoints]
1549,375,4,1,1,50,1,0
3424,-100,4,2,2,50,0,0
3799,-100,4,2,2,30,0,0
3892,-100,4,2,2,50,0,0
5299,-100,4,2,2,30,0,0
5392,-100,4,2,2,50,0,0
6799,-100,4,2,2,30,0,0
6892,-100,4,2,2,50,0,0
8299,-100,4,2,2,30,0,0
8392,-100,4,2,2,50,0,0
11299,-100,4,2,2,30,0,0
11392,-100,4,2,2,50,0,0
12799,-100,4,2,2,30,0,0
12892,-100,4,2,2,50,0,0
14299,-100,4,2,2,30,0,0
14392,-100,4,2,2,50,0,0
15799,-100,4,2,2,30,0,0
15892,-100,4,2,2,50,0,0
17299,-100,4,2,2,30,0,0
17392,-100,4,2,2,50,0,0
18799,-100,4,2,2,30,0,0
18892,-100,4,2,2,50,0,0
20299,-100,4,2,2,30,0,0
20392,-100,4,2,2,50,0,0
21799,-100,4,2,2,30,0,0
21892,-100,4,2,2,50,0,0
23299,-100,4,2,2,30,0,0
23392,-100,4,2,2,50,0,0
24799,-100,4,2,2,30,0,0
24892,-100,4,2,2,50,0,0
26299,-100,4,2,2,30,0,0
26392,-100,4,2,2,50,0,0
27049,-100,4,2,1,50,0,1
27142,-100,4,2,1,50,0,0
27799,-100,4,2,1,30,0,0
27892,-100,4,2,1,50,0,0
29299,-100,4,2,1,30,0,0
29392,-100,4,2,1,50,0,0
30799,-100,4,2,1,30,0,0
30892,-100,4,2,1,50,0,0
32299,-100,4,2,1,30,0,0
32392,-100,4,2,1,50,0,0
33799,-100,4,2,1,30,0,0
33892,-100,4,2,1,50,0,0
35299,-100,4,2,1,30,0,0
35392,-100,4,2,1,50,0,0
36799,-100,4,2,1,30,0,0
36892,-100,4,2,1,50,0,0
38205,-100,4,2,1,30,0,0
38392,-100,4,2,1,50,0,0
39799,-100,4,2,1,30,0,0
39892,-100,4,2,1,50,0,0
41299,-100,4,2,1,30,0,0
41392,-100,4,2,1,50,0,0
42799,-100,4,2,1,30,0,0
42892,-100,4,2,1,50,0,0
44299,-100,4,2,1,30,0,0
44392,-100,4,2,1,50,0,0
45799,-100,4,2,1,30,0,0
45892,-100,4,2,1,50,0,0
47299,-100,4,2,1,30,0,0
47392,-100,4,2,1,50,0,0
48799,-100,4,2,1,30,0,0
48892,-100,4,2,1,50,0,0
50205,-100,4,2,1,30,0,0
50392,-100,4,2,1,50,0,0
51424,-100,4,2,2,50,0,0
51799,-100,4,2,2,30,0,0
51892,-100,4,2,2,50,0,0
53299,-100,4,2,2,30,0,0
53392,-100,4,2,2,50,0,0
54799,-100,4,2,2,30,0,0
54892,-100,4,2,2,50,0,0
56299,-100,4,2,2,30,0,0
56392,-100,4,2,2,50,0,0
57799,-100,4,2,2,30,0,0
57892,-100,4,2,2,50,0,0
59299,-100,4,2,2,30,0,0
59392,-100,4,2,2,50,0,0
60799,-100,4,2,2,30,0,0
60892,-100,4,2,2,50,0,0
62299,-100,4,2,2,30,0,0
62392,-100,4,2,2,50,0,0
63799,-100,4,2,2,30,0,0
63892,-100,4,2,2,50,0,0
65299,-100,4,2,2,30,0,0
65392,-100,4,2,2,50,0,0
66799,-100,4,2,2,30,0,0
66892,-100,4,2,2,50,0,0
68299,-100,4,2,2,30,0,0
68392,-100,4,2,2,50,0,0
69799,-100,4,2,2,30,0,0
69892,-100,4,2,2,50,0,0
71299,-100,4,2,2,30,0,0
71392,-100,4,2,2,50,0,0
72799,-100,4,2,2,30,0,0
72892,-100,4,2,2,50,0,0
74299,-100,4,2,2,30,0,0
74392,-100,4,2,1,50,0,0
75049,-100,4,2,1,50,0,1
75142,-100,4,2,1,50,0,0
75799,-100,4,2,1,30,0,0
75892,-100,4,2,1,50,0,0
77299,-100,4,2,1,30,0,0
77392,-100,4,2,1,50,0,0
78799,-100,4,2,1,30,0,0
78892,-100,4,2,1,50,0,0
80299,-100,4,2,1,30,0,0
80392,-100,4,2,1,50,0,0
81799,-100,4,2,1,30,0,0
81892,-100,4,2,1,50,0,0
83299,-100,4,2,1,30,0,0
83392,-100,4,2,1,50,0,0
84799,-100,4,2,1,30,0,0
84892,-100,4,2,1,50,0,0
86205,-100,4,2,1,30,0,0
86392,-100,4,2,1,50,0,0
87799,-100,4,2,1,30,0,0
87892,-100,4,2,1,50,0,0
89299,-100,4,2,1,30,0,0
89392,-100,4,2,1,50,0,0
90799,-100,4,2,1,30,0,0
90892,-100,4,2,1,50,0,0
92299,-100,4,2,1,30,0,0
92392,-100,4,2,1,50,0,0
93799,-100,4,2,1,30,0,0
93892,-100,4,2,1,50,0,0
95299,-100,4,2,1,30,0,0
95392,-100,4,2,1,50,0,0
96799,-100,4,2,1,30,0,0
96892,-100,4,2,1,50,0,0
98111,-100,4,2,1,30,0,0
98392,-100,4,2,0,50,0,0
99049,-100,4,2,0,50,0,0
99142,-100,4,2,0,50,0,0
105049,-100,4,2,1,40,0,0
105611,-100,4,2,1,30,0,0
105705,-100,4,2,1,40,0,0
106361,-100,4,2,1,30,0,0
106455,-100,4,2,1,40,0,0
107111,-100,4,2,1,30,0,0
107205,-100,4,2,1,40,0,0
107861,-100,4,2,1,30,0,0
107955,-100,4,2,1,40,0,0
108611,-100,4,2,1,30,0,0
108705,-100,4,2,1,40,0,0
109361,-100,4,2,1,30,0,0
109455,-100,4,2,1,40,0,0
110111,-100,4,2,1,30,0,0
110205,-100,4,2,1,40,0,0
110861,-100,4,2,1,30,0,0
110955,-100,4,2,1,40,0,0
111611,-100,4,2,1,30,0,0
111705,-100,4,2,1,40,0,0
112361,-100,4,2,1,30,0,0
112455,-100,4,2,1,40,0,0
113111,-100,4,2,1,30,0,0
113205,-100,4,2,1,40,0,0
113861,-100,4,2,1,30,0,0
113955,-100,4,2,1,40,0,0
114611,-100,4,2,1,30,0,0
114705,-100,4,2,1,40,0,0
115361,-100,4,2,1,30,0,0
115455,-100,4,2,1,40,0,0
116111,-100,4,2,1,30,0,0
116205,-100,4,2,1,40,0,0
116861,-100,4,2,1,30,0,0
116955,-100,4,2,1,40,0,0
117611,-100,4,2,1,30,0,0
117705,-100,4,2,1,40,0,0
118361,-100,4,2,1,30,0,0
118455,-100,4,2,1,40,0,0
119111,-100,4,2,1,30,0,0
119205,-100,4,2,1,40,0,0
119861,-100,4,2,1,30,0,0
119955,-100,4,2,1,40,0,0
120611,-100,4,2,1,30,0,0
120705,-100,4,2,1,40,0,0
121361,-100,4,2,1,30,0,0
121455,-100,4,2,1,40,0,0
122299,-100,4,2,1,30,0,0
122486,-100,4,2,1,50,0,0
123049,-100,4,2,1,50,0,1
123142,-100,4,2,1,50,0,0
123799,-100,4,2,1,30,0,0
123892,-100,4,2,1,50,0,0
125299,-100,4,2,1,30,0,0
125392,-100,4,2,1,50,0,0
126799,-100,4,2,1,30,0,0
126892,-100,4,2,1,50,0,0
128299,-100,4,2,1,30,0,0
128392,-100,4,2,1,50,0,0
129799,-100,4,2,1,30,0,0
129892,-100,4,2,1,50,0,0
131299,-100,4,2,1,30,0,0
131392,-100,4,2,1,50,0,0
132799,-100,4,2,1,30,0,0
132892,-100,4,2,1,50,0,0
134299,-100,4,2,1,30,0,0
134392,-100,4,2,1,50,0,0
135799,-100,4,2,1,30,0,0
135892,-100,4,2,1,50,0,0
137299,-100,4,2,1,30,0,0
137392,-100,4,2,1,50,0,0
138799,-100,4,2,1,30,0,0
138892,-100,4,2,1,50,0,0
140299,-100,4,2,1,30,0,0
140392,-100,4,2,1,50,0,0
141799,-100,4,2,1,30,0,0
141892,-100,4,2,1,50,0,0
143299,-100,4,2,1,30,0,0
143392,-100,4,2,1,50,0,0
144799,-100,4,2,1,30,0,0
144892,-100,4,2,1,50,0,0
146205,-100,4,2,1,30,0,0
146392,-100,4,2,1,50,0,0
147049,-100,4,2,1,50,0,1
147142,-100,4,2,1,50,0,0
147799,-100,4,2,1,30,0,0
147892,-100,4,2,1,50,0,0
150799,-100,4,2,1,30,0,0
150892,-100,4,2,1,50,0,0
152299,-100,4,2,1,30,0,0
152392,-100,4,2,1,50,0,0
153799,-100,4,2,1,30,0,0
153892,-100,4,2,1,50,0,0
155299,-100,4,2,1,30,0,0
155392,-100,4,2,1,50,0,0
156799,-100,4,2,1,30,0,0
156892,-100,4,2,1,50,0,0
158205,-100,4,2,1,30,0,0
158392,-100,4,2,1,50,0,0
159799,-100,4,2,1,30,0,0
159892,-100,4,2,1,50,0,0
161299,-100,4,2,1,30,0,0
161392,-100,4,2,1,50,0,0
162799,-100,4,2,1,30,0,0
162892,-100,4,2,1,50,0,0
164299,-100,4,2,1,30,0,0
164392,-100,4,2,1,50,0,0
165799,-100,4,2,1,30,0,0
165892,-100,4,2,1,50,0,0
167299,-100,4,2,1,30,0,0
167392,-100,4,2,1,50,0,0
168799,-100,4,2,1,30,0,0
168892,-100,4,2,1,50,0,0
170111,-100,4,2,1,30,0,0
170392,-100,4,2,1,50,0,0
170861,-100,4,2,1,30,0,0
170955,-100,4,2,1,50,0,0
171236,-100,4,2,1,40,0,0
171611,-100,4,2,1,30,0,0
171705,-100,4,2,1,40,0,0
172361,-100,4,2,1,30,0,0
172455,-100,4,2,1,40,0,0
173111,-100,4,2,1,30,0,0
173205,-100,4,2,1,40,0,0
173861,-100,4,2,1,30,0,0
173955,-100,4,2,1,40,0,0
174611,-100,4,2,1,30,0,0
174705,-100,4,2,1,40,0,0
175361,-100,4,2,1,30,0,0
175455,-100,4,2,1,40,0,0
176111,-100,4,2,1,30,0,0
176205,-100,4,2,1,40,0,0
176861,-100,4,2,1,30,0,0
176955,-100,4,2,1,40,0,0
177611,-100,4,2,1,30,0,0
177705,-100,4,2,1,40,0,0
178361,-100,4,2,1,30,0,0
178455,-100,4,2,1,40,0,0
179111,-100,4,2,1,30,0,0
179205,-100,4,2,1,40,0,0
179861,-100,4,2,1,30,0,0
179955,-100,4,2,1,40,0,0
180611,-100,4,2,1,30,0,0
180705,-100,4,2,1,40,0,0
181361,-100,4,2,1,30,0,0
181455,-100,4,2,1,40,0,0
182111,-100,4,2,1,30,0,0
182299,-100,4,2,1,50,0,0
183049,-100,4,2,1,50,0,1
183142,-100,4,2,1,50,0,0
183799,-100,4,2,1,30,0,0
183892,-100,4,2,1,50,0,0
185299,-100,4,2,1,30,0,0
185392,-100,4,2,1,50,0,0
186799,-100,4,2,1,30,0,0
186892,-100,4,2,1,50,0,0
188299,-100,4,2,1,30,0,0
188392,-100,4,2,1,50,0,0
189799,-100,4,2,1,30,0,0
189892,-100,4,2,1,50,0,0
191299,-100,4,2,1,30,0,0
191392,-100,4,2,1,50,0,0
192799,-100,4,2,1,30,0,0
192892,-100,4,2,1,50,0,0
194205,-100,4,2,1,30,0,0
194392,-100,4,2,1,50,0,0
195799,-100,4,2,1,30,0,0
195892,-100,4,2,1,50,0,0
197299,-100,4,2,1,30,0,0
197392,-100,4,2,1,50,0,0
198799,-100,4,2,1,30,0,0
198892,-100,4,2,1,50,0,0
200299,-100,4,2,1,30,0,0
200392,-100,4,2,1,50,0,0
201799,-100,4,2,1,30,0,0
201892,-100,4,2,1,50,0,0
203299,-100,4,2,1,30,0,0
203392,-100,4,2,1,50,0,0
204799,-100,4,2,1,50,0,0
204892,-100,4,2,1,50,0,0
206205,-100,4,2,1,30,0,0
206392,-100,4,2,1,50,0,0
207049,-100,4,2,1,50,0,1
207142,-100,4,2,1,50,0,0
207799,-100,4,2,1,30,0,0
207892,-100,4,2,1,50,0,0
209299,-100,4,2,1,30,0,0
209392,-100,4,2,1,50,0,0
210799,-100,4,2,1,30,0,0
210892,-100,4,2,1,50,0,0
212299,-100,4,2,1,30,0,0
212392,-100,4,2,1,50,0,0
213799,-100,4,2,1,30,0,0
213892,-100,4,2,1,50,0,0
215299,-100,4,2,1,30,0,0
215392,-100,4,2,1,50,0,0
216799,-100,4,2,1,30,0,0
216892,-100,4,2,1,50,0,0
218205,-100,4,2,1,30,0,0
218392,-100,4,2,1,50,0,0
219799,-100,4,2,1,30,0,0
219892,-100,4,2,1,50,0,0
221299,-100,4,2,1,30,0,0
221392,-100,4,2,1,50,0,0
222799,-100,4,2,1,30,0,0
222892,-100,4,2,1,50,0,0
224299,-100,4,2,1,30,0,0
224392,-100,4,2,1,50,0,0
225799,-100,4,2,1,30,0,0
225892,-100,4,2,1,50,0,0
227299,-100,4,2,1,30,0,0
227392,-100,4,2,1,50,0,0
228799,-100,4,2,1,30,0,0
228892,-100,4,2,1,50,0,0
230111,-100,4,2,1,30,0,0
230392,-100,4,2,1,50,0,0

[Colours]
Combo1 : 223,223,0
Combo2 : 128,0,255
Combo3 : 0,128,255
Combo4 : 255,0,128
Combo5 : 0,234,0
Combo6 : 255,128,0

[HitObjects]
112,328,1549,5,0,0:0:0:0:
112,328,1924,1,0,0:0:0:0:
112,328,2299,1,0,0:0:0:0:
112,328,2674,1,0,0:0:0:0:
112,328,3049,1,0,0:0:0:0:
112,328,3424,6,0,L|204:324,1,70,0|0,1:0|0:0,0:0:0:0:
252,280,3799,2,0,L|284:204,2,70,4|0|0,0:2|0:0|1:0,0:0:0:0:
176,248,4361,1,0,0:0:0:0:
156,168,4549,1,0,0:0:0:0:
244,24,4924,2,0,P|280:12|328:32,1,70,0|0,1:0|0:0,0:0:0:0:
436,80,5299,2,0,P|400:92|352:72,1,70,4|0,0:2|0:0,0:0:0:0:
396,8,5674,1,0,1:0:0:0:
404,220,6049,5,0,0:0:0:0:
268,316,6424,1,0,1:0:0:0:
148,200,6799,2,0,P|108:144|132:56,1,140,4|0,0:2|1:0,0:0:0:0:
188,124,7361,2,0,P|228:180|204:268,1,140
144,288,7924,2,0,L|152:360,1,70,0|0,1:0|0:0,0:0:0:0:
68,340,8299,2,0,L|60:270,1,70,4|0,0:2|0:0,0:0:0:0:
24,196,8674,1,0,1:0:0:0:
52,116,8861,1,0,0:0:0:0:
16,40,9049,1,0,0:0:0:0:
204,64,9424,5,0,1:0:0:0:
204,64,9611,2,0,L|364:56,1,140
424,80,10174,2,0,P|408:124|360:128,1,70,0|0,1:0|0:0,0:0:0:0:
304,144,10549,1,0,0:0:0:0:
256,304,10924,1,0,1:0:0:0:
336,332,11111,1,0,0:0:0:0:
408,284,11299,2,0,L|500:296,2,70,4|0|0,0:2|0:0|1:0,0:0:0:0:
404,200,11861,1,0,0:0:0:0:
328,164,12049,1,0,0:0:0:0:
160,168,12424,6,0,P|124:136|132:88,1,70,0|0,1:0|0:0,0:0:0:0:
200,104,12799,2,0,P|236:160|196:232,1,140,4|0,0:2|1:0,0:0:0:0:
132,248,13361,2,0,L|148:324,2,70
72,188,13924,1,0,1:0:0:0:
64,104,14111,1,0,0:0:0:0:
108,32,14299,2,0,L|192:36,1,70,4|0,0:2|0:0,0:0:0:0:
264,120,14674,2,0,L|194:116,1,70,0|0,1:0|0:0,0:0:0:0:
304,200,15049,1,0,0:0:0:0:
376,352,15424,6,0,P|432:316|444:228,1,140,0|4,1:0|0:2,0:0:0:0:
432,164,15986,1,0,0:0:0:0:
420,80,16174,2,0,L|496:64,2,70,0|0|0,1:0|0:0|0:0,0:0:0:0:
256,40,16924,1,0,1:0:0:0:
172,32,17111,1,0,0:0:0:0:
96,68,17299,2,0,L|56:8,1,70
60,140,17674,1,8,0:0:0:0:
64,224,17861,1,0,0:0:0:0:
64,224,18049,1,0,0:0:0:0:
184,340,18424,5,0,1:0:0:0:
256,300,18611,1,0,0:0:0:0:
332,332,18799,2,0,P|412:336|464:272,1,140,4|0,0:2|1:0,0:0:0:0:
380,260,19361,2,0,L|384:120,1,140
312,72,19924,1,0,1:0:0:0:
228,88,20111,1,0,0:0:0:0:
148,64,20299,2,0,P|144:104|176:148,1,70,4|0,0:2|0:0,0:0:0:0:
228,176,20674,2,0,P|248:216|236:252,1,70,0|0,1:0|0:0,0:0:0:0:
200,312,21049,1,0,0:0:0:0:
68,208,21424,6,0,L|0:196,1,70,0|0,1:0|0:0,0:0:0:0:
40,124,21799,2,0,L|192:152,1,140,4|0,0:2|1:0,0:0:0:0:
252,112,22361,1,0,0:0:0:0:
328,76,22549,1,0,0:0:0:0:
428,212,22924,2,0,L|484:276,1,70,0|0,1:0|0:0,0:0:0:0:
356,264,23299,2,0,L|384:328,1,70,4|0,0:2|0:0,0:0:0:0:
272,284,23674,2,0,P|288:208|360:176,1,140,0|0,1:0|0:0,0:0:0:0:
432,40,24424,5,0,1:0:0:0:
352,20,24611,1,0,0:0:0:0:
272,52,24799,2,0,P|200:80|136:60,1,140,4|0,0:2|1:0,0:0:0:0:
64,36,25361,2,0,L|40:184,1,140
28,256,25924,1,0,1:0:0:0:
16,340,26111,1,0,0:0:0:0:
96,308,26299,5,4,0:2:0:0:
264,312,26674,1,0,1:0:0:0:
432,316,27049,2,0,L|488:376,1,70
452,232,27424,5,8,0:0:0:0:
432,152,27611,1,0,0:0:0:0:
356,112,27799,2,0,P|272:108|224:148,1,140,4|8,0:0|0:0,0:0:0:0:
264,304,28549,2,0,P|332:312|390:276,1,140,0|8,0:0|0:0,0:0:0:0:
352,104,29299,2,0,P|268:100|220:140,1,140,4|8,0:0|0:0,0:0:0:0:
188,208,29861,1,0,0:0:0:0:
148,280,30049,6,0,L|48:280,1,70
0,280,30424,1,8,0:0:0:0:
28,200,30611,2,0,L|8:124,1,70,0|4,0:0|0:0,0:0:0:0:
72,48,30986,2,0,L|89:115,1,70,0|8,0:0|0:0,0:0:0:0:
172,140,31361,1,0,0:0:0:0:
256,160,31549,2,0,P|324:172|388:136,1,140,0|8,0:0|0:0,0:0:0:0:
444,80,32111,1,0,0:0:0:0:
364,56,32299,5,4,0:0:0:0:
460,196,32674,1,8,0:0:0:0:
388,348,33049,2,0,L|312:348,1,70
232,348,33424,5,8,0:0:0:0:
252,268,33611,1,0,0:0:0:0:
280,188,33799,2,0,L|136:160,1,140,4|8,0:0|0:0,0:0:0:0:
192,0,34549,2,0,L|329:26,1,140,0|8,0:0|0:0,0:0:0:0:
276,200,35299,2,0,L|132:172,1,140,4|8,0:0|0:0,0:0:0:0:
56,156,35861,1,0,0:0:0:0:
76,236,36049,5,0,0:0:0:0:
204,96,36424,1,8,0:0:0:0:
284,244,36799,2,0,P|364:264|440:232,1,140,4|8,0:0|0:0,0:0:0:0:
488,188,37361,2,0,P|408:168|332:200,1,140
284,244,37924,2,0,L|216:308,1,70,8|0,0:0|0:0,0:0:0:0:
168,348,38299,5,4,0:0:0:0:
44,232,38674,1,8,0:0:0:0:
132,88,39049,2,0,P|164:88|200:68,1,70
264,20,39424,5,8,0:0:0:0:
336,60,39611,1,0,0:0:0:0:
368,140,39799,2,0,P|372:208|324:280,1,140,4|8,0:0|0:0,0:0:0:0:
172,240,40549,2,0,P|168:172|216:100,1,140,0|8,0:0|0:0,0:0:0:0:
272,196,41111,1,0,0:0:0:0:
376,144,41299,2,0,P|380:212|332:284,1,140,4|8,0:0|0:0,0:0:0:0:
345,272,41861,1,0,0:0:0:0:
272,316,42049,5,0,0:0:0:0:
112,368,42424,1,8,0:0:0:0:
72,204,42799,2,0,L|40:48,1,140,4|8,0:0|0:0,0:0:0:0:
116,24,43361,2,0,L|144:161,1,140
164,244,43924,1,8,0:0:0:0:
184,324,44111,1,0,0:0:0:0:
244,264,44299,5,4,0:0:0:0:
296,104,44674,1,8,0:0:0:0:
432,204,45049,2,0,L|432:288,1,70
364,324,45424,5,8,0:0:0:0:
324,252,45611,1,0,0:0:0:0:
352,172,45799,2,0,P|380:104|336:24,1,140,4|8,0:0|0:0,0:0:0:0:
192,36,46549,2,0,P|164:104|208:184,1,140,0|8,0:0|0:0,0:0:0:0:
360,172,47299,2,0,P|388:104|344:24,1,140,4|8,0:0|0:0,0:0:0:0:
276,108,47861,1,0,0:0:0:0:
260,212,48049,6,0,L|248:352,1,140,0|8,0:0|0:0,0:0:0:0:
164,348,48611,1,0,0:0:0:0:
80,344,48799,2,0,L|92:204,1,140,4|8,0:0|0:0,0:0:0:0:
104,120,49361,1,0,0:0:0:0:
56,48,49549,2,0,P|120:36|184:92,1,140,0|8,0:0|0:0,0:0:0:0:
177,77,50111,1,0,0:0:0:0:
224,148,50299,2,0,L|228:228,1,70,4|0,0:0|0:0,0:0:0:0:
308,244,50674,2,0,L|304:164,1,70,8|0,0:0|0:0,0:0:0:0:
380,136,51049,1,0,3:0:0:0:
416,300,51424,5,0,1:0:0:0:
344,344,51611,1,0,0:0:0:0:
264,324,51799,2,0,P|192:312|124:336,1,140,4|0,0:2|1:0,0:0:0:0:
129,332,52361,1,0,0:0:0:0:
56,368,52549,1,0,0:0:0:0:
48,200,52924,2,0,L|16:128,1,70,0|0,1:0|0:0,0:0:0:0:
128,168,53299,2,0,L|116:96,1,70,4|0,0:2|0:0,0:0:0:0:
44,52,53674,1,0,1:0:0:0:
212,32,54049,6,0,L|216:192,1,140,0|0,0:0|1:0,0:0:0:0:
280,228,54611,1,0,0:0:0:0:
348,280,54799,2,0,P|412:308|492:264,1,140,4|0,0:2|1:0,0:0:0:0:
416,224,55361,2,0,L|424:80,1,140
423,84,55924,1,0,1:0:0:0:
340,68,56111,2,0,L|260:48,1,70,0|4,0:0|0:2,0:0:0:0:
268,136,56486,2,0,L|172:128,1,70,0|0,0:0|1:0,0:0:0:0:
216,212,56861,2,0,L|132:236,1,70
80,76,57424,5,0,1:0:0:0:
68,172,57611,1,0,0:0:0:0:
156,144,57799,2,0,L|312:104,1,140,4|0,0:2|1:0,0:0:0:0:
300,24,58361,2,0,L|164:58,1,140
156,144,58924,1,0,1:0:0:0:
176,224,59111,1,0,0:0:0:0:
152,304,59299,2,0,P|208:300|240:272,1,70,4|0,0:2|0:0,0:0:0:0:
264,220,59674,1,0,1:0:0:0:
320,64,60049,5,0,0:0:0:0:
436,188,60424,2,0,L|404:260,1,70,0|0,1:0|0:0,0:0:0:0:
356,320,60799,2,0,P|296:344|220:324,1,140,4|0,0:2|1:0,0:0:0:0:
180,256,61361,2,0,P|113:238|48:263,1,140
48,263,61924,1,0,1:0:0:0:
16,188,62111,2,0,L|0:100,1,70,0|4,0:0|0:2,0:0:0:0:
88,128,62486,2,0,L|84:58,1,70,0|0,0:0|1:0,0:0:0:0:
168,88,62861,2,0,L|172:4,1,70
332,48,63424,5,0,1:0:0:0:
392,108,63611,1,0,0:0:0:0:
376,192,63799,2,0,L|376:336,1,140,4|0,0:2|1:0,0:0:0:0:
448,288,64361,2,0,P|372:256|296:296,1,140
248,316,64924,1,0,1:0:0:0:
168,288,65111,1,0,0:0:0:0:
152,204,65299,2,0,P|144:152|60:104,1,140,4|0,0:2|1:0,0:0:0:0:
75,104,65861,1,0,0:0:0:0:
72,188,66049,6,0,L|40:328,1,140,0|0,0:0|1:0,0:0:0:0:
112,372,66611,1,0,0:0:0:0:
188,336,66799,2,0,P|256:344|312:288,1,140,4|0,0:2|1:0,0:0:0:0:
356,232,67361,2,0,P|412:188|492:204,1,140
432,268,67924,2,0,P|408:304|368:312,1,70,0|0,1:0|0:0,0:0:0:0:
300,296,68299,2,0,P|272:256|280:204,1,70,4|0,0:2|0:0,0:0:0:0:
268,152,68674,1,0,1:0:0:0:
308,80,68861,1,0,0:0:0:0:
388,60,69049,1,0,0:0:0:0:
420,224,69424,5,0,1:0:0:0:
348,268,69611,1,0,0:0:0:0:
272,236,69799,2,0,L|124:220,1,140,4|0,0:2|1:0,0:0:0:0:
128,136,70361,2,0,L|276:152,1,140
267,151,70924,1,0,1:0:0:0:
400,48,71299,1,4,0:2:0:0:
460,108,71486,1,0,0:0:0:0:
420,180,71674,1,0,1:0:0:0:
468,248,71861,1,0,0:0:0:0:
420,320,72049,6,0,L|256:324,1,140,0|0,0:0|1:0,0:0:0:0:
276,240,72611,2,0,L|188:244,1,70,0|4,0:0|0:2,0:0:0:0:
156,312,72986,1,0,0:0:0:0:
72,296,73174,1,0,1:0:0:0:
44,216,73361,1,0,0:0:0:0:
80,140,73549,2,0,P|96:64|52:0,1,140,0|0,0:0|1:0,0:0:0:0:
67,12,74111,1,0,0:0:0:0:
12,80,74299,5,4,0:2:0:0:
180,72,74674,1,0,1:0:0:0:
348,56,75049,2,0,L|368:148,1,70
428,180,75424,6,0,L|520:184,1,70,8|0,0:0|0:0,0:0:0:0:
388,260,75799,2,8,L|220:272,1,140,4|8,0:0|0:0,0:0:0:0:
156,132,76549,2,0,L|324:120,1,140,0|8,0:0|0:0,0:0:0:0:
336,196,77111,1,0,0:0:0:0:
392,268,77299,2,0,L|224:280,1,140,4|8,0:0|0:0,0:0:0:0:
184,328,77861,1,0,0:0:0:0:
160,248,78049,6,0,P|92:224|16:256,1,140,0|8,0:0|0:0,0:0:0:0:
184,328,78799,2,0,P|248:351|314:331,1,140,4|8,0:0|0:0,0:0:0:0:
360,260,79361,1,0,0:0:0:0:
368,176,79549,2,0,L|508:176,1,140,0|8,0:0|0:0,0:0:0:0:
508,176,80111,1,0,0:0:0:0:
508,92,80299,5,4,0:0:0:0:
356,20,80674,1,8,0:0:0:0:
240,144,81049,2,0,P|224:188|184:200,1,70
164,124,81424,5,8,0:0:0:0:
96,172,81611,1,0,0:0:0:0:
92,256,81799,2,0,P|116:320|200:344,1,140,4|8,0:0|0:0,0:0:0:0:
328,236,82549,2,0,P|304:172|220:148,1,140,0|8,0:0|0:0,0:0:0:0:
244,228,83111,1,0,0:0:0:0:
280,304,83299,2,0,P|348:320|408:264,1,140,4|8,0:0|0:0,0:0:0:0:
400,280,83861,1,0,0:0:0:0:
420,200,84049,6,0,L|492:192,1,70
408,120,84424,2,0,L|480:112,1,70,8|0,0:0|0:0,0:0:0:0:
396,40,84799,2,0,P|344:72|336:152,1,140,4|8,0:0|0:0,0:0:0:0:
344,228,85361,2,0,P|340:304|272:348,1,140
220,304,85924,2,0,L|141:305,1,70,8|0,0:0|0:0,0:0:0:0:
72,336,86299,5,4,0:0:0:0:
4,184,86674,1,8,0:0:0:0:
100,48,87049,2,0,L|180:44,1,70
256,40,87424,5,8,0:0:0:0:
248,124,87611,1,0,0:0:0:0:
240,208,87799,2,0,P|312:212|368:160,1,140,4|8,0:0|0:0,0:0:0:0:
248,124,88549,2,0,P|176:120|120:172,1,140,0|8,0:0|0:0,0:0:0:0:
164,236,89111,1,0,0:0:0:0:
208,308,89299,2,0,P|153:350|85:344,1,140,4|8,0:0|0:0,0:0:0:0:
85,344,89861,1,0,0:0:0:0:
76,260,90049,6,0,L|16:196,1,70
96,160,90424,2,0,L|72:84,1,70,8|0,0:0|0:0,0:0:0:0:
52,12,90799,2,0,P|112:20|160:84,1,140,4|8,0:0|0:0,0:0:0:0:
228,244,91549,2,0,P|267:299|335:311,1,140,0|8,0:0|0:0,0:0:0:0:
335,311,92111,1,0,0:0:0:0:
396,256,92299,5,4,0:0:0:0:
408,88,92674,1,8,0:0:0:0:
244,60,93049,2,0,L|180:16,1,70
104,32,93424,5,8,0:0:0:0:
52,96,93611,1,0,0:0:0:0:
72,176,93799,2,0,P|132:204|216:184,1,140,4|8,0:0|0:0,0:0:0:0:
284,168,94361,1,0,0:0:0:0:
364,140,94549,2,0,P|432:144|492:212,1,140,0|8,0:0|0:0,0:0:0:0:
420,344,95299,2,0,P|352:340|292:272,1,140,4|8,0:0|0:0,0:0:0:0:
300,293,95861,1,0,0:0:0:0:
292,208,96049,5,0,0:0:0:0:
212,60,96424,2,0,L|132:60,1,70,8|0,0:0|0:0,0:0:0:0:
56,60,96799,2,0,P|36:126|61:190,1,140,4|8,0:0|0:0,0:0:0:0:
144,172,97361,2,0,P|168:236|149:302,1,140
149,302,97924,5,8,0:0:0:0:
149,302,98111,1,8,0:0:0:0:
228,328,98299,1,4,0:0:0:0:
228,328,98486,1,0,0:0:0:0:
308,308,98674,1,8,0:0:0:0:
308,308,98861,1,0,0:0:0:0:
392,324,99049,1,0,3:3:0:0:
280,280,105049,6,0,P|208:300|144:240,1,140,0|8,0:0|0:0,0:0:0:0:
156,266,105611,1,8,0:0:0:0:
128,188,105799,2,0,L|48:188,1,70
92,112,106174,2,0,L|20:100,1,70,8|8,0:0|0:0,0:0:0:0:
72,32,106549,2,0,L|212:32,1,140,0|8,0:0|0:0,0:0:0:0:
296,32,107111,1,8,0:0:0:0:
248,100,107299,5,0,0:0:0:0:
288,176,107486,2,0,L|368:176,2,70,0|8|8,0:0|0:0|0:0,0:0:0:0:
240,244,108049,1,0,0:0:0:0:
268,324,108236,1,0,0:0:0:0:
184,316,108424,1,8,0:0:0:0:
156,236,108611,1,8,0:0:0:0:
120,160,108799,6,0,L|48:152,2,70,0|0|8,0:0|0:0|0:0,0:0:0:0:
164,88,109361,1,8,0:0:0:0:
164,88,109549,1,0,0:0:0:0:
244,68,109736,1,0,0:0:0:0:
244,68,109924,1,8,0:0:0:0:
324,88,110111,1,8,0:0:0:0:
324,88,110299,2,0,L|316:184,1,70
392,240,110674,2,0,L|397:170,1,70,8|8,0:0|0:0,0:0:0:0:
464,300,111049,6,0,P|424:328|336:312,1,140,0|8,0:0|0:0,0:0:0:0:
296,240,111611,1,8,0:0:0:0:
260,164,111799,2,0,P|196:136|120:160,1,140,0|8,0:0|0:0,0:0:0:0:
76,216,112361,1,8,0:0:0:0:
112,292,112549,2,0,P|176:320|252:296,1,140,0|8,0:0|0:0,0:0:0:0:
296,240,113111,1,8,0:0:0:0:
348,172,113299,2,0,P|400:140|488:152,1,140,0|8,0:0|0:0,0:0:0:0:
476,145,113861,1,8,0:0:0:0:
424,216,114049,6,0,P|372:248|284:236,1,140,0|8,0:0|0:0,0:0:0:0:
248,176,114611,1,8,0:0:0:0:
268,96,114799,2,0,P|320:64|408:76,1,140,0|8,0:0|0:0,0:0:0:0:
344,152,115361,1,8,0:0:0:0:
248,176,115549,2,0,P|196:208|108:196,1,140,0|8,0:0|0:0,0:0:0:0:
119,202,116111,1,8,0:0:0:0:
168,144,116299,2,0,P|192:216|140:276,1,140,0|8,0:0|0:0,0:0:0:0:
159,265,116861,1,8,0:0:0:0:
124,344,117049,1,0,0:0:0:0:
76,276,117236,6,0,L|-4:280,2,70,0|8|8,0:0|0:0|0:0,0:0:0:0:
80,192,117799,1,0,0:0:0:0:
116,116,117986,2,0,L|56:56,2,70,0|8|8,0:0|0:0|0:0,0:0:0:0:
196,84,118549,1,0,0:0:0:0:
280,72,118736,2,0,L|276:-8,2,70,0|8|8,0:0|0:0|0:0,0:0:0:0:
356,108,119299,1,0,0:0:0:0:
400,180,119486,2,0,L|500:160,2,70,0|8|8,0:0|0:0|0:0,0:0:0:0:
400,264,120049,6,0,P|332:296|268:284,1,140,0|8,0:0|0:0,0:0:0:0:
236,208,120611,1,8,0:0:0:0:
208,128,120799,2,0,P|132:120|60:164,1,140,0|8,0:0|0:0,0:0:0:0:
24,212,121361,2,0,P|100:220|172:176,1,140,8|0,0:0|0:0,0:0:0:0:
208,128,121924,1,8,0:0:0:0:
240,292,122299,5,0,0:0:0:0:
404,324,122674,1,8,0:0:0:0:
456,164,123049,2,0,L|436:88,1,70
412,16,123424,5,8,0:0:0:0:
332,44,123611,1,0,0:0:0:0:
248,28,123799,2,0,L|232:180,1,140,4|8,0:0|0:0,0:0:0:0:
64,172,124549,2,0,L|80:20,1,140,0|8,0:0|0:0,0:0:0:0:
256,28,125299,2,0,L|240:180,1,140,4|8,0:0|0:0,0:0:0:0:
232,252,125861,1,0,0:0:0:0:
224,336,126049,6,0,P|288:356|360:316,1,140,0|8,0:0|0:0,0:0:0:0:
232,252,126799,2,0,P|168:232|96:272,1,140,4|8,0:0|0:0,0:0:0:0:
224,336,127549,2,0,P|284:320|316:248,1,140,0|8,0:0|0:0,0:0:0:0:
280,176,128111,1,0,0:0:0:0:
300,96,128299,5,4,0:0:0:0:
468,76,128674,1,8,0:0:0:0:
300,96,129049,2,0,L|208:76,1,70
148,68,129424,5,8,0:0:0:0:
76,112,129611,1,0,0:0:0:0:
56,192,129799,2,0,P|48:264|84:320,1,140,4|8,0:0|0:0,0:0:0:0:
248,288,130549,2,0,P|256:216|220:160,1,140,0|8,0:0|0:0,0:0:0:0:
48,192,131299,2,0,P|40:264|76:320,1,140,4|8,0:0|0:0,0:0:0:0:
74,318,131861,1,0,0:0:0:0:
148,240,132049,5,0,0:0:0:0:
348,332,132424,1,8,0:0:0:0:
496,204,132799,2,0,L|464:52,1,140,4|8,0:0|0:0,0:0:0:0:
384,52,133361,2,0,L|412:188,1,140
344,236,133924,2,0,L|330:167,1,70,8|0,0:0|0:0,0:0:0:0:
324,316,134299,5,4,0:0:0:0:
160,356,134674,1,8,0:0:0:0:
36,244,135049,2,0,L|24:152,1,70
16,92,135424,5,8,0:0:0:0:
100,76,135611,1,0,0:0:0:0:
184,60,135799,2,0,P|256:80|280:156,1,140,4|8,0:0|0:0,0:0:0:0:
340,292,136549,2,0,P|268:272|244:196,1,140,0|8,0:0|0:0,0:0:0:0:
328,208,137111,1,0,0:0:0:0:
408,236,137299,2,0,P|428:300|388:364,1,140,4|8,0:0|0:0,0:0:0:0:
393,360,137861,1,0,0:0:0:0:
260,336,138049,6,0,L|176:348,1,70
208,264,138424,2,0,L|124:276,1,70,8|0,0:0|0:0,0:0:0:0:
56,284,138799,2,0,P|32:224|52:148,1,140,4|8,0:0|0:0,0:0:0:0:
92,80,139361,1,0,0:0:0:0:
172,108,139549,2,0,L|332:88,1,140,0|8,0:0|0:0,0:0:0:0:
310,90,140111,1,0,0:0:0:0:
308,176,140299,5,4,0:0:0:0:
296,344,140674,1,8,0:0:0:0:
308,176,141049,2,0,L|400:188,1,70
460,192,141424,5,8,0:0:0:0:
440,112,141611,1,0,0:0:0:0:
356,100,141799,2,0,L|204:80,1,140,4|8,0:0|0:0,0:0:0:0:
136,108,142361,1,0,0:0:0:0:
76,52,142549,2,0,P|56:112|92:176,1,140,0|8,0:0|0:0,0:0:0:0:
91,175,143111,1,0,0:0:0:0:
152,232,143299,2,0,P|172:172|136:108,1,140,4|8,0:0|0:0,0:0:0:0:
136,108,143861,1,0,0:0:0:0:
76,52,144049,6,0,P|108:28|156:28,1,70
212,64,144424,2,0,P|248:76|288:52,1,70,8|0,0:0|0:0,0:0:0:0:
348,20,144799,2,0,P|416:16|468:68,1,140,4|8,0:0|0:0,0:0:0:0:
465,62,145361,1,0,0:0:0:0:
500,140,145549,2,0,P|432:144|380:92,1,140,0|8,0:0|0:0,0:0:0:0:
382,97,146111,1,0,0:0:0:0:
300,112,146299,5,4,0:0:0:0:
200,308,146674,1,0,0:0:0:0:
300,112,147049,2,0,L|228:80,1,70
160,52,147424,5,8,0:0:0:0:
84,20,147611,1,0,0:0:0:0:
80,104,147799,2,0,P|88:172|48:240,1,140,4|8,0:0|0:0,0:0:0:0:
55,233,148361,2,0,L|136:256,1,70
180,312,148736,2,0,L|260:280,1,70,0|8,0:0|0:0,0:0:0:0:
324,256,149111,2,0,P|384:296|480:300,1,140
468,224,149674,1,8,0:0:0:0:
432,148,149861,1,0,0:0:0:0:
448,64,150049,6,0,L|296:56,1,140,0|8,0:0|0:0,0:0:0:0:
156,128,150799,2,0,L|308:136,1,140,4|8,0:0|0:0,0:0:0:0:
380,140,151361,1,0,0:0:0:0:
464,144,151549,2,0,L|460:304,1,140,0|8,0:0|0:0,0:0:0:0:
460,283,152111,1,0,0:0:0:0:
460,368,152299,5,4,0:0:0:0:
256,192,152674,1,8,0:0:0:0:
52,368,153049,2,0,L|76:284,1,70
96,220,153424,5,8,0:0:0:0:
68,140,153611,1,0,0:0:0:0:
84,56,153799,2,0,P|140:84|148:168,1,140,4|8,0:0|0:0,0:0:0:0:
166,318,154549,2,0,P|110:290|102:206,1,140,0|8,0:0|0:0,0:0:0:0:
153,155,155111,1,0,0:0:0:0:
228,120,155299,2,0,L|232:40,1,70,4|0,0:0|0:0,0:0:0:0:
308,112,155674,2,0,L|312:32,1,70,8|0,0:0|0:0,0:0:0:0:
384,144,156049,5,0,0:0:0:0:
376,228,156236,1,0,0:0:0:0:
368,312,156424,2,0,P|436:320|499:292,2,140,8|4|8,0:0|0:0|0:0,0:0:0:0:
376,228,157361,1,0,0:0:0:0:
384,144,157549,2,0,P|315:135|252:163,1,140,0|8,0:0|0:0,0:0:0:0:
252,163,158111,1,0,0:0:0:0:
232,244,158299,5,4,0:0:0:0:
16,308,158674,1,8,0:0:0:0:
32,104,159049,1,0,0:0:0:0:
32,104,159236,1,0,0:0:0:0:
108,68,159424,5,8,0:0:0:0:
188,96,159611,1,0,0:0:0:0:
260,52,159799,2,0,L|400:40,1,140,4|8,0:0|0:0,0:0:0:0:
480,188,160549,2,0,L|340:200,1,140,0|8,0:0|0:0,0:0:0:0:
288,360,161299,2,0,L|428:348,1,140,4|8,0:0|0:0,0:0:0:0:
427,348,161861,1,0,0:0:0:0:
504,340,162049,5,0,0:0:0:0:
344,140,162424,1,8,0:0:0:0:
152,300,162799,2,0,P|104:260|96:164,1,140,4|8,0:0|0:0,0:0:0:0:
108,72,163361,2,0,P|159:117|170:185,1,140
170,185,163924,2,0,L|252:192,1,70,8|0,0:0|0:0,0:0:0:0:
324,200,164299,5,4,0:0:0:0:
20,164,164674,1,8,0:0:0:0:
324,200,165049,1,0,0:0:0:0:
324,200,165236,1,0,0:0:0:0:
408,208,165424,5,8,0:0:0:0:
468,148,165611,1,0,0:0:0:0:
448,68,165799,2,0,P|392:52|296:76,1,140,4|8,0:0|0:0,0:0:0:0:
108,92,166549,2,0,P|170:120|239:112,1,140,0|8,0:0|0:0,0:0:0:0:
456,64,167299,2,0,P|400:48|304:72,1,140,4|8,0:0|0:0,0:0:0:0:
320,62,167861,1,0,0:0:0:0:
336,144,168049,5,0,0:0:0:0:
180,352,168424,1,8,0:0:0:0:
100,332,168611,1,0,0:0:0:0:
24,368,168799,2,0,P|20:308|88:248,1,140,4|8,0:0|0:0,0:0:0:0:
148,220,169361,2,0,P|196:172|195:104,1,140
116,136,169924,5,8,0:0:0:0:
116,136,170111,1,8,0:0:0:0:
132,52,170299,1,4,0:0:0:0:
132,52,170486,1,0,0:0:0:0:
208,20,170674,1,8,0:0:0:0:
208,20,170861,1,8,0:0:0:0:
288,48,171049,1,0,3:3:0:0:
344,112,171236,6,0,L|404:68,2,70,0|8|8,0:0|0:0|0:0,0:0:0:0:
276,168,171799,1,0,0:0:0:0:
284,252,171986,2,0,L|296:328,2,70,0|8|8,0:0|0:0|0:0,0:0:0:0:
196,144,172549,2,0,L|24:160,1,140,0|8,0:0|0:0,0:0:0:0:
56,156,173111,1,8,0:0:0:0:
24,80,173299,5,0,0:0:0:0:
20,332,173674,1,8,0:0:0:0:
96,364,173861,1,8,0:0:0:0:
172,324,174049,2,0,L|164:244,2,70,0|0|8,0:0|0:0|0:0,0:0:0:0:
252,348,174611,1,8,0:0:0:0:
332,324,174799,2,0,L|432:324,1,70,0|0,0:0|0:0,0:0:0:0:
348,240,175174,2,0,L|448:240,1,70,8|8,0:0|0:0,0:0:0:0:
504,236,175549,2,0,P|512:164|464:92,1,140,0|8,0:0|0:0,0:0:0:0:
416,52,176111,5,8,0:0:0:0:
336,28,176299,1,0,0:0:0:0:
256,56,176486,1,0,0:0:0:0:
216,132,176674,1,8,0:0:0:0:
224,216,176861,1,8,0:0:0:0:
280,280,177049,2,0,P|200:300|156:268,1,140,0|8,0:0|0:0,0:0:0:0:
140,188,177611,6,0,L|60:164,2,70,8|0|0,0:0|0:0|0:0,0:0:0:0:
216,132,178174,1,8,0:0:0:0:
284,76,178361,2,0,L|351:96,2,70,8|0|0,0:0|0:0|0:0,0:0:0:0:
204,48,178924,2,0,L|124:24,1,70,8|8,0:0|0:0,0:0:0:0:
60,64,179299,5,0,0:0:0:0:
40,256,179674,2,0,L|24:336,2,70,8|8|0,0:0|0:0|0:0,0:0:0:0:
124,240,180236,1,0,0:0:0:0:
208,224,180424,2,0,L|221:155,2,70,8|8|0,0:0|0:0|0:0,0:0:0:0:
276,272,180986,1,0,0:0:0:0:
360,284,181174,1,8,0:0:0:0:
440,256,181361,2,0,P|456:188|440:108,1,140,8|0,0:0|0:0,0:0:0:0:
444,119,181924,2,0,L|360:116,1,70,8|8,0:0|0:0,0:0:0:0:
220,28,182299,5,0,0:0:0:0:
36,128,182674,1,8,0:0:0:0:
120,292,183049,1,0,0:0:0:0:
120,292,183236,1,0,0:0:0:0:
196,324,183424,6,0,P|264:352|340:332,1,140,8|4,0:0|0:0,0:0:0:0:
344,172,184174,2,0,P|276:144|200:164,1,140,8|0,0:0|0:0,0:0:0:0:
196,332,184924,2,0,P|264:360|340:340,2,140,8|4|8,0:0|0:0|0:0,0:0:0:0:
156,260,185861,1,0,0:0:0:0:
76,240,186049,5,0,0:0:0:0:
108,76,186424,1,8,0:0:0:0:
272,44,186799,1,4,0:0:0:0:
392,160,187174,1,8,0:0:0:0:
392,160,187361,2,0,L|376:308,1,140
296,316,187924,2,0,L|304:228,1,70,8|0,0:0|0:0,0:0:0:0:
308,164,188299,5,4,0:0:0:0:
180,12,188674,1,8,0:0:0:0:
16,128,189049,2,0,L|24:200,1,70,0|0,0:0|0:0,0:0:0:0:
32,280,189424,5,8,0:0:0:0:
116,264,189611,1,0,0:0:0:0:
192,300,189799,2,4,P|248:320|328:292,1,140,4|8,0:0|0:0,0:0:0:0:
468,208,190549,2,0,P|412:188|332:216,1,140,0|8,0:0|0:0,0:0:0:0:
192,308,191299,2,0,P|248:328|328:300,1,140,4|8,0:0|0:0,0:0:0:0:
337,211,191861,1,0,0:0:0:0:
308,120,192049,6,0,L|300:48,1,70
224,152,192424,2,0,L|232:224,1,70,8|0,0:0|0:0,0:0:0:0:
144,124,192799,2,0,P|72:112|12:152,1,140,4|8,0:0|0:0,0:0:0:0:
32,228,193361,2,0,P|104:240|164:200,1,140
224,152,193924,1,8,0:0:0:0:
208,72,194111,1,0,0:0:0:0:
128,48,194299,5,4,0:0:0:0:
332,28,194674,1,8,0:0:0:0:
352,224,195049,1,0,0:0:0:0:
352,224,195236,1,0,0:0:0:0:
360,308,195424,6,0,L|452:292,2,70,8|0|4,0:0|0:0|0:0,0:0:0:0:
220,212,196174,2,0,L|128:228,2,70,8|0|0,0:0|0:0|0:0,0:0:0:0:
308,68,196924,2,0,L|400:52,1,70,8|0,0:0|0:0,0:0:0:0:
224,44,197299,2,0,P|224:96|288:152,1,140,4|8,0:0|0:0,0:0:0:0:
368,164,197861,1,0,0:0:0:0:
452,156,198049,6,0,L|468:296,1,140,0|8,0:0|0:0,0:0:0:0:
288,336,198799,2,0,L|272:196,1,140,4|8,0:0|0:0,0:0:0:0:
72,188,199549,1,0,0:0:0:0:
84,272,199736,2,0,L|96:356,2,70,0|8|0,0:0|0:0|0:0,0:0:0:0:
152,220,200299,5,4,0:0:0:0:
272,68,200674,1,8,0:0:0:0:
448,136,201049,2,0,L|472:216,1,70
496,284,201424,5,8,0:0:0:0:
428,336,201611,1,0,0:0:0:0:
348,316,201799,1,4,0:0:0:0:
184,284,202174,1,8,0:0:0:0:
100,276,202361,1,0,0:0:0:0:
24,316,202549,2,0,P|24:232|80:192,1,140,0|8,0:0|0:0,0:0:0:0:
144,172,203111,1,0,0:0:0:0:
220,136,203299,2,0,P|265:85|258:17,1,140,4|8,0:0|0:0,0:0:0:0:
258,17,203861,1,0,0:0:0:0:
184,60,204049,5,0,0:0:0:0:
208,256,204424,1,8,0:0:0:0:
208,256,204611,1,0,0:0:0:0:
208,256,204799,2,0,P|272:296|344:264,1,140,4|8,0:0|0:0,0:0:0:0:
400,236,205361,2,0,P|336:196|264:228,1,140
278,213,205924,2,0,L|264:136,1,70,8|0,0:0|0:0,0:0:0:0:
252,60,206299,5,4,0:0:0:0:
60,32,206674,1,8,0:0:0:0:
40,208,207049,1,0,0:0:0:0:
40,208,207236,1,0,0:0:0:0:
104,264,207424,6,0,P|144:256|180:216,1,70,8|0,0:0|0:0,0:0:0:0:
196,160,207799,2,0,P|244:112|336:112,1,140,4|8,0:0|0:0,0:0:0:0:
480,124,208549,2,0,P|432:172|340:172,1,140,0|8,0:0|0:0,0:0:0:0:
192,152,209299,2,0,P|240:104|332:104,1,140,4|8,0:0|0:0,0:0:0:0:
280,176,209861,1,0,0:0:0:0:
220,232,210049,5,0,0:0:0:0:
100,348,210424,1,8,0:0:0:0:
8,208,210799,2,0,L|24:64,1,140,4|8,0:0|0:0,0:0:0:0:
104,48,211361,2,0,L|88:187,1,140
164,220,211924,1,8,0:0:0:0:
332,344,212299,5,4,0:0:0:0:
456,200,212674,1,8,0:0:0:0:
288,72,213049,1,0,0:0:0:0:
288,72,213236,1,0,0:0:0:0:
204,72,213424,6,0,L|120:88,1,70,8|0,0:0|0:0,0:0:0:0:
216,152,213799,2,0,L|360:168,1,140,4|8,0:0|0:0,0:0:0:0:
212,260,214549,2,0,L|68:268,1,140,0|8,0:0|0:0,0:0:0:0:
208,364,215299,2,0,L|376:348,1,140,4|8,0:0|0:0,0:0:0:0:
347,350,215861,1,0,0:0:0:0:
428,320,216049,6,0,P|460:292|464:256,1,70
384,248,216424,2,0,P|384:208|364:176,1,70,8|0,0:0|0:0,0:0:0:0:
300,228,216799,2,0,P|260:172|188:160,1,140,4|8,0:0|0:0,0:0:0:0:
144,224,217361,2,0,P|184:280|256:292,1,140
250,293,217924,2,0,L|260:368,1,70,8|0,0:0|0:0,0:0:0:0:
344,352,218299,5,4,0:0:0:0:
472,196,218674,1,8,0:0:0:0:
340,24,219049,1,0,0:0:0:0:
340,24,219236,1,0,0:0:0:0:
264,64,219424,5,8,0:0:0:0:
184,92,219611,1,0,0:0:0:0:
104,116,219799,1,4,0:0:0:0:
112,284,220174,1,8,0:0:0:0:
192,260,220361,1,0,0:0:0:0:
272,232,220549,1,0,0:0:0:0:
264,64,220924,1,8,0:0:0:0:
184,92,221111,1,0,0:0:0:0:
104,116,221299,2,0,P|160:172|240:148,1,140,4|8,0:0|0:0,0:0:0:0:
215,166,221861,1,0,0:0:0:0:
296,144,222049,5,0,0:0:0:0:
456,196,222424,1,8,0:0:0:0:
396,352,222799,2,0,P|320:372|248:348,1,140,4|8,0:0|0:0,0:0:0:0:
192,312,223361,2,0,P|124:296|58:316,1,140
58,316,223924,1,8,0:0:0:0:
16,120,224299,5,4,0:0:0:0:
188,48,224674,1,8,0:0:0:0:
348,124,225049,2,0,L|424:112,1,70
464,184,225424,5,8,0:0:0:0:
452,268,225611,1,0,0:0:0:0:
376,308,225799,2,0,P|312:304|244:344,1,140,4|8,0:0|0:0,0:0:0:0:
164,360,226361,1,0,0:0:0:0:
80,348,226549,2,0,P|40:308|32:216,1,140,0|8,0:0|0:0,0:0:0:0:
68,52,227299,2,0,P|113:103|119:172,1,140,4|8,0:0|0:0,0:0:0:0:
119,172,227861,1,0,0:0:0:0:
128,256,228049,5,0,0:0:0:0:
308,352,228424,1,8,0:0:0:0:
392,348,228611,1,0,0:0:0:0:
436,276,228799,2,0,L|440:120,1,140,4|8,0:0|0:0,0:0:0:0:
360,104,229361,2,0,L|356:243,1,140
276,268,229924,5,8,0:0:0:0:
276,268,230111,1,8,0:0:0:0:
196,248,230299,1,4,0:0:0:0:
196,248,230486,1,0,0:0:0:0:
116,272,230674,1,8,0:0:0:0:
