osu file format v13

[General]
AudioFilename: Pharell Williams - Happy [mp3clan.com].mp3
AudioLeadIn: 2000
PreviewTime: 24770
Countdown: 0
SampleSet: Soft
StackLeniency: 0.7
Mode: 0
LetterboxInBreaks: 1
WidescreenStoryboard: 0

[Editor]
DistanceSpacing: 1
BeatDivisor: 2
GridSize: 4
TimelineZoom: 1.1

[Metadata]
Title:Happy
TitleUnicode:Happy
Artist:Pharrell Williams
ArtistUnicode:Pharrell Williams
Creator:CDFA
Version:Normal
Source:Despicable Me 2
Tags:neo soul funk girl
BeatmapID:541450
BeatmapSetID:170540

[Difficulty]
HPDrainRate:5
CircleSize:3.3
OverallDifficulty:5
ApproachRate:5
SliderMultiplier:1.5
SliderTickRate:1

[Events]
//Background and Video events
0,0,"1366x768_hatsune_miku-1440689.jpg",0,0
//Break Periods
2,49907,60507
2,97907,108507
//Storyboard Layer 0 (Background)
//Storyboard Layer 1 (Fail)
//Storyboard Layer 2 (Pass)
//Storyboard Layer 3 (Foreground)
//Storyboard Sound Samples
//Background Colour Transformations
3,100,163,162,255

[TimingPoints]
207,375,4,2,0,26,1,0
1707,375,4,2,0,26,1,0
25707,-100,4,2,0,33,0,1
49707,-100,4,2,0,33,0,0
73707,-100,4,2,0,33,0,1
97707,-100,4,2,0,33,0,0
121707,-100,4,2,0,33,0,1
145707,-100,4,2,0,33,0,0

[Colours]
Combo1 : 164,154,142
Combo2 : 88,126,106
Combo3 : 171,184,190
Combo4 : 129,209,181

[HitObjects]
204,40,207,6,0,L|44:56,1,150,0|0,3:0|3:0,0:0:0:0:
184,128,957,2,0,L|333:113,2,150,0|0|0,3:0|3:0|3:0,0:0:0:0:
300,32,2082,1,0,1:0:0:0:
452,32,2457,6,0,P|456:112|504:192,1,150,0|0,0:0|1:0,0:0:0:0:
468,248,3019,2,0,P|388:256|340:312,1,150,2|0,0:0|0:0,0:0:0:0:
304,368,3582,2,0,B|260:368|260:368|204:312|204:312|148:312,2,150,0|0|0,1:0|0:0|1:0,0:0:0:0:
320,220,4707,6,0,P|268:148|204:132,1,150,0|0,0:0|1:0,0:0:0:0:
60,132,5457,2,0,P|44:52|92:0,1,150,2|0,3:0|1:0,0:0:0:0:
152,36,6019,2,0,P|240:48|304:16,1,150,2|0,0:0|0:0,0:0:0:0:
368,8,6582,2,0,B|380:48|380:48|440:76|440:76|452:124,2,150,0|2|0,1:0|0:0|1:0,0:0:0:0:
328,152,7707,6,0,P|304:228|224:256,1,150,0|0,0:0|1:0,0:0:0:0:
168,252,8269,2,0,P|80:256|4:324,2,150,0|2|0,0:0|0:0|0:0,0:0:0:0:
380,332,9582,1,0,1:0:0:0:
404,260,9769,1,0,0:0:0:0:
396,184,9957,2,0,L|416:112,1,75,2|0,0:3|0:0,0:0:0:0:
476,64,10332,2,0,P|412:108|332:88,1,150,0|0,1:0|0:0,0:0:0:0:
200,60,11082,5,0,1:0:0:0:
164,204,11457,2,0,P|108:264|32:264,1,150,2|0,0:0|1:0,0:0:0:0:
20,196,12019,2,0,L|36:360,1,150,2|0,0:0|0:0,0:0:0:0:
104,372,12582,2,0,B|152:376|152:376|212:348|212:348|264:352,2,150,0|2|0,1:0|0:0|1:0,0:0:0:0:
136,224,13707,5,4,3:0:0:0:
220,100,14082,1,0,1:0:0:0:
316,216,14457,2,0,P|392:288|452:276,1,150,2|0,3:0|0:0,0:0:0:0:
496,324,15019,2,0,P|432:264|460:128,1,225,2|0,0:0|1:0,0:0:0:0:
348,28,15957,1,2,0:0:0:0:
208,80,16332,2,0,P|144:116|60:104,1,150,0|2,1:0|0:0,0:0:0:0:
32,256,17082,5,0,1:0:0:0:
156,336,17457,2,0,P|248:340|300:304,1,150,2|0,3:0|1:0,0:0:0:0:
316,236,18019,2,0,P|392:216|472:228,1,150,2|0,0:0|0:0,0:0:0:0:
472,300,18582,2,0,L|512:124,2,150,0|2|0,1:0|0:0|1:0,0:0:0:0:
332,356,19707,6,0,P|252:328|224:244,1,150,0|0,0:0|1:0,0:0:0:0:
192,128,20457,2,0,P|264:132|340:80,1,150,2|0,0:0|1:0,0:0:0:0:
300,24,21019,2,0,L|384:176,1,150
396,228,21582,2,0,P|388:304|316:356,2,150,0|2|0,1:0|0:0|1:0,0:0:0:0:
256,176,22707,1,4,3:0:0:0:
256,192,23082,12,12,24582,3:0:0:0:
32,40,25707,6,0,P|104:48|176:124,1,150,4|8,0:0|0:0,0:0:0:0:
260,212,26457,2,0,P|336:244|440:200,1,150,0|8,0:0|0:0,0:0:0:0:
472,256,27019,2,0,P|396:216|408:80,1,225,2|8,0:0|0:0,0:0:0:0:
272,12,27957,1,0,0:0:0:0:
124,44,28332,2,0,L|88:144,1,75,8|0,0:0|0:0,0:0:0:0:
124,184,28707,6,0,P|204:168|296:200,1,150,2|8,0:0|0:0,0:0:0:0:
408,236,29457,2,0,P|440:168|420:88,1,150,0|8,0:0|0:0,0:0:0:0:
384,32,30019,2,0,P|300:56|220:28,1,150
168,20,30582,2,0,P|88:24|32:104,2,150,8|8|4,0:0|0:3|0:3,0:0:0:0:
256,140,31707,6,0,B|248:224|248:224|192:272,1,150,4|8,0:0|0:0,0:0:0:0:
176,120,32457,2,0,P|228:60|304:72,1,150,0|8,0:0|0:0,0:0:0:0:
352,116,33019,2,0,P|368:200|516:228,1,225,2|8,0:0|0:0,0:0:0:0:
436,100,33957,2,0,P|392:40|304:44,1,150,0|8,0:0|0:0,0:0:0:0:
236,160,34707,6,0,L|280:88,1,75
220,44,35082,2,0,P|144:72|56:12,2,150,8|0|8,0:0|0:0|0:0,0:0:0:0:
292,28,36019,2,0,P|376:28|432:92,1,150
432,144,36582,5,8,0:0:0:0:
284,116,36957,1,8,3:0:0:0:
136,148,37332,1,4,3:0:0:0:
240,256,37707,6,0,P|164:304|84:284,1,150,4|8,0:0|0:0,0:0:0:0:
204,180,38457,2,0,P|276:180|320:264,1,150,0|8,0:0|0:0,0:0:0:0:
296,316,39019,2,0,P|368:344|480:232,1,225,2|8,0:0|0:0,0:0:0:0:
508,116,39957,1,0,0:0:0:0:
396,16,40332,1,8,0:0:0:0:
304,132,40707,6,0,L|204:180,1,75
168,192,41082,2,0,B|160:228|160:228|104:276|104:276|96:324,1,150,8|0,0:0|0:0,0:0:0:0:
244,340,41832,2,0,L|296:268,1,75,8|0,0:0|0:0,0:0:0:0:
432,244,42394,2,0,L|381:317,1,75,0|8,0:0|0:0,0:0:0:0:
408,156,42957,5,8,3:0:0:0:
272,220,43332,1,4,3:0:0:0:
128,176,43707,5,4,0:0:0:0:
252,92,44082,2,0,P|328:88|392:40,1,150,8|0,0:0|0:0,0:0:0:0:
488,160,44832,1,8,0:0:0:0:
488,160,45019,2,0,P|416:180|336:332,1,225,0|8,0:0|0:0,0:0:0:0:
196,356,45957,1,0,0:0:0:0:
120,224,46332,6,0,P|196:232|256:192,1,150,8|2,0:0|0:0,0:0:0:0:
280,44,47082,1,8,0:0:0:0:
356,32,47269,1,0,0:0:0:0:
364,108,47457,2,0,P|272:144|200:108,1,150,2|8,0:0|0:0,0:0:0:0:
168,80,48019,2,0,P|88:72|52:208,1,225,0|8,0:0|0:0,0:0:0:0:
176,256,48957,2,0,P|252:256|316:320,2,150,2|8|2,0:0|0:0|0:0,0:0:0:0:
32,64,61707,6,0,P|80:136|163:139,1,150,2|0,0:3|1:0,0:0:0:0:
288,128,62457,2,0,P|376:136|448:208,1,150,0|0,0:0|1:0,0:0:0:0:
384,236,63019,2,0,L|492:100,1,150
504,48,63582,2,0,P|412:16|336:36,2,150,0|0|0,1:0|0:0|1:0,0:0:0:0:
508,196,64707,6,0,P|496:256|416:296,2,150,0|0|2,0:0|1:0|0:3,0:0:0:0:
400,92,65832,2,0,L|324:100,1,75,0|2,0:0|0:0,0:0:0:0:
228,216,66394,2,0,L|328:204,1,75,0|0,0:0|1:0,0:0:0:0:
184,116,66957,2,0,B|108:120|108:120|64:152|64:152|20:184,1,150,2|0,3:0|1:0,0:0:0:0:
28,312,67707,6,0,P|108:336|196:304,1,150,0|0,0:0|1:0,0:0:0:0:
284,224,68457,2,0,P|356:196|444:208,1,150,2|0,3:0|1:0,0:0:0:0:
448,276,69019,2,0,L|436:80,1,150
432,52,69582,2,0,B|368:56|368:56|336:88|336:88|264:92,2,150,0|2|0,1:0|0:0|1:0,0:0:0:0:
504,184,70707,1,4,0:0:0:0:
256,192,71082,12,12,72582,3:0:0:0:
480,40,73707,6,0,P|408:48|336:124,1,150,4|8,0:0|0:0,0:0:0:0:
252,212,74457,2,0,P|176:244|72:200,1,150,0|8,0:0|0:0,0:0:0:0:
40,256,75019,2,0,P|116:216|104:80,1,225,2|8,0:0|0:0,0:0:0:0:
240,12,75957,1,0,0:0:0:0:
388,44,76332,2,0,L|424:144,1,75,8|0,0:0|0:0,0:0:0:0:
388,184,76707,6,0,P|308:168|216:200,1,150,2|8,0:0|0:0,0:0:0:0:
104,236,77457,2,0,P|72:168|92:88,1,150,0|8,0:0|0:0,0:0:0:0:
128,32,78019,2,0,P|212:56|292:28,1,150
344,20,78582,2,0,P|424:24|480:104,2,150,8|8|4,0:0|0:3|0:3,0:0:0:0:
256,140,79707,6,0,B|264:224|264:224|320:272,1,150,4|8,0:0|0:0,0:0:0:0:
336,120,80457,2,0,P|284:60|208:72,1,150,0|8,0:0|0:0,0:0:0:0:
160,116,81019,2,0,P|144:200|-4:228,1,225,2|8,0:0|0:0,0:0:0:0:
76,100,81957,2,0,P|120:40|208:44,1,150,0|8,0:0|0:0,0:0:0:0:
276,160,82707,6,0,L|232:88,1,75
292,44,83082,2,0,P|368:72|456:12,2,150,8|0|8,0:0|0:0|0:0,0:0:0:0:
220,20,84019,1,2,0:0:0:0:
116,220,84582,5,8,0:0:0:0:
236,128,84957,1,8,3:0:0:0:
384,156,85332,1,4,3:0:0:0:
272,256,85707,6,0,P|348:304|428:284,1,150,4|8,0:0|0:0,0:0:0:0:
308,180,86457,2,0,P|236:180|192:264,1,150,0|8,0:0|0:0,0:0:0:0:
216,316,87019,2,0,P|144:344|32:232,1,225,2|8,0:0|0:0,0:0:0:0:
4,116,87957,1,0,0:0:0:0:
116,16,88332,1,8,0:0:0:0:
208,132,88707,6,0,L|308:180,1,75
344,192,89082,2,0,B|352:228|352:228|408:276|408:276|416:324,1,150,8|0,0:0|0:0,0:0:0:0:
268,340,89832,2,0,L|216:268,1,75,8|0,0:0|0:0,0:0:0:0:
80,244,90394,2,0,L|131:317,1,75,0|8,0:0|0:0,0:0:0:0:
104,156,90957,5,8,3:0:0:0:
240,220,91332,1,4,3:0:0:0:
384,176,91707,5,4,0:0:0:0:
260,92,92082,2,0,P|184:88|120:40,1,150,8|0,0:0|0:0,0:0:0:0:
24,160,92832,1,8,0:0:0:0:
24,160,93019,2,0,P|96:180|176:332,1,225,0|8,0:0|0:0,0:0:0:0:
316,356,93957,1,0,0:0:0:0:
392,224,94332,6,0,P|316:232|256:192,1,150,8|2,0:0|0:0,0:0:0:0:
232,44,95082,1,8,0:0:0:0:
156,32,95269,1,0,0:0:0:0:
148,108,95457,2,0,P|240:144|312:108,1,150,2|8,0:0|0:0,0:0:0:0:
344,80,96019,2,0,P|424:72|460:208,1,225,0|8,0:0|0:0,0:0:0:0:
336,256,96957,2,0,P|260:256|196:320,2,150,2|8|2,0:0|0:0|0:0,0:0:0:0:
28,76,109707,6,0,L|192:72,1,150,4|8,0:0|0:0,0:0:0:0:
304,152,110457,2,0,L|460:148,1,150,2|8,0:0|0:0,0:0:0:0:
504,204,111019,2,0,P|496:272|416:312,1,150
356,312,111582,2,0,B|304:316|304:316|252:356|252:356|208:360,2,150,8|2|8,0:0|0:0|0:0,0:0:0:0:
216,260,112707,6,0,P|120:264|64:216,1,150,2|8,0:0|0:0,0:0:0:0:
36,92,113457,2,0,P|128:96|196:56,1,150,0|8,0:0|0:0,0:0:0:0:
240,28,114019,2,0,B|272:24|272:24|344:48|344:48|404:40,1,150,2|0,0:0|0:0,0:0:0:0:
456,24,114582,2,0,P|476:104|436:176,2,150,8|2|8,0:0|0:0|0:0,0:0:0:0:
348,128,115707,6,0,P|292:184|204:180,1,150,4|8,0:0|0:0,0:0:0:0:
84,136,116457,2,0,B|72:180|72:180|20:216|20:216|8:280,1,150,2|8,0:0|0:0,0:0:0:0:
12,336,117019,2,0,P|96:344|168:304,1,150,2|2,0:0|0:0,0:0:0:0:
192,252,117582,2,0,P|264:232|340:252,2,150,8|2|8,0:0|0:0|0:0,0:0:0:0:
256,116,118707,1,4,0:0:0:0:
256,192,118894,12,12,120581,1:3:0:0:
88,132,121707,6,0,P|144:200|228:192,1,150,4|8,0:0|0:0,0:0:0:0:
304,96,122457,2,0,P|388:84|472:124,1,150,2|8,0:0|0:0,0:0:0:0:
496,168,123019,2,0,P|488:264|376:328,1,225,2|8,0:0|0:0,0:0:0:0:
340,184,123957,1,0,0:0:0:0:
216,268,124332,2,0,L|128:296,1,75,8|0,0:0|0:0,0:0:0:0:
96,348,124707,6,0,P|136:276|88:188,1,150,0|8,0:0|0:0,0:0:0:0:
8,112,125457,2,0,P|96:88|140:20,1,150,2|8,0:0|0:0,0:0:0:0:
204,24,126019,2,0,P|280:56|356:32,1,150,2|2,0:0|0:0,0:0:0:0:
408,80,126582,2,0,P|388:160|428:224,2,150,8|8|4,0:0|3:0|0:3,0:0:0:0:
280,160,127707,6,0,B|240:160|240:160|180:200|180:200|128:200,1,150,4|8,0:0|0:0,0:0:0:0:
24,292,128457,2,0,P|76:360|148:340,1,150,0|8,0:0|0:0,0:0:0:0:
188,300,129019,2,0,P|256:292|388:332,1,150
408,324,129582,2,0,P|444:256|448:152,2,150,8|0|8,0:0|0:0|0:0,0:0:0:0:
284,236,130707,6,0,L|224:148,1,75
168,168,131082,2,0,P|248:156|288:88,1,150,8|0,0:0|0:0,0:0:0:0:
420,36,131832,2,0,L|308:60,1,75,8|0,0:0|0:0,0:0:0:0:
372,200,132394,2,0,L|468:176,1,75,0|8,0:0|0:0,0:0:0:0:
304,132,132957,2,0,P|228:148|144:92,1,150,8|4,3:0|0:3,0:0:0:0:
16,104,133707,6,0,P|96:76|124:20,1,150,4|8,0:0|0:0,0:0:0:0:
272,20,134457,2,0,P|360:32|408:84,1,150,0|8,0:0|0:0,0:0:0:0:
428,144,135019,2,0,P|404:216|412:300,1,150
460,344,135582,2,0,P|392:292|312:300,1,150,8|0,0:0|0:0,0:0:0:0:
208,204,136332,5,8,0:0:0:0:
108,316,136707,2,0,L|76:224,1,75
20,204,137082,2,0,P|88:236|168:184,1,150,8|2,0:0|0:0,0:0:0:0:
260,104,137832,2,0,L|376:80,1,75,8|0,0:0|0:0,0:0:0:0:
464,160,138394,2,0,L|362:184,1,75,0|8,0:0|0:0,0:0:0:0:
244,212,138957,2,0,P|196:224|156:212,1,75,8|0,3:0|0:0,0:0:0:0:
144,148,139332,2,0,L|140:308,1,150,4|4,3:0|0:0,0:0:0:0:
256,192,140082,12,4,145707,0:0:0:0:
