osu file format v13

[General]
AudioFilename: Pharell Williams - Happy [mp3clan.com].mp3
AudioLeadIn: 2000
PreviewTime: 24770
Countdown: 0
SampleSet: Soft
StackLeniency: 0.7
Mode: 0
LetterboxInBreaks: 1
WidescreenStoryboard: 0

[Editor]
DistanceSpacing: 1
BeatDivisor: 2
GridSize: 4
TimelineZoom: 1.1

[Metadata]
Title:Happy
TitleUnicode:Happy
Artist:Pharrell Williams
ArtistUnicode:Pharrell Williams
Creator:CDFA
Version:Hard
Source:Despicable Me 2
Tags:neo soul funk girl
BeatmapID:412841
BeatmapSetID:170540

[Difficulty]
HPDrainRate:7
CircleSize:4
OverallDifficulty:7
ApproachRate:8
SliderMultiplier:2
SliderTickRate:1

[Events]
//Background and Video events
0,0,"1366x768_hatsune_miku-1440689.jpg",0,0
//Break Periods
2,49907,60957
2,97907,108957
//Storyboard Layer 0 (Background)
//Storyboard Layer 1 (Fail)
//Storyboard Layer 2 (Pass)
//Storyboard Layer 3 (Foreground)
//Storyboard Sound Samples
//Background Colour Transformations
3,100,163,162,255

[TimingPoints]
207.824236952836,375,4,2,0,26,1,0
1707,375,4,2,0,26,1,0
25707,-100,4,2,0,33,0,1
49707,-100,4,2,0,33,0,0
73707,-100,4,2,0,33,0,1
97707,-100,4,2,0,33,0,0
121707,-100,4,2,0,33,0,1
145707,-100,4,2,0,33,0,0

[Colours]
Combo1 : 164,154,142
Combo2 : 88,126,106
Combo3 : 171,184,190
Combo4 : 129,209,181

[HitObjects]
152,56,207,6,0,L|352:56,5,200,0|0|0|0|0|0,3:0|3:0|3:0|3:0|3:0|1:0,0:0:0:0:
404,136,2269,5,0,0:0:0:0:
428,232,2457,2,0,P|408:296|272:280,1,200,0|0,0:0|1:0,0:0:0:0:
260,208,3019,2,0,P|156:200|108:300,1,200
48,352,3582,1,0,1:0:0:0:
8,260,3769,1,0,0:0:0:0:
48,172,3957,2,0,P|96:168|132:116,1,100,0|0,0:0|0:0,0:0:0:0:
60,56,4332,2,0,P|144:112|248:96,1,200,0|4,1:0|0:3,0:0:0:0:
424,24,5082,5,2,3:0:0:0:
376,112,5269,1,0,0:0:0:0:
436,196,5457,2,0,P|404:292|296:284,1,200,2|0,0:0|0:0,0:0:0:0:
232,352,6019,2,0,P|324:280|316:200,1,200,2|8,0:0|3:0,0:0:0:0:
232,260,6582,2,0,L|416:144,2,200,4|2|4,3:0|3:0|3:0,0:0:0:0:
100,116,7707,5,4,0:3:0:0:
292,56,8082,1,0,1:0:0:0:
388,24,8269,2,0,L|392:228,1,200,0|2,0:0|0:0,0:0:0:0:
328,304,8832,1,0,1:0:0:0:
228,296,9019,2,0,B|160:288|144:336|144:336|100:304|32:372,1,200,0|0,0:0|0:0,0:0:0:0:
8,260,9582,1,0,1:0:0:0:
0,160,9769,1,0,0:0:0:0:
100,156,9957,1,0,0:0:0:0:
184,100,10144,1,0,0:0:0:0:
252,176,10332,2,0,P|312:196|416:112,1,200,0|4,1:0|3:0,0:0:0:0:
240,16,11082,5,2,3:0:0:0:
184,100,11269,1,0,0:0:0:0:
148,192,11457,2,2,P|136:248|-4:288,1,200,2|0,0:0|0:0,1:0:0:0:
56,204,12019,2,0,P|92:268|220:272,1,200,2|8,0:0|0:3,0:0:0:0:
232,184,12582,2,0,L|182:377,2,200,12|2|4,3:0|3:0|3:0,0:0:0:0:
388,48,13707,6,0,B|400:108|400:108|384:208|384:208|384:208|404:284,1,200,4|0,3:0|1:0,0:0:0:0:
348,332,14269,1,0,0:0:0:0:
252,364,14457,2,0,B|184:372|156:336|156:336|124:288|52:296,1,200,0|0,0:0|0:1,0:0:0:0:
16,376,15019,2,0,P|80:280|60:164,1,200,2|0,0:0|0:0,0:0:0:0:
12,124,15582,2,0,P|72:200|176:132,1,200,0|0,1:0|0:0,0:0:0:0:
236,104,16144,1,0,0:0:0:0:
328,68,16332,2,0,L|368:172,1,100,0|0,1:0|0:0,0:0:0:0:
304,248,16707,6,0,P|368:160|460:152,1,200,4|2,0:0|0:0,0:0:0:0:
508,236,17269,1,0,0:0:0:0:
501,335,17457,2,0,B|450:335|450:335|349:368|349:368|287:368,1,200,2|0,0:0|3:0,0:0:0:0:
205,367,18019,2,0,B|151:367|151:367|50:333|50:333|0:333,1,200,2|8,0:0|3:0,0:0:0:0:
80,260,18582,2,0,B|172:292|172:292|216:244|196:184,1,200,0|4,1:0|0:3,0:0:0:0:
140,112,19144,5,0,0:0:0:0:
236,84,19332,1,0,0:1:0:0:
332,56,19519,2,0,P|356:112|484:152,1,200
480,52,20082,2,0,L|488:272,1,200,0|2,1:0|3:0,0:0:0:0:
428,336,20644,1,0,0:0:0:0:
328,352,20832,1,0,1:0:0:0:
268,272,21019,2,0,P|184:248|104:332,1,200,2|2,0:0|2:0,0:0:0:0:
200,352,21582,2,0,L|-24:272,2,200,0|2|0,1:0|3:0|1:0,0:0:0:0:
400,352,22707,6,0,B|420:304|420:304|412:204|412:204|448:136,1,200,4|2,3:0|3:0,0:0:0:0:
488,76,23269,1,0,0:0:0:0:
400,28,23457,2,0,P|332:48|200:8,1,200,0|2,0:0|3:0,0:0:0:0:
140,88,24019,2,0,P|172:160|128:276,1,200,2|8,0:0|3:0,0:0:0:0:
60,336,24582,2,0,P|112:368|172:368,1,100,0|0,1:0|0:0,0:0:0:0:
256,344,24957,5,8,3:0:0:0:
256,344,25332,1,4,3:0:0:0:
480,48,25707,6,0,L|264:32,1,200,4|8,1:1|0:0,0:0:0:0:
292,132,26269,1,0,0:0:0:0:
308,232,26457,2,0,L|92:212,1,200,0|8,0:0|0:0,0:0:0:0:
12,180,27019,2,0,P|20:100|140:48,2,200,0|2|0,0:0|0:0|0:0,0:0:0:0:
44,276,27957,2,0,P|76:312|124:308,1,100,2|0,0:0|0:0,0:0:0:0:
212,268,28332,2,0,L|320:268,1,100,8|0,0:0|0:0,0:0:0:0:
396,320,28707,6,0,B|448:284|448:284|456:200|456:200|508:160,1,200,0|8,0:0|0:0,0:0:0:0:
504,72,29269,1,0,0:0:0:0:
412,28,29457,2,0,B|348:24|348:24|256:72|256:72|204:68,1,200,0|8,0:0|0:0,0:0:0:0:
144,12,30019,2,0,P|220:64|216:184,1,200,2|2,0:0|0:0,0:0:0:0:
124,172,30582,2,0,L|336:160,2,200,8|8|4,0:0|3:0|3:0,0:0:0:0:
24,348,31707,6,0,P|116:352|196:276,1,200,4|8,1:0|0:0,0:0:0:0:
256,204,32269,1,0,0:0:0:0:
320,280,32457,2,0,P|391:346|488:344,1,200,0|8,0:0|0:0,0:0:0:0:
508,244,33019,2,0,B|516:176|516:176|496:84|496:84|504:32,2,200,0|2|0,0:0|0:0|0:0,0:0:0:0:
408,260,33957,2,0,P|384:204|328:156,1,100
260,184,34332,2,0,P|348:168|352:48,1,200,8|0,0:0|0:0,0:0:0:0:
276,32,34894,5,0,0:0:0:0:
188,80,35082,2,0,L|84:152,1,100,8|0,0:0|0:0,0:0:0:0:
36,64,35457,2,0,P|92:108|100:244,1,200,2|8,0:0|0:0,0:0:0:0:
16,184,36019,2,0,L|200:276,1,200,2|0,0:0|0:0,0:0:0:0:
288,308,36582,6,0,P|336:320|380:284,1,100,8|0,0:0|0:0,0:0:0:0:
416,200,36957,1,8,3:0:0:0:
116,44,37332,1,4,3:0:0:0:
84,352,37707,6,0,P|112:296|68:160,1,200,4|8,1:0|0:0,0:0:0:0:
24,84,38269,1,0,3:0:0:0:
116,44,38457,2,0,B|168:40|168:40|256:76|256:76|312:72,1,200,2|8,0:0|0:0,0:0:0:0:
408,52,39019,2,0,L|448:148,1,100
348,160,39394,2,0,L|352:280,1,100,2|8,0:0|0:0,0:0:0:0:
256,232,39769,2,0,B|208:328|208:328|160:348|112:320,1,200,2|0,0:0|0:0,0:0:0:0:
48,252,40332,1,8,0:0:0:0:
36,52,40707,5,0,0:0:0:0:
136,44,40894,1,0,0:0:0:0:
236,32,41082,2,0,P|268:76|312:92,1,100,8|0,0:0|0:0,0:0:0:0:
404,56,41457,2,0,P|308:92|292:192,1,200,2|8,0:0|0:0,0:0:0:0:
388,172,42019,2,0,L|184:192,1,200,0|0,0:0|0:0,0:0:0:0:
84,196,42582,5,8,0:0:0:0:
64,296,42769,1,0,0:0:0:0:
152,340,42957,1,8,3:0:0:0:
416,36,43332,1,4,3:0:0:0:
468,348,43707,6,0,P|464:296|424:264,1,100,4|0,0:0|0:0,0:0:0:0:
336,232,44082,1,8,0:0:0:0:
244,276,44269,1,0,0:0:0:0:
164,220,44457,2,0,P|136:168|184:32,1,200,2|8,0:0|0:0,0:0:0:0:
272,24,45019,2,0,P|328:52|388:40,1,100,2|0,0:0|0:0,0:0:0:0:
388,148,45394,2,0,P|320:168|308:224,1,100,2|8,0:0|0:0,0:0:0:0:
364,272,45769,2,0,P|312:192|204:172,1,200,2|0,0:0|0:0,0:0:0:0:
132,224,46332,1,8,0:0:0:0:
256,380,46707,5,0,0:0:0:0:
444,308,47082,1,8,0:0:0:0:
476,212,47269,1,0,0:0:0:0:
376,196,47457,2,0,P|340:144|384:16,1,200,2|8,0:0|0:0,0:0:0:0:
412,116,48019,2,0,L|328:320,1,200,2|4,0:0|3:0,0:0:0:0:
248,348,48582,6,0,L|180:240,1,100,8|0,0:0|0:0,0:0:0:0:
276,204,48957,2,0,L|256:88,1,100,2|0,3:0|0:0,0:0:0:0:
360,96,49332,2,0,L|412:8,1,100,8|8,0:0|3:0,0:0:0:0:
476,84,49707,1,4,3:0:0:0:
32,40,61707,5,4,3:0:0:0:
68,136,61894,1,0,0:0:0:0:
168,152,62082,2,0,P|232:152|276:188,1,100,0|0,1:0|0:0,0:0:0:0:
256,264,62457,2,0,P|264:168|372:112,1,200,0|0,0:0|1:0,0:0:0:0:
336,212,63019,2,0,L|360:4,1,200,2|0,0:0|0:0,0:0:0:0:
460,16,63582,1,0,1:0:0:0:
508,104,63769,1,0,0:0:0:0:
460,192,63957,2,0,L|432:296,1,100
496,368,64332,2,0,P|424:292|324:308,1,200,0|4,1:0|3:0,0:0:0:0:
140,336,65082,5,0,1:0:0:0:
44,304,65269,1,0,0:0:0:0:
96,220,65457,2,0,P|120:160|68:24,1,200,0|0,0:0|1:0,0:0:0:0:
32,124,66019,2,0,P|72:204|188:232,1,200,2|0,0:0|0:0,0:0:0:0:
268,216,66582,2,0,B|320:208|320:208|416:248|416:248|468:240,2,200,8|2|4,3:0|3:0|3:0,0:0:0:0:
68,208,67707,6,0,P|112:176|96:24,1,200,4|0,3:0|1:0,0:0:0:0:
12,32,68269,1,0,0:0:0:0:
8,132,68457,2,0,B|72:212|72:212|96:264|76:332,1,200,2|0,3:0|1:0,0:0:0:0:
12,380,69019,2,0,P|80:312|216:328,1,200
256,372,69582,1,0,1:0:0:0:
352,348,69769,1,0,0:0:0:0:
368,248,69957,2,0,L|392:128,1,100,2|0,0:0|3:0,0:0:0:0:
468,92,70332,2,0,P|392:144|296:80,1,200,0|4,1:0|3:0,0:0:0:0:
116,32,71082,5,0,1:0:0:0:
64,116,71269,1,0,0:0:0:0:
116,204,71457,2,0,P|180:248|296:188,1,200,2|0,3:0|0:0,0:0:0:0:
228,124,72019,2,0,L|356:300,1,200,2|4,0:0|3:0,0:0:0:0:
444,312,72582,1,0,1:0:0:0:
256,344,72957,5,8,3:0:0:0:
256,344,73332,1,4,3:0:0:0:
32,48,73707,6,0,L|248:32,1,200,4|8,1:1|0:0,0:0:0:0:
220,132,74269,1,0,0:0:0:0:
204,232,74457,2,0,L|420:212,1,200,0|8,0:0|0:0,0:0:0:0:
500,180,75019,2,0,P|492:100|372:48,2,200,0|2|0,0:0|0:0|0:0,0:0:0:0:
468,276,75957,2,0,P|436:312|388:308,1,100,2|0,0:0|0:0,0:0:0:0:
300,268,76332,2,0,L|192:268,1,100,8|0,0:0|0:0,0:0:0:0:
116,320,76707,6,0,B|64:284|64:284|56:200|56:200|4:160,1,200,0|8,0:0|0:0,0:0:0:0:
8,72,77269,1,0,0:0:0:0:
100,28,77457,2,0,B|164:24|164:24|256:72|256:72|308:68,1,200,0|8,0:0|0:0,0:0:0:0:
368,12,78019,2,0,P|292:64|296:184,1,200,2|2,0:0|0:0,0:0:0:0:
388,172,78582,2,0,L|176:160,2,200,8|8|4,0:0|3:0|3:0,0:0:0:0:
488,348,79707,6,0,P|396:352|316:276,1,200,4|8,1:0|0:0,0:0:0:0:
256,204,80269,1,0,0:0:0:0:
192,280,80457,2,0,P|121:346|24:344,1,200,0|8,0:0|0:0,0:0:0:0:
4,244,81019,2,0,B|-4:176|-4:176|16:84|16:84|8:32,2,200,0|2|0,0:0|0:0|0:0,0:0:0:0:
104,260,81957,2,0,P|128:204|184:156,1,100
252,184,82332,2,0,P|164:168|160:48,1,200,8|0,0:0|0:0,0:0:0:0:
236,32,82894,5,0,0:0:0:0:
324,80,83082,2,0,L|428:152,1,100,8|0,0:0|0:0,0:0:0:0:
476,64,83457,2,0,P|420:108|412:244,1,200,2|8,0:0|0:0,0:0:0:0:
496,184,84019,2,0,L|312:276,1,200,2|0,0:0|0:0,0:0:0:0:
224,308,84582,6,0,P|176:320|132:284,1,100,8|0,0:0|0:0,0:0:0:0:
96,200,84957,1,8,3:0:0:0:
396,44,85332,1,4,3:0:0:0:
428,352,85707,6,0,P|400:296|444:160,1,200,4|8,1:0|0:0,0:0:0:0:
488,84,86269,1,0,3:0:0:0:
396,44,86457,2,0,B|344:40|344:40|256:76|256:76|200:72,1,200,2|8,0:0|0:0,0:0:0:0:
104,52,87019,2,0,L|64:148,1,100
164,160,87394,2,0,L|160:280,1,100,2|8,0:0|0:0,0:0:0:0:
256,232,87769,2,0,B|304:328|304:328|352:348|400:320,1,200,2|0,0:0|0:0,0:0:0:0:
464,252,88332,1,8,0:0:0:0:
476,52,88707,5,0,0:0:0:0:
376,44,88894,1,0,0:0:0:0:
276,32,89082,2,0,P|244:76|200:92,1,100,8|0,0:0|0:0,0:0:0:0:
108,56,89457,2,0,P|204:92|220:192,1,200,2|8,0:0|0:0,0:0:0:0:
124,172,90019,2,0,L|328:192,1,200,0|0,0:0|0:0,0:0:0:0:
428,196,90582,5,8,0:0:0:0:
448,296,90769,1,0,0:0:0:0:
360,340,90957,1,8,3:0:0:0:
96,36,91332,1,4,3:0:0:0:
44,348,91707,6,0,P|48:296|88:264,1,100,4|0,0:0|0:0,0:0:0:0:
176,232,92082,1,8,0:0:0:0:
268,276,92269,1,0,0:0:0:0:
348,220,92457,2,0,P|376:168|328:32,1,200,2|8,0:0|0:0,0:0:0:0:
240,24,93019,2,0,P|184:52|124:40,1,100,2|0,0:0|0:0,0:0:0:0:
124,148,93394,2,0,P|192:168|204:224,1,100,2|8,0:0|0:0,0:0:0:0:
148,272,93769,2,0,P|200:192|308:172,1,200,2|0,0:0|0:0,0:0:0:0:
380,224,94332,1,8,0:0:0:0:
256,380,94707,5,0,0:0:0:0:
68,308,95082,1,8,0:0:0:0:
36,212,95269,1,0,0:0:0:0:
136,196,95457,2,0,P|172:144|128:16,1,200,2|8,0:0|0:0,0:0:0:0:
100,116,96019,2,0,L|184:320,1,200,2|4,0:0|3:0,0:0:0:0:
264,348,96582,6,0,L|332:240,1,100,8|0,0:0|0:0,0:0:0:0:
236,204,96957,2,0,L|256:88,1,100,2|0,3:0|0:0,0:0:0:0:
152,96,97332,2,0,L|100:8,1,100,8|8,0:0|3:0,0:0:0:0:
36,84,97707,1,4,3:0:0:0:
28,40,109707,6,0,L|76:148,1,100,4|0,0:0|0:0,0:0:0:0:
108,224,110082,1,8,0:0:0:0:
204,244,110269,1,0,0:0:0:0:
296,204,110457,2,0,P|324:160|320:104,1,100,0|0,0:0|0:0,0:0:0:0:
416,80,110832,2,0,P|460:132|504:120,1,100,8|0,0:0|0:0,0:0:0:0:
464,228,111207,2,0,P|420:228|388:300,1,100,0|0,0:0|0:0,0:0:0:0:
380,368,111582,1,8,0:0:0:0:
284,348,111769,2,0,B|224:360|224:360|128:344|128:344|68:352,1,200,8|0,0:0|0:0,0:0:0:0:
16,280,112332,1,8,0:0:0:0:
28,180,112519,1,0,0:0:0:0:
20,80,112707,5,4,0:0:0:0:
96,36,112894,2,0,P|168:56|312:24,1,200,2|0,0:0|0:0,0:0:0:0:
388,28,113457,2,0,L|440:124,1,100,0|0,0:0|0:0,0:0:0:0:
348,164,113832,2,0,L|372:296,1,100,8|0,0:0|0:0,0:0:0:0:
440,332,114207,2,0,P|336:272|240:304,1,200,0|8,0:0|0:0,0:0:0:0:
172,328,114769,1,8,0:0:0:0:
72,328,114957,2,0,P|28:280|32:228,1,100,2|0,0:0|0:0,0:0:0:0:
112,192,115332,2,0,P|124:128|160:96,1,100,8|0,0:0|0:0,0:0:0:0:
228,44,115707,6,0,P|296:96|416:68,1,200,4|8,0:0|0:0,0:0:0:0:
496,36,116269,1,0,0:0:0:0:
508,136,116457,2,0,L|536:256,1,100
432,216,116832,2,0,L|408:324,1,100,8|0,0:0|0:0,0:0:0:0:
496,368,117207,2,0,P|384:308|276:304,1,200,0|8,0:0|0:0,0:0:0:0:
220,340,117769,1,8,0:0:0:0:
120,352,117957,2,0,L|32:260,1,100
136,224,118332,2,0,L|96:92,1,100,8|0,0:0|0:0,0:0:0:0:
160,44,118707,1,4,0:0:0:0:
256,192,118894,12,8,120957,1:3:0:0:
72,56,121332,5,4,3:0:0:0:
72,56,121707,6,0,P|120:100|172:88,1,100,4|0,0:1|0:0,0:0:0:0:
244,64,122082,1,8,0:0:0:0:
344,64,122269,1,0,0:0:0:0:
384,156,122457,2,0,P|416:212|464:228,1,100
504,308,122832,1,8,0:0:0:0:
416,356,123019,2,0,L|304:356,1,100,2|0,0:1|0:0,0:0:0:0:
284,260,123394,2,0,L|184:216,1,100,2|8,0:1|0:0,0:0:0:0:
204,120,123769,2,0,L|144:8,1,100,2|2,0:1|0:0,0:0:0:0:
56,20,124144,1,0,0:0:0:0:
12,112,124332,2,0,L|40:216,1,100,8|0,0:0|0:0,0:0:0:0:
24,308,124707,6,0,P|44:216|148:176,1,200,0|8,0:0|0:0,0:0:0:0:
212,240,125269,1,0,0:0:0:0:
288,304,125457,2,0,P|360:312|464:220,1,200,0|8,0:0|0:0,0:0:0:0:
504,148,126019,2,0,P|452:224|324:196,1,200,0|0,0:0|3:0,0:0:0:0:
272,160,126582,1,8,0:0:0:0:
212,240,126769,1,0,0:0:0:0:
120,284,126957,5,8,3:0:0:0:
392,60,127332,1,4,3:0:0:0:
484,360,127707,6,0,P|424:328|412:184,1,200,4|8,0:0|0:0,0:0:0:0:
472,136,128269,1,0,0:0:0:0:
496,232,128457,2,0,B|400:208|400:208|336:224|296:164,1,200,0|8,0:0|0:0,0:0:0:0:
232,112,129019,2,0,L|144:160,1,100,2|0,0:1|0:0,0:0:0:0:
220,224,129394,2,0,L|180:340,1,100,2|8,0:1|0:0,0:0:0:0:
288,312,129769,2,2,P|320:352|376:344,1,100,2|0,0:1|0:0,0:0:0:0:
460,336,130144,1,0,3:0:0:0:
504,248,130332,2,0,L|528:136,1,100,8|0,0:0|0:0,0:0:0:0:
504,52,130707,5,0,3:0:0:0:
408,28,130894,1,2,0:0:0:0:
312,52,131082,2,0,P|248:96|192:88,1,100,8|0,0:0|0:0,0:0:0:0:
120,76,131457,2,0,L|120:192,1,100,0|0,0:0|0:0,0:0:0:0:
52,248,131832,1,8,0:0:0:0:
20,152,132019,2,0,P|120:176|232:108,1,200,0|0,3:0|3:0,0:0:0:0:
280,72,132582,6,0,P|336:52|388:64,1,100,0|0,0:0|0:0,0:0:0:0:
448,124,132957,1,8,3:0:0:0:
88,292,133332,1,4,3:0:0:0:
416,344,133707,6,0,P|372:296|348:140,1,200,4|8,0:0|0:0,0:0:0:0:
360,48,134269,1,0,0:0:0:0:
448,124,134457,2,0,P|448:176|464:232,1,100,0|0,3:0|0:0,0:0:0:0:
504,312,134832,1,8,0:0:0:0:
504,312,135019,1,8,3:0:0:0:
248,232,135394,1,4,3:0:0:0:
444,32,135769,2,0,P|416:80|268:60,1,200,4|2,3:0|0:0,0:0:0:0:
196,36,136332,1,8,0:0:0:0:
100,68,136519,1,0,3:0:0:0:
44,148,136707,6,0,L|80:248,1,100,0|0,3:0|0:0,0:0:0:0:
28,328,137082,2,0,P|84:236|196:200,1,200,8|2,0:0|0:0,0:0:0:0:
256,248,137644,1,0,0:0:0:0:
344,292,137832,2,0,P|416:304|488:180,1,200,8|0,0:0|3:0,0:0:0:0:
460,120,138394,1,0,0:0:0:0:
380,60,138582,2,0,P|328:72|280:56,1,100,8|0,0:0|0:0,0:0:0:0:
192,16,138957,5,8,3:0:0:0:
380,360,139332,1,4,3:0:0:0:
256,196,139707,5,4,0:0:0:0:
256,192,139894,12,4,145707,0:0:0:0:
