osu file format v13

[General]
AudioFilename: Pharell Williams - Happy [mp3clan.com].mp3
AudioLeadIn: 2000
PreviewTime: 24770
Countdown: 0
SampleSet: Soft
StackLeniency: 0.7
Mode: 0
LetterboxInBreaks: 1
WidescreenStoryboard: 0

[Editor]
Bookmarks: 16290
DistanceSpacing: 1
BeatDivisor: 2
GridSize: 4
TimelineZoom: 1.1

[Metadata]
Title:Happy
TitleUnicode:Happy
Artist:Pharrell Williams
ArtistUnicode:Pharrell Williams
Creator:CDFA
Version:Easy
Source:Despicable Me 2
Tags:neo soul funk girl
BeatmapID:541449
BeatmapSetID:170540

[Difficulty]
HPDrainRate:3
CircleSize:2.4
OverallDifficulty:3
ApproachRate:3
SliderMultiplier:1
SliderTickRate:1

[Events]
//Background and Video events
0,0,"1366x768_hatsune_miku-1440689.jpg",0,0
//Break Periods
2,49907,60267
2,97907,108267
//Storyboard Layer 0 (Background)
//Storyboard Layer 1 (Fail)
//Storyboard Layer 2 (Pass)
//Storyboard Layer 3 (Foreground)
//Storyboard Sound Samples
//Background Colour Transformations
3,100,163,162,255

[TimingPoints]
207.824236952836,375,4,2,0,26,1,0
1707,375,4,2,0,26,1,0
25707,-100,4,2,0,33,0,1
49707,-100,4,2,0,33,0,0
73707,-100,4,2,0,33,0,1
97707,-100,4,2,0,33,0,0
121707,-100,4,2,0,33,0,1
145707,-100,4,2,0,33,0,0

[Colours]
Combo1 : 164,154,142
Combo2 : 88,126,106
Combo3 : 171,184,190
Combo4 : 129,209,181

[HitObjects]
144,48,207,6,0,B|200:48|200:48|276:112|276:112|344:112,2,200,0|0|0,3:0|3:0|3:0,0:0:0:0:
56,100,2082,5,0,1:0:0:0:
40,200,2457,2,0,P|32:264|168:308,1,200
224,276,3582,2,0,P|312:252|436:304,1,200,0|0,1:0|1:0,0:0:0:0:
448,376,4707,6,0,P|496:352|512:304,2,100,0|0|0,0:0|1:0|0:0,0:0:0:0:
400,288,5832,2,0,P|288:312|212:236,1,200,0|0,1:0|1:0,0:0:0:0:
164,184,6957,2,0,B|140:184|140:184|96:208|96:208|52:208,2,100,2|0|4,0:0|1:0|0:3,0:0:0:0:
208,92,8082,6,0,P|252:132|416:116,1,200,0|0,1:0|1:0,0:0:0:0:
484,120,9207,2,0,P|480:176|444:216,1,100,2|0,0:0|1:0,0:0:0:0:
360,244,9957,2,0,P|308:248|264:304,2,100,2|0|0,0:3|1:0|0:0,0:0:0:0:
348,344,11082,6,0,P|288:376|172:304,1,200,0|0,1:0|1:0,0:0:0:0:
144,228,12207,2,0,P|132:168|148:124,1,100,2|0,0:0|1:0,0:0:0:0:
192,44,12957,2,0,P|132:40|96:0,1,100,8|4,3:0|3:0,0:0:0:0:
4,16,13707,6,0,B|4:72|4:72|56:124|52:120|52:120|52:208,1,200,2|2,0:0|0:0,0:0:0:0:
52,296,14832,2,0,P|108:316|192:204,1,200,0|0,1:0|1:0,0:0:0:0:
256,148,15957,1,2,0:0:0:0:
316,226,16332,2,0,P|365:307|460:296,1,200,0|0,1:0|1:0,0:0:0:0:
480,196,17457,6,0,P|476:136|520:40,2,150,2|2|0,0:3|0:0|1:0,0:0:0:0:
428,280,18957,2,0,P|384:320|320:320,1,100,8|4,0:3|3:0,0:0:0:0:
252,288,19707,6,0,P|192:280|76:352,1,200,4|2,3:0|0:0,0:0:0:0:
16,268,20832,1,0,1:0:0:0:
8,168,21207,2,0,P|52:152|76:80,1,100,2|0,0:0|1:0,0:0:0:0:
120,16,21957,2,0,P|172:24|240:160,1,200,2|4,0:3|3:0,0:0:0:0:
244,240,23082,6,0,P|172:300|72:260,2,200,0|0|0,1:0|1:0|1:0,0:0:0:0:
152,200,24957,1,8,0:3:0:0:
32,40,25707,6,0,P|64:92|200:72,1,200,4|0,0:0|0:0,0:0:0:0:
272,28,26832,2,0,B|320:28|320:28|400:88|400:88|456:88,1,200,8|8,0:0|0:0,0:0:0:0:
512,168,27957,2,0,P|504:220|456:256,1,100,0|8,0:0|0:0,0:0:0:0:
376,224,28707,6,0,P|456:256|464:360,2,200,2|2|2,0:0|0:0|0:0,0:0:0:0:
276,224,30582,2,0,L|228:128,2,100,8|8|4,0:0|0:3|0:3,0:0:0:0:
200,292,31707,6,0,P|148:308|60:184,1,200,4|0,0:0|0:0,0:0:0:0:
48,116,32832,2,0,B|100:112|100:112|184:152|184:152|240:144,1,200,8|8,0:0|0:0,0:0:0:0:
336,128,33957,2,0,P|388:136|440:112,1,100,2|8,0:0|0:0,0:0:0:0:
440,20,34707,6,0,L|488:232,1,200,2|2,0:0|0:0,0:0:0:0:
432,300,35832,1,8,0:0:0:0:
340,340,36207,2,0,B|316:340|316:340|272:368|272:368|228:368,1,100,2|8,0:0|0:0,0:0:0:0:
151,368,36957,2,0,P|88:352|48:200,1,200,8|4,0:3|0:0,0:0:0:0:
56,140,38082,6,0,B|104:140|104:140|180:200|180:200|248:200,1,200,8|8,0:0|0:0,0:0:0:0:
336,184,39207,1,2,0:0:0:0:
436,172,39582,1,8,0:0:0:0:
400,264,39957,2,0,P|408:316|364:352,2,100,2|8|2,0:0|0:0|0:0,0:0:0:0:
436,172,41082,2,0,P|424:112|520:20,2,200,8|8|8,0:0|0:0|0:0,0:0:0:0:
388,260,42957,6,0,P|336:288|268:268,1,100,8|4,0:3|0:3,0:0:0:0:
280,184,43707,2,0,L|240:380,2,200,4|0|0,0:0|0:0|0:0,0:0:0:0:
324,92,45582,1,8,0:0:0:0:
228,64,45957,2,0,P|160:60|112:12,1,100,2|8,0:0|0:0,0:0:0:0:
36,16,46707,6,0,P|24:80|120:184,1,200,2|2,0:0|0:0,0:0:0:0:
204,188,47832,2,0,P|264:208|280:348,1,200,8|8,0:0|0:0,0:0:0:0:
200,372,48957,2,0,P|140:380|104:352,1,100,2|8,0:3|0:0,0:0:0:0:
64,272,49707,1,4,0:3:0:0:
60,136,61707,6,0,P|112:124|188:152,1,100,4|0,0:3|1:0,0:0:0:0:
232,200,62457,2,0,P|288:228|376:200,2,150,2|2|0,0:3|0:0|1:0,0:0:0:0:
140,240,63957,2,0,L|80:328,1,100,2|0,0:3|1:0,0:0:0:0:
32,236,64707,6,0,L|168:48,1,200,2|2,0:0|0:0,0:0:0:0:
244,40,65832,2,0,P|288:80|452:60,1,200,0|0,1:0|1:0,0:0:0:0:
508,136,66957,1,2,0:3:0:0:
492,236,67332,1,0,1:0:0:0:
400,272,67707,6,0,P|340:280|312:320,1,100,4|0,0:3|1:0,0:0:0:0:
232,364,68457,2,0,B|176:364|176:364|104:296|104:296|56:296,1,200,2|0,0:3|0:0,0:0:0:0:
20,204,69582,2,0,B|12:152|12:152|56:64|56:64|48:16,1,200,0|0,1:0|1:0,0:0:0:0:
148,24,70707,5,4,0:3:0:0:
176,120,71082,2,0,P|184:220|288:240,1,200,0|0,1:0|1:0,0:0:0:0:
356,200,72207,2,0,B|420:216|420:216|476:188,2,100,0|0|4,0:0|1:0|0:3,0:0:0:0:
480,40,73707,6,0,P|448:92|312:72,1,200,4|0,0:0|0:0,0:0:0:0:
240,28,74832,2,0,B|192:28|192:28|112:88|112:88|56:88,1,200,8|8,0:0|0:0,0:0:0:0:
0,168,75957,2,0,P|8:220|56:256,1,100,0|8,0:0|0:0,0:0:0:0:
136,224,76707,6,0,P|56:256|48:360,2,200,2|2|2,0:0|0:0|0:0,0:0:0:0:
236,224,78582,2,0,L|284:128,2,100,8|8|4,0:0|0:3|0:3,0:0:0:0:
312,292,79707,6,0,P|364:308|452:184,1,200,4|0,0:0|0:0,0:0:0:0:
464,116,80832,2,0,B|412:112|412:112|328:152|328:152|272:144,1,200,8|8,0:0|0:0,0:0:0:0:
176,128,81957,2,0,P|124:136|72:112,1,100,2|8,0:0|0:0,0:0:0:0:
72,20,82707,6,0,L|24:232,1,200,2|2,0:0|0:0,0:0:0:0:
80,300,83832,1,8,0:0:0:0:
172,340,84207,2,0,B|196:340|196:340|240:368|240:368|284:368,1,100,2|8,0:0|0:0,0:0:0:0:
361,368,84957,2,0,P|424:352|464:200,1,200,8|4,0:3|0:0,0:0:0:0:
456,140,86082,6,0,B|408:140|408:140|332:200|332:200|264:200,1,200,8|8,0:0|0:0,0:0:0:0:
176,184,87207,1,2,0:0:0:0:
76,172,87582,1,8,0:0:0:0:
112,264,87957,2,0,P|104:316|148:352,2,100,2|8|2,0:0|0:0|0:0,0:0:0:0:
76,172,89082,2,0,P|88:112|-8:20,2,200,8|8|8,0:0|0:0|0:0,0:0:0:0:
124,260,90957,6,0,P|176:288|244:268,1,100,8|4,0:3|0:3,0:0:0:0:
232,184,91707,2,0,L|272:380,2,200,4|0|0,0:0|0:0|0:0,0:0:0:0:
188,92,93582,1,8,0:0:0:0:
284,64,93957,2,0,P|352:60|400:12,1,100,2|8,0:0|0:0,0:0:0:0:
476,16,94707,6,0,P|488:80|392:184,1,200,2|2,0:0|0:0,0:0:0:0:
312,204,95832,2,0,P|252:224|236:364,1,200,8|8,0:0|0:0,0:0:0:0:
324,340,96957,2,0,P|384:328|424:352,1,100,2|8,0:3|0:0,0:0:0:0:
512,376,97707,1,4,0:3:0:0:
16,56,109707,6,0,P|64:124|120:144,1,100,2|8,0:0|0:0,0:0:0:0:
176,136,110457,2,0,P|256:144|316:248,1,200,2|0,0:0|0:0,0:0:0:0:
228,284,111582,2,0,L|440:184,1,200,8|8,0:0|0:0,0:0:0:0:
468,120,112707,5,2,0:0:0:0:
428,28,113082,1,8,0:0:0:0:
328,40,113457,2,0,P|272:56|224:48,1,100,0|8,0:0|0:0,0:0:0:0:
132,32,114207,2,0,P|224:48|240:164,1,200,2|2,0:0|0:0,0:0:0:0:
176,208,115332,1,8,0:0:0:0:
124,296,115707,6,0,P|172:328|216:320,1,100,4|8,0:0|0:0,0:0:0:0:
300,364,116457,2,0,P|220:316|292:268,1,200,2|2,0:0|0:0,0:0:0:0:
376,240,117582,1,8,0:0:0:0:
436,160,117957,2,0,P|424:104|456:52,1,100,2|8,0:0|0:0,0:0:0:0:
352,32,118707,6,0,B|288:64|288:160|336:192|336:192|320:256|256:275|192:256|176:192|176:192|224:160|224:64|160:32,1,600,0|8,0:0|0:3,0:0:0:0:
64,208,121707,5,4,0:0:0:0:
136,276,122082,2,0,B|192:276|192:276|256:336|256:336|316:336,1,200,8|8,0:0|0:0,0:0:0:0:
372,256,123207,2,0,L|348:158,2,100,2|8|2,0:0|0:0|0:0,0:0:0:0:
448,192,124332,6,0,P|424:92|324:56,1,200,8|8,0:0|0:0,0:0:0:0:
248,88,125457,2,0,P|172:84|140:12,2,150,0|2|8,0:0|0:0|0:0,0:0:0:0:
256,188,126957,5,8,0:3:0:0:
176,248,127332,1,4,0:3:0:0:
84,288,127707,2,0,L|68:180,1,100,4|8,0:0|0:0,0:0:0:0:
140,120,128457,2,0,B|184:116|184:116|264:156|264:156|356:144,2,200,2|2|2,0:0|0:0|0:0,0:0:0:0:
60,60,130332,5,8,0:0:0:0:
152,20,130707,2,0,P|208:32|272:12,1,100,0|8,0:0|0:0,0:0:0:0:
348,20,131457,2,0,B|372:68|372:68|468:108|468:108|496:148,1,200,2|2,0:0|0:0,0:0:0:0:
496,244,132582,1,8,0:0:0:0:
444,332,132957,1,8,0:3:0:0:
344,328,133332,1,4,0:3:0:0:
380,236,133707,6,0,P|340:204|276:204,1,100,4|8,0:0|0:0,0:0:0:0:
204,244,134457,2,0,P|148:260|56:220,2,150,0|2|8,0:0|0:0|0:0,0:0:0:0:
240,152,135957,2,0,P|220:96|336:36,1,200,2|2,0:3|0:0,0:0:0:0:
412,72,137082,5,8,0:0:0:0:
456,164,137457,2,0,B|456:212|456:212|420:264|420:264|420:328,2,150,2|2|8,0:3|0:0|0:0,0:0:0:0:
356,176,138957,5,8,0:3:0:0:
256,188,139332,1,4,0:3:0:0:
156,200,139707,1,4,0:0:0:0:
256,192,140082,12,4,145707,0:0:0:0:
