osu file format v5

[General]
AudioFilename: savethis.mp3
AudioLeadIn: 0
PreviewTime: -1
Countdown: 1
SampleSet: Normal
StackLeniency: 0.7
Mode: 0
LetterboxInBreaks: 1

[Metadata]
Title:Save This World
Artist:Phantasy Star Universe
Creator:SAKABA
Version:Half Kasumi
Source:
Tags:Game

[Difficulty]
HPDrainRate:4
CircleSize:5
OverallDifficulty:3
SliderMultiplier:0.999999999999999
SliderTickRate:1

[Events]
//Background and Video events
0,0,"13766(1).jpg"
1,0,"2536.wmv"
//Break Periods
//Storyboard Layer 0 (Background)
//Storyboard Layer 1 (Failing)
//Storyboard Layer 2 (Passing)
//Storyboard Layer 3 (Foreground)
//Storyboard Sound Samples
//Background Colour Transformations
3,100,163,162,255

[TimingPoints]
21214,413.793103448276,4,1,0,100,1,0
21214,-100,4,1,0,100,0,0

[HitObjects]
433,295,9835,2,0,B|325:136|193:107,1,300
203,110,11283,1,0
203,110,11490,2,0,B|403:270|390:261,1,225
390,260,12939,5,0
390,260,13145,5,0
390,260,13352,5,0
390,260,13559,6,0,B|465:197|384:129|277:112|217:196|292:262|404:268|404:267,1,350
123,233,16559,6,0,B|202:120|361:181|360:181,1,250
371,120,18111,1,8
387,146,18318,1,8
408,169,18525,1,8
431,196,18732,1,0
90,68,19456,6,0,B|139:139|138:139,1,74.9999999999999
153,171,19972,1,0
188,214,20179,1,0
241,298,20801,1,0
217,60,21317,6,0,B|301:60|302:59|302:59|302:185|301:186|303:187|304:188,1,200
301,173,22455,2,0,B|419:173|419:173|419:320,1,250
108,266,29903,5,0
134,238,30110,1,0
160,206,30317,1,0
188,180,30524,2,0,B|244:109|244:108|326:156,1,150
343,165,31662,5,0
373,207,31869,1,0
405,248,32076,1,0
371,288,32282,1,0
336,327,32489,1,0
302,297,32696,1,0
268,266,32903,2,0,B|133:112|133:112|194:62|194:62|336:219,1,475
188,59,35489,6,0,B|259:59,1,50
223,113,35903,2,0,B|296:113,1,50
259,170,36317,2,0,B|328:170,1,50
337,169,36834,2,0,B|365:294|356:300|133:323|132:322|87:180,1,400
91,192,38696,1,0
120,158,38903,1,0
153,121,39110,1,0
194,76,39524,6,0,B|193:76|264:133|264:133|294:233|294:234|294:234|392:318|392:318|298:237,1,425
73,52,43351,5,0
72,109,43558,1,0
69,212,43765,2,0,B|70:213|70:321|70:321|229:48|230:48,1,425
254,71,45938,6,0,B|254:73,1,50
253,120,46351,6,0,B|255:55,1,50
254,70,46765,6,0,B|254:189,1,99.9999999999999
254,170,47386,6,0,B|254:245|254:245|254:60,1,250
254,170,48627,6,0,B|254:258,1,74.9999999999999
253,271,49351,5,0
288,234,49765,2,0,B|383:125|383:125|136:125,1,375
152,125,51627,2,0,B|152:173|152:173|152:172,1,25
152,150,51834,2,0,B|192:150,1,25
177,150,52041,2,0,B|177:108,1,25
177,125,52248,2,0,B|144:120,1,25
164,137,52972,2,0,B|165:137,1,74.9999999999999
239,137,53593,1,0
262,137,53696,1,0
320,136,54214,1,0
349,136,54420,1,0
399,137,54731,2,0,B|467:90|467:90|386:87,1,150
97,198,58145,5,0
123,171,58351,1,0
153,140,58558,1,0
191,97,59076,1,0
229,55,59489,1,0
271,99,59903,1,0
308,143,60317,2,0,B|309:144|410:251,1,125
102,254,61351,5,0
133,223,61558,1,0
163,193,61765,1,0
190,165,61972,2,0,B|235:116,1,50
248,104,62386,1,0
275,131,62593,2,0,B|313:166,1,50
336,191,63007,2,0,B|374:225,1,50
398,246,63420,2,0,B|400:247|460:298|460:298|323:300,1,200
412,71,64662,5,0
382,110,64869,2,0,B|340:165,1,50
319,195,65282,2,0,B|278:249,1,50
127,80,66317,1,0
127,80,66524,1,0
127,80,66731,1,0
127,80,66938,2,0,B|213:166,1,99.9999999999999
197,150,67558,2,0,B|241:196,1,50
231,185,67972,2,0,B|273:147,1,50
441,141,68386,6,0,B|375:275|375:275|225:328|225:328|101:261|100:261|99:262|73:152,1,549.999999999999
74,159,70869,2,0,B|76:159,1,50
150,161,71282,2,0,B,1,25
388,79,71696,5,0
352,123,71903,1,0
321,167,72110,1,0
293,214,72317,2,0,B|250:269|251:270,1,50
222,221,72731,1,0
181,186,72938,2,0,B,1,50
107,113,73351,2,0,B|171:59,1,74.9999999999999
198,60,74489,6,0,B|199:61|266:61,1,50
231,114,74903,2,0,B|293:114,1,50
260,170,75317,2,0,B|321:170,1,50
310,170,75731,2,0,B|240:53,1,125
245,62,76455,2,0,B|316:178|316:178|250:168,1,200
252,168,77489,1,0
314,168,77903,5,0
279,121,78110,1,0
252,168,78317,1,0
314,168,78524,1,0
279,121,78731,2,0,B|191:248|191:248|192:247,1,150
193,244,79455,2,0,B|342:244,1,125
150,81,80282,6,0,B|149:81|149:140,1,50
204,55,80696,2,0,B|204:118,1,50
204,105,81110,2,0,B|204:206|204:206|281:206|281:206|282:210,1,175
278,206,82041,1,0
128,159,82869,5,0
185,160,83076,1,0
238,160,83282,1,0
296,161,83489,2,0,B|410:161,1,99.9999999999999
396,161,84110,1,0
396,161,84317,2,0,B|292:161,1,99.9999999999999
243,161,84938,1,0
186,161,85145,1,0
128,164,85351,2,0,B|126:109|126:109|401:110,1,325
