osu file format v9

[General]
AudioFilename: snow_light_night.mp3
AudioLeadIn: 1996
PreviewTime: 21880
Countdown: 0
SampleSet: Soft
StackLeniency: 0.7
Mode: 0
LetterboxInBreaks: 1

[Editor]
Bookmarks: 19480,21880,43480,65080,93980,103480,113080,119080
DistanceSpacing: 1
BeatDivisor: 4
GridSize: 4

[Metadata]
Title:Snow Light Night
Artist:Phantasma
Creator:Blue Dragon
Version:Relaxing
Source:
Tags:fabriciorby

[Difficulty]
HPDrainRate:2
CircleSize:3
OverallDifficulty:2
ApproachRate:3
SliderMultiplier:0.8
SliderTickRate:1

[Events]
//Background and Video events
0,0,"blue-winter-snow-trees.jpg"
//Break Periods
2,103680,111640
//Storyboard Layer 0 (Background)
//Storyboard Layer 1 (Fail)
//Storyboard Layer 2 (Pass)
//Storyboard Layer 3 (Foreground)
//Storyboard Sound Samples
//Background Colour Transformations
3,100,163,162,255

[TimingPoints]
280,400,3,2,1,70,1,0
6280,-100,3,2,0,70,0,0
7480,-100,3,2,1,70,0,0
13480,-100,3,2,0,70,0,0
14680,-100,3,2,1,70,0,0
15880,-100,3,2,0,70,0,0
16480,-100,3,2,1,70,0,0
21880,-100,3,2,1,70,0,1
41080,-100,3,2,1,70,0,0
65080,-100,3,2,1,70,0,1
84280,-100,3,2,1,70,0,0
103480,-100,3,2,1,70,0,0
113080,-100,3,2,1,35,0,0
121480,-133.333333333333,3,2,1,35,0,0
122680,-100,3,2,1,70,0,0
144280,-100,3,2,1,70,0,1
163380,-100,3,2,1,70,0,0
163480,-100,3,2,1,70,0,1
182680,-100,3,2,1,70,0,0
187480,-100,3,2,1,5,0,0

[Colours]
Combo1 : 204,147,255
Combo2 : 9,169,198
Combo3 : 180,234,245
Combo4 : 19,117,236

[HitObjects]
216,112,280,2,0,B|173:115|145:79,2,80,6|0|2
296,112,1480,2,0,B|338:115|366:79,2,80,6|0|2
232,160,2680,6,0,B|184:180|176:228|184:276|228:304,1,160,6|2
256,364,3880,1,6
296,292,4280,1,0
216,292,4680,1,2
297,293,5080,6,0,B|328:276|336:228|328:180|280:160,1,160,6|2
200,164,6280,2,0,B|156:188|124:160,1,80,6|0
168,92,7080,2,0,B|212:68|244:96,1,80,2|6
280,164,7880,2,0,B|310:190|354:166,1,80,0|2
397,97,8680,2,0,B|366:70|322:94,1,80,0|2
256,52,9480,1,2
204,112,9880,6,0,B|140:172,2,80,6|0|2
256,172,11080,2,0,B|256:264,2,80,6|0|2
308,112,12280,2,0,B|372:172,2,80,6|0|2
256,172,13480,1,6
216,240,13880,1,0
296,240,14280,1,2
256,172,14680,6,0,B|340:144,1,80,6|0
256,172,15480,2,0,B|172:144,1,80,2|4
256,52,16480,2,0,B|256:-4,2,40,0|2|0
256,52,17080,6,0,B|256:132,1,80,6|0
176,132,17880,2,0,B|136:208,1,80,2|6
212,240,18680,2,0,B|212:328,1,80,0|2
300,320,19480,2,0,B|300:240,1,80,6|0
373,202,20280,2,0,B|336:132,1,80,0|2
156,288,21880,6,0,B|64:276,1,80,6|0
52,204,22680,2,0,B|144:192,1,80,2|6
156,116,23480,2,0,B|64:104,2,80,0|2|6
216,168,24680,1,0
256,236,25080,2,0,B|256:328,2,80,2|6|0
296,168,26280,1,2
352,108,26680,6,0,B|444:120,1,80,6|0
456,192,27480,2,0,B|364:204,1,80,2|6
352,280,28280,2,0,B|444:292,2,80,0|2|6
312,352,29480,1,0
264,288,29880,1,2
216,224,30280,1,6
168,160,30680,1,0
120,96,31080,1,2
82,167,31480,6,0,B|44:148|40:104,2,80,4|0|2
100,244,32680,2,0,B|61:263|57:307,2,80,4|0|2
136,316,33880,2,0,B|216:316,1,80,6|0
256,248,34680,2,0,B|256:204,2,40,2|0|6
296,316,35480,2,0,B|376:316,1,80,0|2
416,244,36280,6,0,B|439:271|491:259,1,80,6|0
464,184,37080,2,0,B|464:104,1,80,2|6
296,32,38680,6,0,B|208:32,1,80,6|0
256,112,39480,1,2
336,112,39880,2,0,B|416:112,1,80,6|0
376,192,40680,1,2
296,192,41080,2,0,B|208:192,1,80,4|0
256,272,41880,1,2
216,352,42280,2,0,B|304:352,2,80,0|2|0
136,348,43480,6,0,B|80:348|52:304|52:260|76:224,1,160,6|2
140,272,44680,2,0,B|220:272,1,80,6|0
300,272,45480,1,2
380,272,45880,2,0,B|436:272|460:228|464:184|440:140,1,160,6|2
376,196,47080,2,0,B|296:196,1,80,6|0
216,196,47880,1,2
136,196,48280,6,0,B|80:196|56:152|52:108|76:64,1,160,6|2
140,120,49480,2,0,B|220:120,1,80,6|0
300,120,50280,2,0,B|392:120,1,80,2|6
380,200,51080,2,0,B|300:200,1,80,0|2
220,200,51880,2,0,B|128:200,1,80,6|0
60,192,52680,1,2
60,192,53080,6,0,B|52:236|60:280,1,80,6|0
12,336,53880,1,2
92,344,54280,2,0,B|132:352|172:344,1,80,6|0
180,264,55080,1,2
256,232,55480,2,0,B|256:196|256:152,1,80,6|0
332,120,56280,1,2
340,39,56681,2,0,B|384:32|420:40,1,80,6|0
476,96,57480,1,0
475,96,57880,6,0,B|464:136|420:148,1,80,6|0
340,168,58680,1,2
296,236,59080,1,6
216,236,59480,1,0
172,168,59880,1,2
256,160,60280,2,0,B|256:80,1,80,6|0
188,36,61080,6,0,B|116:88,1,80,2|6
184,136,61880,2,0,B|136:216,1,80,0|2
220,228,62680,2,0,B|228:316,1,80,6|0
168,360,63480,1,0
88,372,63880,1,4
48,216,64680,5,2
32,136,65080,1,4
100,88,65480,6,0,B|128:144|188:172|240:124,1,160,2|6
184,68,66680,1,0
256,32,67080,1,2
328,68,67480,1,6
280,131,67880,6,0,B|328:164|384:148|412:80,2,160,2|6|2
216,176,69880,2,0,B|172:200|172:284|216:316,1,160,6|2
297,316,71080,2,0,B|341:292|341:208|297:176,1,160,6|2
300,92,72280,6,0,B|380:44,2,80,6|0|2
212,92,73480,2,0,B|132:44,2,80,6|0|2
164,156,74680,6,0,B|115:158|68:220|103:280,1,160,6|2
176,240,75880,2,0,B|256:240|336:240,1,160,6|2
348,156,77080,6,0,B|397:158|444:220|409:280,1,160,6|2
336,324,78280,2,0,B|256:324|176:324,1,160,6|2
96,308,79480,6,0,B|20:248|64:164,1,160,6|2
128,216,80680,2,0,B|170:134|94:74,1,160,6|2
160,28,81880,6,0,B|252:24,1,80,6|0
216,104,82680,2,0,B|308:100,1,80,2|6
276,180,83480,2,0,B|368:176,1,80,0|2
428,140,84280,6,0,B|452:184|436:268|352:264|304:264|304:264|224:264|224:264|124:264,1,400,6|2
52,228,86680,6,0,B|24:272|44:328|80:352|144:348|144:348|192:348,1,240,6|6
216,276,88280,1,0
296,276,88680,1,2
318,348,89080,2,0,B|368:348|368:348|432:352|468:328|488:272|460:228,1,240,6|6
324,156,91080,5,2
356,84,91480,2,0,B|328:28|256:12|184:28|156:84,1,240,6|6
188,157,93080,2,0,B|168:192,2,40,0|0|2
190,157,93880,6,0,B|234:117|290:117|334:157,1,160,6|2
334,237,95080,2,0,B|289:277|233:277|189:237,1,160,6|2
112,200,96280,6,0,B|84:288|176:330,1,160,6|2
256,308,97480,2,0,B|256:224,2,80,6|0|2
335,326,98680,6,0,B|428:292|400:200,1,160,6|2
360,132,99880,2,0,B|196:128,1,160,6|2
184,48,101080,2,0,B|348:52,1,160,6|2
256,192,102080,12,2,103480
160,80,113080,6,0,B|189:39|248:39|264:80|280:120|339:120|369:80,2,240,2|2|2
84,112,115880,1,0
84,192,116280,1,2
84,272,116680,2,4,B|248:272,1,160,2|0
324,272,117880,5,4
380,216,118280,1,0
380,136,118680,1,2
308,100,119080,6,0,B|243:83|197:137|211:188,1,160,4|2
291,182,120280,2,4,B|133:196,1,160,4|2
59,232,121480,6,0,B|24:284|56:348,1,119.999996423721,4|0
136,336,122680,5,6
216,336,123080,1,0
264,272,123480,1,2
256,191,123880,2,0,B|296:180|334:191,2,80,4|0|2
248,112,125080,5,4
296,48,125480,1,0
376,48,125880,1,2
424,112,126280,2,0,B|424:272,1,160,2|0
388,344,127480,6,0,B|416:372|468:372,2,80,2|0|4
328,292,128680,2,0,B|300:264|300:212,2,80,2|0|4
288,360,129880,2,0,B|128:360,1,160,2|4
52,332,131080,1,0
100,268,131480,2,0,B|100:188,1,80,2|0
116,108,132280,6,0,B|188:28|342:61|375:216|296:288,1,400,4|2
215,287,134680,2,0,B|136:216|169:61|323:28|396:108,1,400,4|0
412,188,137080,6,0,B|443:212|442:254|411:279|393:285|393:285|387:303|362:333|320:334|296:303,1,240,4|2
136,304,139080,1,0
96,236,139480,6,0,B|16:236,2,80,2|0|2
152,179,140680,2,0,B|232:179,2,80,0|2|0
95,122,141880,6,0,B|15:122,2,80,2|0|2
151,65,143080,2,0,B|315:65,1,160,2|0
392,60,144280,6,4,B|416:100|392:136,1,80,6|0
328,180,145080,2,0,B|284:180,2,40,0|0|2
400,212,145880,1,0
440,280,146280,2,0,B|440:360,1,80,2|6
360,368,147080,6,0,B|316:368,2,40,0|0|2
360,288,147880,1,4
296,240,148280,1,0
216,240,148680,1,2
152,288,149080,6,0,B|52:251|24:95|155:7|252:54,1,400,4|2
324,92,151480,1,6
384,144,151880,1,0
464,160,152280,2,0,B|488:240,1,80,2|6
492,316,153080,1,0
414,334,153480,1,2
360,276,153880,6,0,B|331:235|272:235|256:276|240:316|181:316|151:276,1,240,6|2
84,232,155480,1,0
84,152,155880,1,2
150,108,156280,6,0,B|181:68|240:68|256:108|272:149|331:149|360:108,1,240,6|2
400,36,157880,1,0
480,36,158280,1,2
484,116,158680,6,0,B|484:196,1,80,6|0
404,212,159480,1,0
324,224,159880,2,0,B|324:304,1,80,2|0
256,348,160680,1,0
200,292,161080,2,0,B|120:292,2,80,2|0|2
256,232,162280,1,2
128,108,163080,5,0
200,142,163480,2,0,L|211:62|277:131|368:115|324:196|368:275|276:260|212:324|200:236|120:200|177:163,1,880,4|2
256,192,168280,12,4,170680
208,20,171480,6,0,B|164:16|136:48,2,80,0|2|0
292,24,172680,1,2
368,52,173080,6,4,B|467:149|494:306|372:403|247:475|142:462|-33:271|-12:88|94:-12|323:-94|402:55|542:217|364:358|178:389|199:219|214:176|247:191,1,1200
260,16,179880,5,0
180,20,180280,2,2,B|76:52|24:156|25:267|88:352,1,400
88,352,182680,1,4
256,192,183080,12,0,187480
