osu file format v9

[General]
AudioFilename: snow_light_night.mp3
AudioLeadIn: 1996
PreviewTime: 21880
Countdown: 0
SampleSet: Soft
StackLeniency: 0.7
Mode: 0
LetterboxInBreaks: 1

[Editor]
Bookmarks: 21880,43480,65080,93980,103480,113080,135080
DistanceSpacing: 0.9
BeatDivisor: 4
GridSize: 4

[Metadata]
Title:Snow Light Night
Artist:Phantasma
Creator:Blue Dragon
Version:Difficult
Source:
Tags:fabriciorby

[Difficulty]
HPDrainRate:6
CircleSize:4
OverallDifficulty:7
ApproachRate:7
SliderMultiplier:1.6
SliderTickRate:1

[Events]
//Background and Video events
0,0,"blue-winter-snow-trees.jpg"
//Break Periods
2,103680,112180
//Storyboard Layer 0 (Background)
//Storyboard Layer 1 (Fail)
//Storyboard Layer 2 (Pass)
//Storyboard Layer 3 (Foreground)
//Storyboard Sound Samples
//Background Colour Transformations
3,100,163,162,255

[TimingPoints]
280,400,3,2,1,70,1,0
6280,-100,3,2,0,70,0,0
7480,-100,3,2,1,70,0,0
21880,-100,3,2,1,70,0,1
41080,-100,3,2,1,70,0,0
64680,-133.333333333333,3,2,1,70,0,0
65080,-100,3,2,1,70,0,1
83880,-200,3,2,1,70,0,1
84280,-100,3,2,1,70,0,0
113080,-133.333333333333,3,2,1,70,0,0
121480,-200,3,2,1,70,0,0
139480,-133.333333333333,3,2,1,70,0,0
144280,-100,3,2,1,70,0,1
163380,-100,3,2,1,70,0,0
163480,-100,3,2,1,70,0,1
182280,-100,3,2,1,35,0,1
182680,-100,3,2,1,20,0,0

[Colours]
Combo1 : 204,147,255
Combo2 : 9,169,198
Combo3 : 180,234,245
Combo4 : 19,117,236

[HitObjects]
40,72,280,2,0,B|72:25|143:25|175:72,1,160,6|0
156,144,880,1,0
196,204,1080,2,0,B|196:284,1,80,2|0
248,332,1480,6,4,B|408:332,1,160,6|0
460,284,2080,1,0
396,252,2280,2,0,B|368:246|354:213|369:189,1,80,2|0
396,120,2680,6,0,B|406:63|355:12|300:22,1,160,6|0
256,80,3280,1,0
212,22,3480,2,0,B|156:12|105:63|116:120,1,160,2|4
256,324,4280,1,2
396,120,4680,1,0
24,192,5080,6,0,B|40:215|75:215|92:191,1,80,6|0
140,137,5480,2,0,B|156:113|191:113|208:137,1,80,2|0
256,192,5880,2,0,B|288:238|359:238|392:191,2,160,2|4|2
256,48,7080,1,2
472,28,7480,6,6,B|400:64,1,80,6|0
440,124,7880,2,6,B|368:160,1,80,2|0
408,220,8280,1,2
328,340,8680,1,0
184,340,9080,1,2
104,220,9480,1,0
104,36,9880,6,0,B|120:84|168:92|201:74,1,120,4|0
236,59,10280,2,0,B|260:28|307:31,1,80,2|0
348,92,10680,1,2
416,116,10880,1,0
488,104,11080,6,0,B|488:184,1,80,6|0
416,184,11480,2,0,B|359:240,1,80,2|0
308,189,11880,2,0,B|228:189,1,80,2|0
179,132,12280,6,6,B|136:140|105:112,1,80,6|0
8,176,12680,2,2,B|51:168|82:195,1,80,2|0
152,220,13080,2,0,B|167:307|113:369,1,160,0|6
400,368,13880,1,2
113,369,14280,1,0
216,16,14680,6,6,B|216:180,1,160,6|2
272,220,15280,1,0
304,156,15480,2,0,B|320:133|355:133|372:157,1,80,2|0
436,192,15880,5,6
40,272,16480,5,2
108,292,16680,1,0
156,348,16880,1,0
228,348,17080,6,2,B|320:352,1,80,6|0
384,264,17480,2,2,B|292:268,1,80,2|0
228,180,17880,2,2,B|320:184,1,80,2|0
372,148,18280,1,2
404,84,18480,1,0
376,16,18680,1,2
304,8,18880,1,0
256,60,19080,2,0,B|256:144,1,80,2|0
208,8,19480,5,2
136,16,19680,1,0
108,84,19880,1,2
140,148,20080,1,0
200,188,20280,2,0,B|200:272,1,80,2|0
256,312,20680,1,0
448,72,21880,6,6,B|380:32,1,80,6|0
348,96,22280,2,6,B|269:84,1,80,2|0
272,156,22680,2,6,B|195:175,1,80,2|0
216,244,23080,6,0,B|223:285|186:321|143:314,1,120,6|0
107,299,23480,2,0,B|64:288|34:318,1,80,2|0
0,384,23880,1,2
8,219,24280,6,6,B|60:180|56:115,1,120,6|0
81,90,24680,2,2,B|128:93|144:52,1,80,2|0
212,28,25080,1,2
280,56,25280,1,0
308,124,25480,6,6,B|336:156|380:148,1,80,6|0
492,184,25880,2,0,B|464:215|419:208,1,80,2|0
308,244,26280,2,0,B|335:275|380:268,1,80,2|0
268,344,26680,6,6,B|148:352,1,120,6|0
111,344,27080,2,0,B|67:333|63:287,1,80,2|0
164,196,27480,2,0,B|208:207|212:252,1,80,2|0
47,175,27880,6,6,B|12:120|51:63,1,120,6|0
76,36,28280,2,6,B|112:12|149:38,1,80,2|0
280,96,28680,2,6,B|243:119|206:93,1,80,2|0
332,32,29080,6,6,B|412:48,1,80,6|0
488,104,29480,2,6,B|410:120,1,80,2|0
331,176,29880,2,6,B|410:192,1,80,2|0
488,252,30280,2,0,B|331:283,2,160,0|2|0
220,356,31480,6,6,B|152:370|114:317,1,120,6|0
96,276,31880,1,2
128,136,32080,1,0
150,266,32280,1,2
73,145,32480,1,0
152,48,32680,6,6,B|199:-2|260:21,1,120,6|0
299,44,33080,1,2
351,178,33280,1,0
259,82,33480,1,2
391,141,33680,1,0
452,256,33880,6,2,B|400:364,1,120,6|0
364,372,34280,1,2
296,344,34480,1,0
228,364,34680,1,2
164,332,34880,1,0
135,267,35080,6,0,B|156:228|199:227,1,80,2|0
250,50,35480,2,0,B|274:87|252:125,1,80,2|0
381,257,35880,2,0,B|337:260|315:222,1,80,2|0
388,52,36280,6,2,B|388:176,1,120,6|0
424,184,36680,1,2
464,244,36880,1,0
444,312,37080,1,2
376,336,37280,1,0
316,300,37480,5,4
112,332,38080,5,2
76,268,38280,1,0
100,200,38480,1,0
148,148,38680,6,2,B|104:76,1,80,6|0
212,104,39080,2,2,B|205:24,1,80,2|0
300,104,39480,2,2,B|306:24,1,80,2|0
364,148,39880,2,0,B|446:12,2,160,0|2|0
384,292,41080,5,2
328,340,41280,1,0
256,356,41480,1,2
184,340,41680,1,0
128,292,41880,1,2
128,92,42280,5,2
184,44,42480,1,0
256,28,42680,1,2
328,44,42880,1,0
384,92,43080,1,2
48,192,43480,6,6,B|103:223|104:162|160:193,1,120,6|0
180,224,43880,2,0,B|212:296,1,80,2|0
332,224,44280,2,0,B|299:297,1,80,2|0
350,194,44680,6,6,B|407:162|408:223|464:192,1,120,6|0
488,166,45080,1,2
412,44,45480,2,0,B|387:53,3,26.6666666666667,2|0|0|0
316,76,45880,6,0,B|236:96,1,80,6|0
187,44,46280,2,0,B|107:64,1,80,2|0
60,116,46680,1,0
40,184,46880,1,0
64,252,47080,1,2
124,288,47280,1,0
196,284,47480,2,0,B|360:284,1,160,2|0
292,156,48280,6,0,B|372:156,1,80,6|0
206,178,48680,2,0,B|166:109,1,80,2|0
269,241,49080,2,0,B|229:310,1,80,2|0
237,121,49480,6,0,B|277:52,1,80,6|0
204,243,49880,2,0,B|124:243,1,80,2|0
291,201,50280,2,0,B|311:236,3,26.6666666666667,2|0|0|0
412,136,50680,6,2,B|438:139|458:167|450:195,1,80,2|0
380,200,51080,1,0
340,140,51280,2,0,B|313:136|293:108|301:80,2,80,2|0|2
372,76,51880,2,0,B|528:40,2,160,2|2|2
316,28,52880,1,0
244,20,53080,5,4
171,20,53280,2,0,B|148:60|105:56,1,80
0,160,53680,2,0,B|23:120|66:124,2,80,0|2|0
104,192,54280,2,0,B|151:270|236:263,2,160,4|2|0
160,144,55280,1,0
228,116,55480,6,0,B|312:116,1,80,2|0
276,196,55880,2,0,B|356:196,1,80,0|2
324,276,56280,2,0,B|404:276,1,80,2|0
476,264,56680,6,4,B|536:192|476:120,1,160,4|0
436,60,57280,1,0
364,76,57480,2,4,B|328:106|292:76,1,80,2|0
224,48,57880,6,4,B|152:-12|80:48,1,160,4|0
44,112,58480,1,0
94,162,58680,2,4,B|98:209|144:213,1,80,2|0
304,264,59080,2,4,B|304:208|256:160|200:168,2,160,4|2|0
352,320,60080,1,0
424,316,60280,6,4,B|496:356,1,80,4|0
396,232,60680,2,4,B|474:246,1,80,0|2
348,156,61080,2,0,B|428:156,1,80
280,108,61480,2,0,B|349:69,1,80,2|0
196,88,61880,2,0,B|244:20,1,80,2|0
116,112,62280,2,0,B|124:32,1,80,2|0
68,176,62680,6,0,B|80:231|145:258|193:226,1,160,6|2
264,240,63280,1,0
320,284,63480,1,0
344,352,63680,1,0
416,352,63880,6,0,B|500:352,1,80,2|0
416,272,64280,2,0,B|500:272,1,80,2|0
456,192,64680,6,0,B|456:64,1,119.999996423721,2|4
296,120,65480,6,0,B|320:44,1,80,2|0
199,131,65880,2,0,B|135:85,1,80,2|0
181,226,66280,2,0,B|117:274,1,80,2|0
265,273,66680,2,0,B|291:349,1,80,2|0
336,207,67080,2,0,B|416:207,1,80,2|0
256,192,67480,5,4
134,85,67880,6,0,B|199:131,1,80,2|0
116,274,68280,2,0,B|181:226,1,80,2|0
291,349,68680,2,0,B|265:273,1,80,2|0
416,207,69080,2,0,B|336:207,1,80,2|0
320,43,69480,2,0,B|296:119,1,80,2|0
256,192,69880,5,4
128,40,70280,6,0,B|120:83|80:99,1,80,2|0
80,171,70680,2,0,B|40:186|32:230,1,80,2|0
83,281,71080,2,0,B|127:270|150:309|150:309|174:348|218:338,1,160,4|2
256,276,71680,1,0
292,338,71880,2,0,B|337:348|361:309|361:309|384:270|429:281,2,160,2|4|2
256,276,72880,2,0,B|256:244,3,26.6666666666667,0|0|0|2
256,177,73280,1,0
292,116,73480,6,0,B|372:116,1,80,2|0
220,116,73880,2,0,B|140:116,1,80,2|0
176,44,74280,2,2,B|334:44,1,160,2|4
320,240,75080,6,0,B|288:275|305:313,1,80,2|0
230,267,75480,2,0,B|186:248|155:276,1,80,0|0
176,190,75880,2,0,B|180:143|144:122,1,80,2|0
232,115,76280,2,0,B|278:105|287:64,1,80,0|0
321,145,76680,2,0,B|345:186|387:182,1,80,2|0
256,192,77080,5,4
334,70,77480,6,0,B|351:108|320:144,1,80,2|0
164,79,77880,2,0,B|206:75|230:116,1,80,0|0
120,244,78280,2,0,B|129:203|176:193,1,80,2|0
263,336,78680,2,0,B|227:315|232:268,1,80,0|0
396,229,79080,2,0,B|364:256|321:238,1,80,2|0
256,192,79480,5,4
64,192,79880,5,2
76,120,80080,1,0
124,68,80280,1,0
184,32,80480,1,0
256,20,80680,1,0
328,32,80880,1,0
388,68,81080,1,0
436,120,81280,1,0
448,192,81480,1,2
332,276,81880,6,0,B|256:320|180:276,1,160,2|0
200,208,82480,1,0
256,164,82680,2,0,B|256:136,3,26.6666666666667,2|0|0|0
216,76,83080,6,0,B|189:61|167:61|141:76,1,80,2|0
296,76,83480,2,0,B|322:61|344:61|370:76,1,80,2|0
334,138,83880,1,2
178,138,84280,1,6
36,164,84680,6,0,B|75:187|64:232,1,80,2|0
120,280,85080,2,0,B|159:303|148:348,1,80,2|0
218,366,85480,2,0,B|252:362|282:331|271:309|256:301|240:309|229:331|259:362|293:366,2,160,6|0|2
476,164,86680,6,0,B|436:187|447:232,1,80,6|0
392,280,87080,2,0,B|352:303|363:348,1,80,2|0
296,368,87480,2,0,B|216:368,1,80,2|0
216,296,87880,2,0,B|296:296,1,80,6|0
255,224,88280,2,0,B|228:187|255:151|255:151|283:114|257:77,1,160,2|2
200,32,88880,1,0
132,52,89080,6,0,B|76:41|25:91|36:147,1,160,6|0
68,212,89680,1,0
136,240,89880,2,0,B|136:324,1,80,2|0
216,352,90280,2,0,B|216:272,1,80,2|0
296,272,90680,2,0,B|296:352,1,80,0|2
376,319,91080,2,0,B|376:159,1,160,0|6
296,40,91880,6,0,B|376:40,1,80,2|0
216,40,92280,2,0,B|136:40,1,80,0|2
176,120,92680,2,0,B|336:120,2,160,2|0|2
124,172,93680,1,0
120,244,93880,6,0,B|109:301|159:351|215:340,1,160,6|0
295,340,94480,2,0,B|352:350|402:300|391:243,1,160,2|0
348,184,95080,2,0,B|372:108,1,80,2|0
320,28,95480,2,0,B|296:104,1,80,0|2
216,104,95880,2,0,B|192:28,1,80,0|2
139,107,96280,6,0,B|188:260,1,160,6|0
143,316,96880,2,0,B|155:259|221:232|268:264,1,160,2|0
244,336,97480,2,0,B|291:367|357:341|369:284,1,160,2|0
424,236,98080,1,0
356,211,98280,2,0,B|404:58,1,160,2|4
199,76,99080,6,0,B|184:120|138:116,1,80,2|0
328,85,99480,2,0,B|282:93|262:52,1,80,2|0
384,201,99880,2,0,B|354:165|380:127,1,80,2|0
312,307,100280,2,0,B|328:264|373:267,1,80,2|0
183,298,100680,2,0,B|229:290|249:331,1,80,2|0
127,182,101080,1,4
261,50,101480,6,0,B|307:41|327:83,1,80,2|0
136,116,101880,2,0,B|151:72|197:76,1,80,2|0
130,257,102280,2,0,B|100:222|126:184,1,80,2|0
250,333,102680,2,0,B|204:342|184:300,1,80,2|0
376,268,103080,2,0,B|360:311|314:307,1,80,2|0
381,126,103480,1,4
88,92,113080,5,2
95,165,113280,1,0
155,124,113480,1,0
199,68,113680,2,0,B|256:32|312:68,1,119.999996423721,2|0
424,92,114280,5,2
417,165,114480,1,0
357,124,114680,1,0
311,179,114880,2,0,B|256:216|199:180,1,119.999996423721,2|0
94,238,115480,6,0,B|120:252|151:236,1,59.9999982118607,2|0
180,304,115880,1,0
220,364,116080,1,2
292,364,116280,1,0
332,304,116480,1,0
417,238,116680,2,0,B|392:252|360:236,1,59.9999982118607,2|0
256,252,117080,5,2
208,200,117280,2,0,B|172:148,1,59.9999982118607,0|2
304,200,117680,2,0,B|340:148,1,59.9999982118607,2|0
256,52,118080,2,0,B|256:120,1,59.9999982118607,2|0
56,120,118480,6,0,B|156:54,1,119.999996423721,2|0
200,148,119080,1,2
252,240,119280,2,0,B|252:300,1,59.9999982118607
355,328,119680,6,0,B|456:264,1,119.999996423721,2|0
352,192,120280,1,2
224,232,120480,2,0,B|284:232,1,59.9999982118607
160,192,120880,1,2
284,152,121080,2,0,B|224:152,1,59.9999982118607
256,40,121480,2,0,B|256:80,4,40,2|0|0|0|2
256,40,122480,1,2
184,64,122680,6,0,B|96:84,1,80,6|0
52,36,123480,1,2
172,153,123880,6,0,B|88:188,1,80,6|0
34,153,124680,1,2
214,231,125080,6,0,B|138:280,1,80,6|0
77,255,125880,1,2
256,148,126280,6,0,B|256:64,2,80,2|2|2
328,320,127480,6,0,B|416:300,1,80,6|0
460,348,128280,1,2
339,230,128680,6,0,B|423:195,1,80,6|2
477,230,129480,1,2
297,152,129880,6,0,B|373:103,1,80,6|0
434,128,130680,1,2
216,48,131080,6,0,B|296:48,2,80,2|2|2
184,136,132280,6,0,B|176:156|176:176,1,40,2|0
243,282,132680,2,0,B|264:279|282:269,1,40,2|0
340,157,133080,2,0,B|327:140|309:130,1,40,2|0
143,237,133480,6,0,B|161:260|184:273,1,40,2|0
351,266,133880,2,0,B|362:239|362:213,1,40,2|0
272,71,134280,2,0,B|244:76|221:89,1,40,2|0
160,64,134680,5,2
193,339,135080,1,0
414,172,135480,1,2
92,121,135880,5,2
263,366,136280,1,2
373,94,136680,1,2
139,94,137080,5,2
176,156,137280,1,0
248,148,137480,1,2
300,200,137680,1,0
292,272,137880,1,2
354,309,138080,1,0
420,292,138280,5,6
312,104,138880,5,2
256,56,139080,1,0
204,104,139280,1,0
192,176,139480,2,0,B|116:176,1,59.9999982118607,2|0
256,204,139880,1,0
320,176,140080,2,0,B|396:176,1,59.9999982118607,0|2
256,136,140480,1,0
288,56,140680,2,0,B|228:56,1,59.9999982118607,2|0
136,120,141080,6,0,B|8:120,2,119.999996423721,2|0|2
376,264,142280,2,0,B|496:264,2,119.999996423721,0|2|0
44,120,143480,5,0
468,120,143880,1,2
44,120,144280,6,6,B|124:136,1,80,6|0
200,192,144680,2,6,B|122:208,1,80,2|0
43,264,145080,2,6,B|122:280,1,80,2|0
312,280,145480,6,6,B|390:264,1,80,6|0
468,208,145880,2,6,B|389:191,1,80,2|0
311,136,146281,2,6,B|389:120,1,80,2|0
112,264,146680,6,0,B|36:208,1,80,6|0
123,125,147080,2,0,B|168:192,1,80,2|0
256,176,147480,2,0,B|256:92,1,80,2|0
388,125,147880,2,0,B|344:192,1,80,6|0
400,264,148280,2,0,B|464:216,1,80,2|0
388,124,148680,5,2
124,124,149080,1,6
360,44,149480,2,0,B|312:72|304:136,1,80,0|2
152,44,149880,2,0,B|200:72|208:136,1,80,0|2
256,48,150280,1,6
332,268,150680,6,0,B|252:264,1,80,2|0
336,340,151080,2,0,B|388:340|428:280|388:216,2,160,2|6|2
121,163,152280,6,0,B|84:104|124:44|176:44,2,160,2|6|2
259,119,153280,2,0,B|180:116,1,80,0|2
256,43,153680,2,0,B|336:40,1,80,0|6
392,88,154080,5,0
428,232,154280,2,0,B|429:152,1,80,2|0
356,240,154680,2,0,B|316:272|320:320,1,80,2|0
256,252,155080,5,6
156,240,155280,2,0,B|196:272|192:320,1,80,0|2
116,304,155680,1,0
84,152,155880,2,0,B|81:231,1,80,2|0
21,120,156280,6,0,B|56:64|128:72|150:124,1,160,6|2
204,76,156880,1,0
256,124,157080,1,2
308,76,157280,1,0
492,120,157480,6,0,B|456:64|384:72|363:124,1,160,6|2
312,176,158080,1,0
200,176,158280,1,2
392,280,158680,2,0,B|352:340|292:364|220:364|160:340|120:280,1,320,6|2
256,132,159880,6,0,B|176:140,1,80,2|0
256,208,160280,2,0,B|336:216,1,80,0|2
256,284,160680,1,2
92,112,161080,2,0,B|116:56|164:32|224:32,1,160,6|2
256,104,161680,1,0
292,32,161880,2,0,B|348:32|396:56|420:112,1,160,2|6
336,272,162680,5,0
256,328,163080,1,2
176,272,163480,1,6
340,192,163880,6,0,B|428:196,1,80,2|0
176,192,164280,2,0,B|88:196,1,80,2|0
256,228,164680,1,6
336,112,165080,5,0
256,56,165480,1,2
176,112,165880,1,6
340,192,166280,6,0,B|428:196,1,80,2|0
176,192,166680,2,0,B|88:196,1,80,2|0
256,156,167080,1,6
96,52,167480,1,0
416,52,167880,1,2
423,322,168280,6,0,B|382:346|342:313,1,80,6|0
392,256,168680,2,0,B|432:231|472:264,1,80,2|0
472,184,169080,2,0,B|472:96,1,80,2|0
424,48,169480,5,6
376,104,169680,2,0,B|376:184,1,80,0|2
304,272,170080,2,0,B|304:192,1,80,0|2
256,328,170480,1,0
208,272,170680,6,0,B|208:192,1,80,6|0
136,104,171080,2,0,B|136:184,1,80,2|0
88,48,171480,1,2
40,104,171680,2,0,B|40:184,1,80,0|6
45,260,172080,2,0,B|79:231|120:256,1,80,0|2
163,317,172481,2,0,B|129:346|89:322,1,80,0|2
256,328,172880,1,0
216,168,173080,6,0,B|216:248,1,80,6|0
296,248,173480,2,0,B|296:168,1,80,2|0
144,120,173880,6,0,B|128:164|76:164,1,80,2|0
56,84,174280,2,0,B|72:40|124:40,1,80,6|0
216,40,174680,2,0,B|296:40|296:40,1,80,2|0
220,112,175080,1,2
256,176,175280,1,0
292,112,175480,5,6
456,84,175680,2,0,B|440:40|395:40,1,80,0|2
368,121,176080,2,0,B|383:164|428:164,1,80,0|2
256,176,176480,1,0
224,240,176680,6,0,B|163:208|176:124|236:104,1,160,6|0
296,40,177280,2,0,B|216:40,1,80,0|2
256,176,177680,1,2
287,241,177880,6,0,B|335:227|348:143|290:113,1,160,6|2
216,244,178480,2,0,B|172:248|156:288,1,80,0|2
136,196,178880,1,0
228,316,179080,6,0,B|324:336|380:256,1,160,6|2
284,68,179880,2,0,B|188:48|132:128,1,160,2|6
348,260,180680,5,2
292,308,180880,1,0
220,308,181080,1,2
164,260,181280,1,0
152,188,181480,2,0,B|148:116|256:16|364:116|360:188,1,320,6|2
256,192,182680,5,6
256,192,182780,12,0,187480
