osu file format v12

[General]
AudioFilename: myzuka.ru_19_desert_orgy.mp3
AudioLeadIn: 0
PreviewTime: -1
Countdown: 1
SampleSet: Normal
StackLeniency: 0.7
Mode: 0
LetterboxInBreaks: 1
WidescreenStoryboard: 0

[Editor]
DistanceSpacing: 1
BeatDivisor: 4
GridSize: 4

[Metadata]
Title:Desert Orgy
TitleUnicode:Desert Orgy
Artist:Phace & Misanthrop
ArtistUnicode:Phace & Misanthrop
Creator:tieff
Version:Insane
Source:
Tags:
BeatmapID:145981
BeatmapSetID:46974

[Difficulty]
HPDrainRate:8
CircleSize:4
OverallDifficulty:8
ApproachRate:8
SliderMultiplier:1.8
SliderTickRate:2

[Events]
//Background and Video events
0,0,"abstract2b.png",0,0
//Break Periods
2,190033,214199
//Storyboard Layer 0 (Background)
//Storyboard Layer 1 (Fail)
//Storyboard Layer 2 (Pass)
//Storyboard Layer 3 (Foreground)
//Storyboard Sound Samples
//Background Colour Transformations
3,100,163,162,255

[TimingPoints]
117275,348.837209302326,4,1,1,76,1,0
122846,-100,4,1,1,76,0,0
123379,-100,4,2,1,76,0,0
123728,-100,4,1,1,76,0,0
124251,-100,4,1,1,76,0,0
124426,-100,4,2,1,76,0,0
124600,-100,4,1,1,76,0,0
124775,-100,4,2,1,76,0,0
125123,-100,4,1,1,76,0,0
125472,-100,4,2,1,76,0,0
125647,-100,4,1,1,76,0,0
126170,-100,4,2,1,76,0,0
126519,-100,4,1,1,76,0,0
127216,-100,4,2,1,76,0,0
127391,-100,4,1,1,76,0,0
127565,-100,4,2,1,76,0,0
127914,-100,4,1,1,76,0,0
128612,-100,4,2,1,76,0,0
128786,-100,4,1,1,76,0,0
128961,-100,4,2,1,76,0,0
129309,-100,4,1,1,76,0,0
129658,-100,4,2,1,76,0,0
129833,-100,4,1,1,76,0,0
130007,-100,4,2,1,76,0,0
130181,-100,4,1,1,76,0,0
130356,-100,4,2,1,76,0,0
130705,-100,4,1,1,76,0,0
131054,-100,4,2,1,76,0,0
131141,-100,4,1,1,76,0,0
134542,-100,4,2,1,76,0,0
134891,-100,4,1,1,76,0,0
135240,-100,4,2,1,76,0,0
135414,-100,4,1,1,76,0,0
136635,-100,4,2,1,76,0,0
136809,-100,4,1,1,76,0,0
136984,-100,4,2,1,76,0,0
137158,-100,4,1,1,76,0,0
137333,-100,4,2,1,76,0,0
137681,-100,4,1,1,76,0,0
138379,-100,4,2,1,76,0,0
138554,-100,4,1,1,76,0,0
138728,-100,4,2,1,76,0,0
139077,-100,4,1,1,76,0,0
139775,-100,4,2,1,76,0,0
139949,-100,4,1,1,76,0,0
140123,-100,4,2,1,76,0,0
140472,-100,4,1,1,76,0,0
141170,-100,4,2,1,76,0,0
142042,-100,4,1,1,76,0,0
142413,-200,4,2,1,76,0,0
142904,-200,4,1,1,76,0,0
143253,-200,4,2,1,76,0,0
143776,-200,4,1,1,76,0,0
144125,-200,4,2,1,76,0,0
144299,-200,4,1,1,76,0,0
144997,-200,4,2,1,76,0,0
145171,-100,4,1,1,76,0,0
145346,-100,4,2,1,76,0,0
145520,-100,4,1,1,76,0,0
145869,-100,4,2,1,76,0,0
146044,-100,4,1,1,76,0,0
146751,-100,4,2,1,76,0,0
146926,-100,4,1,1,76,0,0
147100,-100,4,2,1,76,0,0
147275,-100,4,1,1,76,0,0
147798,-100,4,2,1,76,0,0
147972,-100,4,1,1,76,0,0
148495,-100,4,2,1,76,0,0
148844,-100,4,2,1,76,0,0
149019,-100,4,1,1,76,0,0
149542,-100,4,2,1,76,0,0
149716,-100,4,1,1,76,0,0
149891,-100,4,2,1,76,0,0
150152,-100,4,1,1,76,0,0
150414,-100,4,1,1,76,0,0
150588,-100,4,1,1,76,0,0
150763,-100,4,1,1,76,0,0
151461,-100,4,2,1,76,0,0
151635,-100,4,1,1,76,0,0
151984,-100,4,2,1,76,0,0
152158,-100,4,1,1,76,0,0
152965,-100,4,1,1,76,0,0
153052,-100,4,1,1,76,0,0
153379,-100,4,2,1,76,0,0
153554,-100,4,1,1,76,0,0
154077,-100,4,2,1,76,0,0
154426,-100,4,1,1,76,0,0
155123,-100,4,2,1,76,0,0
155298,-100,4,1,1,76,0,0
155472,-100,4,2,1,76,0,0
155647,-100,4,1,1,76,0,0
155908,-100,4,2,1,76,0,0
156083,-100,4,1,1,76,0,0
156257,-100,4,2,1,76,0,0
156344,-100,4,1,1,76,0,0
156868,-100,4,2,1,76,0,0
157216,-100,4,1,1,76,0,0
157914,-100,4,2,1,76,0,0
158088,-100,4,1,1,76,0,0
158263,-100,4,2,1,76,0,0
158612,-100,4,1,1,76,0,0
158961,-100,4,2,1,76,0,0
159135,-100,4,1,1,76,0,0
159658,-100,4,2,1,76,0,0
160007,-100,4,1,1,76,0,0
164716,-66.6666666666667,4,1,1,76,0,0
167529,-66.6666666666667,4,1,1,76,0,0
168030,-66.6666666666667,4,2,1,76,0,0
168379,-66.6666666666667,4,1,1,76,0,0
169077,-66.6666666666667,4,2,1,76,0,0
169251,-66.6666666666667,4,1,1,76,0,0
169426,-66.6666666666667,4,2,1,76,0,0
169775,-66.6666666666667,4,1,1,76,0,0
170123,-66.6666666666667,4,2,1,76,0,0
170298,-66.6666666666667,4,1,1,76,0,0
170821,-66.6666666666667,4,2,1,76,0,0
171170,-66.6666666666667,4,1,1,76,0,0
171868,-66.6666666666667,4,2,1,76,0,0
172042,-66.6666666666667,4,1,1,76,0,0
172216,-66.6666666666667,4,2,1,76,0,0
172565,-66.6666666666667,4,1,1,76,0,0
173612,-66.6666666666667,4,2,1,76,0,0
173961,-66.6666666666667,4,1,1,76,0,0
174658,-66.6666666666667,4,2,1,76,0,0
174833,-66.6666666666667,4,1,1,76,0,0
175007,-66.6666666666667,4,2,1,76,0,0
175356,-66.6666666666667,4,1,1,76,0,0
175530,-66.6666666666667,4,1,1,76,0,0
176402,-66.6666666666667,4,2,1,76,0,0
176751,-66.6666666666667,4,1,1,76,0,0
177536,-66.6666666666667,4,2,1,76,0,0
178059,-66.6666666666667,4,1,1,76,0,0
178495,-66.6666666666667,4,2,1,76,0,0
178670,-66.6666666666667,4,1,1,76,0,0
179019,-100,4,1,1,76,0,0
179193,-100,4,2,1,76,0,0
179542,-100,4,1,1,76,0,0
179891,-100,4,2,1,76,0,0
180065,-100,4,1,1,76,0,0
180240,-100,4,2,1,76,0,0
180414,-100,4,1,1,76,0,0
180588,-100,4,2,1,76,0,0
180937,-100,4,1,1,76,0,0
181025,-100,4,2,1,76,0,0
181112,-100,4,1,1,76,0,0
181199,-100,4,2,1,76,0,0
181461,-100,4,1,1,76,0,0
181984,-100,4,2,1,76,0,0
182333,-100,4,1,1,76,0,0
183030,-100,4,2,1,76,0,0
183205,-100,4,1,1,76,0,0
183466,-100,4,1,1,76,0,0
183728,-100,4,1,1,76,0,0
184077,-100,4,2,1,76,0,0
184251,-100,4,1,1,76,0,0
184426,-100,4,2,1,76,0,0
184600,-100,4,1,1,76,0,0
184775,-100,4,2,1,76,0,0
185123,-100,4,1,1,76,0,0
186606,-100,4,2,1,76,0,0
186868,-100,4,1,1,76,0,0
214949,-200,4,1,1,76,0,0
217914,-100,4,2,1,76,0,0
218961,-100,4,1,1,47,0,0
219135,-100,4,1,1,76,0,0
219309,-100,4,2,1,76,0,0
219484,-100,4,1,1,76,0,0
219658,-100,4,2,1,76,0,0
220356,-100,4,1,1,76,0,0
220879,-100,4,2,1,76,0,0
221402,-100,4,1,1,76,0,0
224891,-100,4,2,1,76,0,0
225065,-100,4,1,1,76,0,0
225240,-100,4,2,1,76,0,0
225763,-100,4,1,1,76,0,0
225937,-100,4,2,1,76,0,0
226112,-100,4,1,1,76,0,0
234484,-66.6666666666667,4,1,1,76,0,0

[Colours]
Combo1 : 255,0,0
Combo2 : 255,255,0
Combo3 : 255,255,255
Combo4 : 255,128,255

[HitObjects]
424,88,122856,5,4,0:0:0:0:
408,304,123205,1,8,0:0:0:0:
296,320,123379,1,0,0:0:0:0:
296,320,123466,1,2,0:0:0:0:
296,320,123554,2,0,B|224:312|192:312,1,90
88,320,123902,1,8,0:0:0:0:
192,32,124251,6,0,B|240:24|312:32,1,90,0|0,0:0|0:0,0:0:0:0:
480,48,124600,1,8,0:0:0:0:
400,128,124775,2,0,B|352:128|280:144,1,90,2|0,0:0|0:0,0:0:0:0:
200,168,125123,1,0,0:0:0:0:
80,160,125298,1,8,0:0:0:0:
32,56,125472,2,0,B|0:40|-24:48,2,45,2|0|0,0:0|0:0|0:0,0:0:0:0:
40,288,125995,5,8,0:0:0:0:
160,304,126170,1,2,0:0:0:0:
160,304,126257,1,2,0:0:0:0:
160,304,126344,2,0,B|208:288|272:296,1,90
376,312,126693,1,8,0:0:0:0:
392,56,127042,6,0,B|336:48|288:48,1,90,0|0,0:0|0:0,0:0:0:0:
96,40,127391,1,8,0:0:0:0:
160,136,127565,2,0,B|264:144,1,90,2|0,0:0|0:0,0:0:0:0:
440,160,127914,1,0,0:0:0:0:
360,256,128088,1,8,0:0:0:0:
360,256,128176,1,0,0:0:0:0:
160,288,128350,1,8,0:0:0:0:
160,288,128437,5,4,0:0:0:0:
48,128,128612,1,0,0:0:0:0:
144,48,128786,2,0,B|216:40|264:40,1,90,8|0,0:0|0:0,0:0:0:0:
432,40,129135,2,0,B|456:16|488:24,2,45
392,160,129484,1,8,0:0:0:0:
280,208,129658,1,0,0:0:0:0:
96,24,129833,6,0,B|48:64|80:136,1,90,0|2,0:0|0:0,0:0:0:0:
48,280,130181,2,0,B|69:221|5:175,1,90,8|0,0:0|0:0,0:0:0:0:
48,280,130530,1,2,0:0:0:0:
248,304,130705,1,0,0:0:0:0:
368,272,130879,1,8,0:0:0:0:
496,256,131054,1,0,0:0:0:0:
496,256,131141,1,8,0:0:0:0:
496,256,131228,5,4,0:0:0:0:
144,152,131490,1,0,0:0:0:0:
144,152,131577,1,8,0:0:0:0:
64,56,131751,1,0,0:0:0:0:
328,104,131926,5,4,0:0:0:0:
328,104,132013,1,8,0:0:0:0:
328,104,132100,1,0,0:0:0:0:
448,64,132275,1,8,0:0:0:0:
416,184,132449,1,0,0:0:0:0:
200,304,132623,5,4,0:0:0:0:
72,296,132798,1,0,0:0:0:0:
328,336,132972,1,12,0:0:0:0:
456,320,133147,1,0,0:0:0:0:
200,304,133321,5,4,0:0:0:0:
72,296,133495,1,0,0:0:0:0:
328,336,133670,1,12,0:0:0:0:
456,320,133844,1,0,0:0:0:0:
456,320,133931,1,0,0:0:0:0:
456,320,134019,5,4,0:0:0:0:
480,72,134368,1,8,0:0:0:0:
288,72,134542,1,2,0:0:0:0:
168,112,134716,2,0,B|152:160|200:224,1,90,0|0,0:0|0:0,0:0:0:0:
360,256,135065,2,0,B|381:203|359:144,1,90,8|0,0:0|0:0,0:0:0:0:
288,328,135414,5,0,0:0:0:0:
270,330,135501,1,0,0:0:0:0:
252,334,135588,1,0,0:0:0:0:
128,256,135763,1,8,0:0:0:0:
141,253,135850,1,0,0:0:0:0:
154,250,135937,1,0,0:0:0:0:
166,245,136025,1,0,0:0:0:0:
179,243,136112,1,0,0:0:0:0:
368,200,136286,1,0,0:0:0:0:
488,176,136461,1,8,0:0:0:0:
408,80,136635,1,2,0:0:0:0:
144,80,136809,5,4,0:0:0:0:
40,152,136984,1,2,0:0:0:0:
40,152,137071,1,0,0:0:0:0:
40,152,137158,2,0,B|56:208|40:256,1,90,8|0,0:0|0:0,0:0:0:0:
96,360,137507,1,2,0:0:0:0:
224,336,137681,1,0,0:0:0:0:
448,336,137856,2,0,B|544:272|440:152,1,180,8|4,0:0|0:0,0:0:0:0:
328,112,138379,6,0,B|320:168|320:208,1,90,2|8,0:0|0:0,0:0:0:0:
160,80,138728,2,2,B|176:136|208:192,1,90,0|2,0:0|0:0,0:0:0:0:
40,264,139077,1,0,0:0:0:0:
40,264,139251,2,0,B|96:184|144:272|200:264,1,180,8|4,0:0|0:0,0:0:0:0:
448,240,139775,5,2,0:0:0:0:
448,240,139862,1,0,0:0:0:0:
448,240,139949,2,0,B|456:176|456:112,1,90,8|0,0:0|0:0,0:0:0:0:
344,96,140298,1,2,0:0:0:0:
248,184,140472,1,0,0:0:0:0:
304,296,140647,1,8,0:0:0:0:
304,296,140995,5,4,0:0:0:0:
184,344,141170,1,2,0:0:0:0:
56,336,141344,1,8,0:0:0:0:
40,72,141519,1,0,0:0:0:0:
160,40,141693,2,0,B|256:72|184:136|200:192,1,180,2|8,0:0|0:0,0:0:0:0:
448,256,142216,2,0,B|496:240|512:248,2,45,0|0|4,0:0|0:0|0:0,0:0:0:0:
384,312,142565,5,0,0:0:0:0:
296,320,142740,1,8,0:0:0:0:
104,240,142914,2,0,B|96:176|112:136,1,90,0|2,0:0|0:0,0:0:0:0:
160,80,143437,1,8,0:0:0:0:
248,64,143612,1,0,0:0:0:0:
344,192,143786,2,0,B|352:240|352:256,1,45
280,296,144135,1,8,0:0:0:0:
104,240,144309,2,0,B|96:176|112:136,1,90,0|0,0:0|0:0,0:0:0:0:
200,64,144833,1,8,0:0:0:0:
320,40,145007,1,0,0:0:0:0:
440,80,145181,5,4,0:0:0:0:
344,160,145356,1,2,0:0:0:0:
344,160,145443,1,0,0:0:0:0:
344,160,145530,2,0,B|272:216|344:232|336:272|240:288,1,180,0|2,0:0|0:0,0:0:0:0:
48,144,146054,1,0,0:0:0:0:
56,272,146228,1,8,0:0:0:0:
464,288,146577,5,0,0:0:0:0:
472,160,146751,2,0,B|480:120|504:96,2,45,2|0|8,0:0|0:0|0:0,0:0:0:0:
240,64,147100,2,0,B|173:28|183:78|155:140|111:129,1,135,0|0,0:0|0:0,0:0:0:0:
125,121,147449,1,0,0:0:0:0:
136,248,147623,1,8,0:0:0:0:
240,176,147798,1,0,0:0:0:0:
125,121,147972,5,4,0:0:0:0:
456,264,148321,2,0,B|392:248|360:256,1,90,8|0,0:0|0:0,0:0:0:0:
184,312,148670,2,0,B|256:320|296:304,1,90,2|0,0:0|0:0,0:0:0:0:
40,320,149019,1,8,0:0:0:0:
504,112,149368,5,0,0:0:0:0:
384,144,149542,1,0,0:0:0:0:
272,200,149716,2,0,B|248:256|256:304,1,90,8|0,0:0|0:0,0:0:0:0:
136,336,150065,1,0,0:0:0:0:
136,336,150152,1,0,0:0:0:0:
136,336,150240,1,0,0:0:0:0:
8,344,150414,1,8,0:0:0:0:
368,328,150588,1,0,0:0:0:0:
496,336,150763,5,4,0:0:0:0:
344,72,151112,2,0,B|232:128|320:224,1,180,8|2,0:0|0:0,0:0:0:0:
440,208,151635,1,0,0:0:0:0:
168,232,151809,1,8,0:0:0:0:
48,272,151984,1,0,0:0:0:0:
48,272,152071,1,0,0:0:0:0:
48,272,152158,6,0,B|0:184|56:80,1,180,0|8,0:0|0:0,0:0:0:0:
152,24,152681,2,0,B|144:88,1,45,0|8,0:0|0:0,0:0:0:0:
296,64,152943,2,0,B|296:96|320:128,1,45,8|0,0:0|0:0,0:0:0:0:
464,128,153205,1,8,0:0:0:0:
376,224,153379,1,0,0:0:0:0:
496,256,153554,5,4,0:0:0:0:
264,344,153902,1,8,0:0:0:0:
152,296,154077,1,2,0:0:0:0:
152,296,154164,1,0,0:0:0:0:
152,296,154251,1,0,0:0:0:0:
24,280,154426,1,0,0:0:0:0:
24,72,154775,6,0,B|64:64|120:64,1,90,8|0,0:0|0:0,0:0:0:0:
344,56,155123,1,0,0:0:0:0:
448,80,155298,2,0,B|464:160|448:192,1,90,8|0,0:0|0:0,0:0:0:0:
320,328,155647,1,8,0:0:0:0:
176,328,155821,5,0,0:0:0:0:
136,320,155908,1,0,0:0:0:0:
112,280,155995,1,2,0:0:0:0:
136,240,156083,1,0,0:0:0:0:
184,232,156170,1,8,0:0:0:0:
224,256,156257,1,0,0:0:0:0:
224,304,156344,5,4,0:0:0:0:
336,80,156693,2,0,B|352:120|352:184,1,90,8|0,0:0|0:0,0:0:0:0:
104,64,157042,2,0,B|144:40|200:40,1,90,2|0,0:0|0:0,0:0:0:0:
32,160,157391,1,8,0:0:0:0:
88,248,157740,6,0,B|48:304|112:344,1,90,0|0,0:0|0:0,0:0:0:0:
352,352,158088,1,8,0:0:0:0:
456,280,158263,2,0,B|496:224|432:184,1,90,0|2,0:0|0:0,0:0:0:0:
160,160,158612,1,0,0:0:0:0:
48,224,158786,1,0,0:0:0:0:
264,304,158961,1,0,0:0:0:0:
264,304,159048,1,0,0:0:0:0:
264,304,159135,6,0,B|168:256|240:136,1,180,4|8,0:0|0:0,0:0:0:0:
424,48,159658,2,0,B|456:96|440:152,1,90,0|2,0:0|0:0,0:0:0:0:
392,256,160007,1,0,0:0:0:0:
264,304,160181,1,8,0:0:0:0:
48,56,160530,5,0,0:0:0:0:
24,184,160705,1,0,0:0:0:0:
120,264,160879,1,8,0:0:0:0:
304,160,161054,1,0,0:0:0:0:
424,128,161228,2,0,B|504:216|408:320,2,180,0|8|4,0:0|0:0|0:0,0:0:0:0:
424,128,162275,5,8,0:0:0:0:
304,160,162449,2,0,B|280:176|240:176,2,45
88,304,162798,1,0,0:0:0:0:
64,184,162972,1,8,0:0:0:0:
376,240,163147,1,0,0:0:0:0:
376,240,163234,1,0,0:0:0:0:
376,240,163321,6,0,B|352:288|368:352,1,90
480,176,163670,1,8,0:0:0:0:
320,48,163844,2,0,B|208:8|160:136,1,180
80,280,164368,2,0,B|104:160|-32:144,1,180,8|4,0:0|0:0,0:0:0:0:
192,60,164891,5,0,0:0:0:0:
260,168,165065,2,0,B|244:232|304:300,1,134.999995976687,8|0,0:0|0:0,0:0:0:0:
408,344,165414,1,0,0:0:0:0:
464,240,165588,2,0,B|528:80|336:40,1,269.999991953373,0|12,0:0|0:0,0:0:0:0:
128,96,166112,5,0,0:0:0:0:
68,104,166199,1,0,0:0:0:0:
20,140,166286,1,0,0:0:0:0:
12,200,166373,1,0,0:0:0:0:
28,260,166461,1,8,0:0:0:0:
80,292,166548,1,0,0:0:0:0:
140,292,166635,1,0,0:0:0:0:
192,264,166722,1,8,0:0:0:0:
240,228,166809,5,0,0:0:0:0:
280,180,166897,1,4,0:0:0:0:
336,156,166984,1,0,0:0:0:0:
396,168,167071,1,0,0:0:0:0:
448,204,167158,1,12,0:0:0:0:
464,264,167245,1,0,0:0:0:0:
436,320,167333,1,0,0:0:0:0:
384,352,167420,1,0,0:0:0:0:
324,352,167507,5,4,0:0:0:0:
96,168,167856,1,8,0:0:0:0:
240,224,168030,1,2,0:0:0:0:
240,224,168118,1,2,0:0:0:0:
240,224,168205,2,0,B|388:204,1,134.999995976687,0|0,0:0|0:0,0:0:0:0:
344,84,168554,1,8,0:0:0:0:
344,84,168902,6,0,B|328:152|344:224,1,134.999995976687,0|2,0:0|0:0,0:0:0:0:
452,316,169251,2,0,B|476:208|448:152,1,134.999995976687,8|0,0:0|0:0,0:0:0:0:
340,348,169600,1,2,0:0:0:0:
220,336,169775,1,0,0:0:0:0:
100,340,169949,1,8,0:0:0:0:
56,104,170123,1,2,0:0:0:0:
56,104,170211,1,2,0:0:0:0:
56,104,170298,6,0,B|112:0|168:104|340:92,1,269.999991953373,4|8,0:0|0:0,0:0:0:0:
420,124,170821,2,0,B|440:208|400:260,1,134.999995976687,2|0,0:0|0:0,0:0:0:0:
308,328,171170,1,0,0:0:0:0:
308,328,171344,2,8,B|204:184|340:56,1,269.999991953373,8|0,0:0|0:0,0:0:0:0:
436,56,171868,6,0,B|448:196,1,134.999995976687,2|8,0:0|0:0,0:0:0:0:
376,288,172216,2,0,B|396:132,1,134.999995976687,0|2,0:0|0:0,0:0:0:0:
172,328,172565,1,0,0:0:0:0:
56,304,172740,2,0,B|-60:172|68:24,2,269.999991953373,8|4|8,0:0|0:0|0:0,0:0:0:0:
148,80,173612,2,0,B|136:220,1,134.999995976687,2|0,0:0|0:0,0:0:0:0:
252,284,173961,2,0,B|264:132,1,134.999995976687,0|8,0:0|0:0,0:0:0:0:
262,149,174484,5,0,0:0:0:0:
392,112,174658,1,2,0:0:0:0:
368,244,174833,1,0,0:0:0:0:
262,149,175007,1,0,0:0:0:0:
392,108,175181,2,0,B|432:172|424:252,1,134.999995976687
262,149,175530,2,0,B|232:64|248:-16,1,134.999995976687
208,264,175879,5,4,0:0:0:0:
208,264,176228,1,8,0:0:0:0:
56,144,176402,1,2,0:0:0:0:
56,144,176490,1,2,0:0:0:0:
56,144,176577,1,0,0:0:0:0:
180,92,176751,1,0,0:0:0:0:
180,92,176926,2,0,B|308:200|472:96,1,269.999991953373
431,118,177536,1,0,0:0:0:0:
431,118,177798,1,2,0:0:0:0:
48,80,178059,5,0,0:0:0:0:
48,80,178147,1,0,0:0:0:0:
168,32,178321,1,8,0:0:0:0:
224,156,178495,1,2,0:0:0:0:
100,208,178670,5,4,0:0:0:0:
456,176,179019,1,8,0:0:0:0:
376,272,179193,2,0,B|360:304|364:332,3,45,2|0|2|0,0:0|0:0|0:0|0:0,0:0:0:0:
364,264,179542,1,0,0:0:0:0:
308,152,179716,1,8,0:0:0:0:
236,48,179891,1,0,0:0:0:0:
120,100,180065,6,0,B|96:144|100:204,1,90,0|2,0:0|0:0,0:0:0:0:
208,312,180414,2,0,B|216:256|196:200,1,90,8|0,0:0|0:0,0:0:0:0:
160,28,180763,1,0,0:0:0:0:
268,92,180937,2,0,B|308:104|328:100,3,45,0|2|8|2,0:0|0:0|0:0|0:0,0:0:0:0:
242,109,181286,1,0,0:0:0:0:
416,208,181461,5,4,0:0:0:0:
76,344,181809,1,8,0:0:0:0:
40,224,181984,1,2,0:0:0:0:
40,224,182071,1,0,0:0:0:0:
40,224,182158,1,2,0:0:0:0:
160,268,182333,1,0,0:0:0:0:
112,64,182507,2,0,B|212:120|124:216,1,180,8|0,0:0|0:0,0:0:0:0:
320,120,183030,5,2,0:0:0:0:
320,120,183205,2,0,B|316:208|316:264,1,135,8|0,0:0|0:0,0:0:0:0:
332,264,183554,1,0,0:0:0:0:
444,316,183728,1,0,0:0:0:0:
192,332,183902,1,8,0:0:0:0:
240,152,184251,5,0,0:0:0:0:
280,272,184426,1,0,0:0:0:0:
360,164,184600,2,8,B|384:112|376:68,1,90,8|2,0:0|0:0,0:0:0:0:
268,12,184949,1,0,0:0:0:0:
148,52,185123,1,0,0:0:0:0:
152,252,185298,1,8,0:0:0:0:
152,252,185647,6,0,B|188:220|248:264,1,90
412,296,185995,2,0,B|380:260|424:200,1,90,8|0,0:0|0:0,0:0:0:0:
428,60,186344,2,0,B|364:104|296:44,1,135,0|2,0:0|0:0,0:0:0:0:
288,56,186693,1,8,0:0:0:0:
164,84,186868,1,0,0:0:0:0:
252,316,187042,5,4,0:0:0:0:
256,192,187216,12,4,189833,0:0:0:0:
76,332,214949,6,0,B|68:284|72:232,1,90,4|8,0:0|0:0,0:0:0:0:
212,116,215821,2,0,B|216:160|204:224,1,90,0|8,0:0|0:0,0:0:0:0:
312,312,216344,2,0,B|308:252|316:212,1,90,0|8,0:0|0:0,0:0:0:0:
256,192,216868,12,4,217740,0:0:0:0:
176,260,217914,6,0,B|160:316|168:356,2,90,2|0|2,0:0|0:0|0:0,0:0:0:0:
248,156,218437,2,0,B|256:136|252:108,3,45,0|0|2|0,0:0|0:0|0:0|0:0,0:0:0:0:
256,164,218786,1,0,0:0:0:0:
320,272,218961,1,0,0:0:0:0:
380,132,219135,1,4,0:0:0:0:
132,148,219309,1,2,0:0:0:0:
44,236,219484,6,0,B|24:296|36:344,1,90,0|2,0:0|0:0,0:0:0:0:
24,120,219833,2,0,B|24:64|0:8,1,90,0|2,0:0|0:0,0:0:0:0:
468,148,220181,2,0,B|488:88|476:40,1,90,0|0,0:0|0:0,0:0:0:0:
488,264,220530,6,0,B|488:320|512:376,1,90,4|0,0:0|0:0,0:0:0:0:
368,216,220879,1,8,0:0:0:0:
260,280,221054,1,0,0:0:0:0:
200,292,221141,1,0,0:0:0:0:
148,260,221228,1,0,0:0:0:0:
144,196,221315,1,0,0:0:0:0:
184,148,221402,1,0,0:0:0:0:
300,100,221577,1,8,0:0:0:0:
424,80,221751,1,0,0:0:0:0:
64,76,221926,5,0,0:0:0:0:
64,76,222013,1,0,0:0:0:0:
272,184,222187,1,0,0:0:0:0:
80,312,222362,1,0,0:0:0:0:
80,312,222449,1,0,0:0:0:0:
432,336,222623,5,4,0:0:0:0:
460,280,222711,1,0,0:0:0:0:
472,220,222798,1,8,0:0:0:0:
460,160,222885,1,0,0:0:0:0:
448,100,222972,1,0,0:0:0:0:
400,60,223059,1,0,0:0:0:0:
340,40,223147,1,8,0:0:0:0:
276,32,223234,1,0,0:0:0:0:
212,36,223321,5,4,0:0:0:0:
164,284,223670,2,0,B|168:224|152:160,1,90,8|0,0:0|0:0,0:0:0:0:
56,48,224019,2,0,B|48:100|64:152,1,90
244,272,224368,1,8,0:0:0:0:
244,272,224716,6,0,B|348:264,1,90,0|0,0:0|0:0,0:0:0:0:
460,256,225065,2,0,B|456:152,1,90,8|0,0:0|0:0,0:0:0:0:
228,48,225414,2,0,B|40:56,1,180,2|8,0:0|0:0,0:0:0:0:
52,184,225937,1,0,0:0:0:0:
60,312,226112,5,4,0:0:0:0:
60,312,226461,2,0,B|100:216|44:108,1,180,8|0,0:0|0:0,0:0:0:0:
168,20,226984,2,0,B|148:80|172:140,1,90,0|8,0:0|0:0,0:0:0:0:
184,232,227333,1,0,0:0:0:0:
276,316,227507,6,0,B|340:352|396:344,1,90
484,200,227856,2,0,B|412:208|368:236,1,90,8|0,0:0|0:0,0:0:0:0:
488,328,228205,2,0,B|512:236|476:124,1,180,0|8,0:0|0:0,0:0:0:0:
416,44,228728,1,0,0:0:0:0:
292,24,228902,5,4,0:0:0:0:
292,24,229251,2,0,B|192:92|284:216,1,180,8|0,0:0|0:0,0:0:0:0:
368,252,229775,2,0,B|416:264|464:256,1,90
256,312,230123,1,0,0:0:0:0:
144,248,230298,6,0,B|96:240|40:240,1,90
28,116,230647,1,0,0:0:0:0:
140,60,230821,1,0,0:0:0:0:
140,60,230908,1,0,0:0:0:0:
140,60,230995,1,0,0:0:0:0:
260,100,231170,1,0,0:0:0:0:
440,60,231344,1,0,0:0:0:0:
496,172,231519,1,0,0:0:0:0:
436,280,231693,5,4,0:0:0:0:
348,292,232042,1,10,0:0:0:0:
260,284,232565,1,0,0:0:0:0:
260,284,232740,1,10,0:0:0:0:
172,296,233088,1,0,0:0:0:0:
172,296,233437,1,10,0:0:0:0:
84,272,233786,5,4,0:0:0:0:
56,148,233961,1,2,0:0:0:0:
152,68,234135,1,12,0:0:0:0:
276,80,234309,1,2,0:0:0:0:
276,80,234484,6,0,B|376:152|364:236|256:304,2,269.999991953373,4|8|0,0:0|0:0|0:0,0:0:0:0:
136,332,235356,1,0,0:0:0:0:
64,220,235530,2,0,B|24:168|60:84,1,134.999995976687,8|0,0:0|0:0,0:0:0:0:
460,100,235879,6,0,B|484:176|444:236,1,134.999995976687
344,320,236228,1,8,0:0:0:0:
284,200,236402,1,0,0:0:0:0:
352,84,236577,1,0,0:0:0:0:
152,120,236926,1,8,0:0:0:0:
140,256,237100,1,0,0:0:0:0:
40,332,237275,5,4,0:0:0:0:
40,332,237623,2,0,B|32:188,1,134.999995976687
396,116,237972,2,0,B|392:268,1,134.999995976687
264,340,238321,2,0,B|264:68,1,269.999991953373
136,24,238844,2,0,B|136:172,1,134.999995976687
28,240,239193,2,0,B|36:68,1,134.999995976687
