osu file format v12

[General]
AudioFilename: OBC.mp3
AudioLeadIn: 2000
PreviewTime: 53971
Countdown: 0
SampleSet: Soft
StackLeniency: 0.3
Mode: 0
LetterboxInBreaks: 0
WidescreenStoryboard: 0

[Editor]
Bookmarks: 430,14934,27649,40365,54669,67384,80100
DistanceSpacing: 1
BeatDivisor: 4
GridSize: 4

[Metadata]
Title:Watashi no Housekibako (TV Size)
TitleUnicode:私の宝石箱 (TV Size)
Artist:Petrarca Ann Erudanto III
ArtistUnicode:ペトラルカ・アン・エルダント三世
Creator:Fumika
Version:Easy
Source:Outbreak Company
Tags:Netsukawa ending Fuchigami Mai アウトブレイク・カンパニー feel Momochikun No_Gu NoGu 渕上舞
BeatmapID:315480
BeatmapSetID:120823

[Difficulty]
HPDrainRate:2
CircleSize:3
OverallDifficulty:2
ApproachRate:2
SliderMultiplier:1.06
SliderTickRate:1

[Events]
//Background and Video events
Video,-401,"OBC.avi"
0,0,"OBC.jpg",0,0
//Break Periods
//Storyboard Layer 0 (Background)
//Storyboard Layer 1 (Fail)
//Storyboard Layer 2 (Pass)
//Storyboard Layer 3 (Foreground)
//Storyboard Sound Samples
//Background Colour Transformations
3,100,163,162,255

[TimingPoints]
627,397.350993377483,4,2,1,70,1,0
6388,-100,4,2,3,50,0,0
6785,-100,4,2,1,80,0,0
12150,-100,4,2,1,50,0,0
13342,-100,4,2,1,60,0,0
14136,-100,4,2,1,70,0,0
14931,-100,4,2,2,70,0,0
20891,-100,4,2,1,70,0,0
21289,-100,4,2,2,70,0,0
25660,-100,4,2,1,70,0,0
37580,-100,4,2,1,50,0,0
37679,-100,4,2,1,70,0,0
37977,-100,4,2,1,50,0,0
38375,-100,4,2,1,70,0,0
44931,-100,4,2,1,60,0,0
46719,-100,4,2,1,80,0,0
54666,-100,4,2,1,80,0,1
67282,-100,4,2,1,80,0,0
67381,-100,4,2,1,80,0,1
78706,-100,4,2,1,50,0,1
79103,-100,4,2,1,80,0,1
80097,-100,4,2,1,80,0,0
80196,-100,4,2,1,20,0,0
81487,-100,4,2,1,70,0,0
83176,-100,4,2,1,20,0,0
87646,-100,4,2,1,5,0,0

[Colours]
Combo1 : 0,128,255
Combo2 : 128,255,0
Combo3 : 176,176,255
Combo4 : 245,88,112
Combo5 : 255,219,111
Combo6 : 255,128,64
Combo7 : 255,128,192
Combo8 : 0,255,255

[HitObjects]
72,276,627,2,0,P|88:200|160:180,1,159,2|0,0:0|0:0,0:0:0:0:
292,264,1819,1,2,0:0:0:0:
292,264,2415,2,0,P|340:284|392:272,2,106,2|0|2,0:0|0:0|0:0,0:0:0:0:
352,116,3805,6,0,P|324:40|248:24,1,159,2|0,0:0|0:0,0:0:0:0:
148,140,4997,2,0,P|176:216|252:232,1,159,2|2,0:0|0:0,0:0:0:0:
336,180,5991,2,0,P|384:160|440:172,1,106,2|8,0:0|0:0,0:0:0:0:
352,304,6984,6,0,P|280:336|204:312,2,159,4|4|4,0:0|0:0|0:0,0:0:0:0:
384,204,8574,2,0,L|392:40,1,159,8|0,0:0|1:0,0:0:0:0:
284,40,9567,6,0,L|276:204,1,159,4|4,0:0|0:0,0:0:0:0:
132,268,10759,2,0,P|72:192|136:116,1,212,4|4,0:0|0:0,0:0:0:0:
256,192,11752,12,4,14931,0:0:0:0:
160,292,15726,6,0,P|256:332|348:288,1,212,0|0,1:0|1:0,0:0:0:0:
388,188,16918,1,0,1:0:0:0:
348,88,17315,2,0,P|252:48|160:92,1,212,2|0,1:2|1:0,0:0:0:0:
120,192,18507,5,0,1:0:0:0:
160,288,18905,2,0,P|192:328|244:340,1,106,0|0,1:0|1:0,0:0:0:0:
252,236,19699,2,0,P|300:228|336:184,1,106,0|0,1:0|1:0,0:0:0:0:
360,84,20494,6,0,L|380:296,1,212,2|4,1:2|0:0,0:0:0:0:
304,372,21686,1,0,1:0:0:0:
220,308,22083,2,0,P|172:288|112:300,1,106,0|0,1:0|1:0,0:0:0:0:
20,260,22878,6,0,P|12:208|32:156,1,106,0|0,1:0|1:0,0:0:0:0:
100,80,23673,1,2,1:2:0:0:
180,148,24070,1,2,1:2:0:0:
256,72,24468,2,0,L|472:60,1,212,0|0,1:0|1:0,0:0:0:0:
456,164,25660,6,0,L|480:228,1,53,8|4,0:0|0:0,0:0:0:0:
396,284,26256,2,0,L|420:348,1,53,0|8,1:0|0:0,0:0:0:0:
312,364,26852,6,0,P|236:296|132:308,1,212,8|4,0:0|0:0,0:0:0:0:
36,260,28044,2,0,L|16:152,2,106,8|2|8,0:0|0:0|0:0,0:0:0:0:
124,200,29236,2,0,L|88:12,2,159,0|2|8,1:0|0:0|0:0,0:0:0:0:
188,116,30825,6,0,P|232:88|292:96,1,106,0|8,1:0|0:0,0:0:0:0:
380,136,31620,2,0,P|432:152|480:136,2,106,2|8|0,0:0|0:0|1:0,0:0:0:0:
320,48,32812,2,0,L|340:268,1,212,8|8,0:0|0:0,0:0:0:0:
264,336,34004,5,4,0:0:0:0:
264,336,34401,2,0,P|216:360|164:352,1,106,8|2,0:0|0:0,0:0:0:0:
84,284,35196,2,0,L|68:172,1,106,8|0,0:0|1:0,0:0:0:0:
124,88,35991,2,0,P|172:64|224:72,1,106,8|2,0:0|0:0,0:0:0:0:
288,152,36785,1,8,0:0:0:0:
384,108,37183,5,0,1:0:0:0:
472,164,37580,2,0,P|496:212|484:264,1,106,4|8,0:0|3:0,0:0:0:0:
384,288,38375,2,0,P|284:264|192:324,2,212,0|8|8,1:0|0:0|0:0,0:0:0:0:
412,184,40362,6,0,P|344:108|236:92,2,212,4|2|2,0:0|0:0|0:0,0:0:0:0:
384,284,42348,1,0,0:0:0:0:
304,356,42746,2,0,P|256:336|200:348,1,106,2|0,0:0|0:0,0:0:0:0:
100,368,43540,6,0,P|84:316|104:264,1,106,4|0,0:0|0:0,0:0:0:0:
184,204,44335,2,0,L|344:196,1,159,2|4,0:0|0:0,0:0:0:0:
336,92,45328,2,0,L|216:96,2,106,12|12|8,0:0|0:0|0:0,0:0:0:0:
460,192,46719,6,0,P|456:288|352:288,1,212,4|0,0:0|1:0,0:0:0:0:
256,260,47911,1,8,0:0:0:0:
152,236,48309,2,0,P|100:248|72:292,2,106,0|8|0,1:0|0:0|1:0,0:0:0:0:
256,260,49501,6,0,P|308:272|352:248,1,106,8|4,0:0|1:0,0:0:0:0:
396,152,50295,1,8,0:0:0:0:
328,68,50693,2,0,P|276:56|232:80,1,106,0|8,1:0|0:0,0:0:0:0:
256,192,51487,12,2,54070,0:0:0:0:
204,124,54666,6,0,P|256:112|304:132,1,106,4|8,0:0|0:0,0:0:0:0:
336,232,55461,2,0,L|344:364,2,106,0|8|2,1:0|0:0|0:0,0:0:0:0:
436,200,56653,1,8,0:0:0:0:
404,100,57050,1,0,1:0:0:0:
304,132,57448,6,0,P|252:136|208:108,1,106,8|0,0:0|1:0,0:0:0:0:
104,88,58242,2,0,P|60:120|48:168,1,106,8|0,0:0|1:0,0:0:0:0:
68,272,59037,6,0,L|64:328,1,53,8|4,0:0|0:0,0:0:0:0:
164,288,59633,2,0,L|168:344,1,53,0|8,1:0|0:0,0:0:0:0:
260,288,60229,6,0,P|312:276|368:308,1,106,8|8,0:0|0:0,0:0:0:0:
424,216,61024,2,0,L|432:108,1,106,4|8,0:0|0:0,0:0:0:0:
364,28,61819,1,0,1:0:0:0:
276,88,62216,2,0,P|224:108|168:92,1,106,8|0,0:0|3:0,0:0:0:0:
124,4,63011,2,0,L|120:216,1,212,8|8,0:0|0:0,0:0:0:0:
168,312,64203,5,0,1:0:0:0:
272,292,64600,2,0,L|384:304,1,106,8|0,0:0|1:0,0:0:0:0:
360,200,65395,6,0,L|300:192,1,53,8|4,0:0|0:0,0:0:0:0:
324,88,65991,2,0,L|384:96,2,53,8|8|4,0:0|0:0|0:0,0:0:0:0:
220,76,66785,6,0,P|144:96|112:168,1,159,8|4,0:0|0:0,0:0:0:0:
116,272,67779,2,0,L|124:380,1,106,8|0,0:0|1:0,0:0:0:0:
220,332,68574,6,0,L|212:260,1,53,8|4,0:0|1:2,0:0:0:0:
308,228,69170,2,0,L|316:304,1,53,0|8,1:0|0:0,0:0:0:0:
388,356,69766,6,0,P|444:360|488:336,1,106,0|8,1:0|0:0,0:0:0:0:
468,232,70560,2,0,P|412:228|368:252,1,106,0|8,1:0|0:0,0:0:0:0:
292,324,71355,1,0,1:0:0:0:
188,296,71752,6,0,L|136:300,1,53,8|4,0:0|0:0,0:0:0:0:
180,204,72348,2,0,L|232:200,1,53,0|8,1:0|0:0,0:0:0:0:
176,112,72944,6,0,L|64:120,2,106,8|8|4,0:0|0:0|0:0,0:0:0:0:
272,156,74136,1,8,0:0:0:0:
360,100,74534,6,0,P|436:116|456:188,2,159,0|4|8,1:0|0:0|0:0,0:0:0:0:
272,156,76123,1,0,1:0:0:0:
224,252,76521,1,8,0:0:0:0:
124,216,76918,6,0,P|72:208|24:232,1,106,0|8,1:0|0:0,0:0:0:0:
44,336,77713,1,0,1:0:0:0:
148,320,78110,6,0,L|208:336,1,53,8|4,0:0|0:0,0:0:0:0:
304,324,78706,2,0,L|364:312,2,53,8|4|2,3:0|3:0|0:0,0:0:0:0:
240,240,79501,6,0,P|224:164|284:108,1,159,2|4,0:0|0:0,0:0:0:0:
256,192,80196,12,8,81487,0:0:0:0:
184,252,82083,6,0,P|256:280|332:248,1,159,8|8,1:2|1:2,0:0:0:0:
256,172,83077,5,4,0:0:0:0:
256,192,83176,12,0,87646,0:0:0:0:
