osu file format v14

[General]
AudioFilename: Watashi no Houseibako.mp3
AudioLeadIn: 1000
PreviewTime: 53953
Countdown: 0
SampleSet: Normal
StackLeniency: 0.7
Mode: 1
LetterboxInBreaks: 0
WidescreenStoryboard: 0

[Editor]
DistanceSpacing: 1.2
BeatDivisor: 4
GridSize: 32
TimelineZoom: 1.7

[Metadata]
Title:Watashi no Housekibako
TitleUnicode:私の宝石箱
Artist:Petrarca Ann Erudanto III
ArtistUnicode:ペトラルカ・アン・エルダント
Creator:DavidEd
Version:Muzukashii
Source:アウトブレイク・カンパニー
Tags:Outbreak Company ed ending
BeatmapID:478726
BeatmapSetID:202313

[Difficulty]
HPDrainRate:5
CircleSize:2
OverallDifficulty:5
ApproachRate:9
SliderMultiplier:1.4
SliderTickRate:2

[Events]
//Background and Video events
0,0,"backgroundobc.png",0,95
//Break Periods
//Storyboard Layer 0 (Background)
//Storyboard Layer 1 (Fail)
//Storyboard Layer 2 (Pass)
//Storyboard Layer 3 (Foreground)
//Storyboard Sound Samples

[TimingPoints]
-975,397.350993377483,4,1,1,50,1,0
6770,-100,4,1,1,70,0,0
11539,-100,4,1,1,60,0,0
14916,-100,4,1,1,50,0,0
27631,-100,4,1,1,60,0,0
40347,-100,4,1,1,50,0,0
46704,-100,4,1,1,60,0,0
54654,-100,4,1,1,80,0,1
80084,-100,4,1,1,70,0,0
87631,-100,4,1,1,5,0,0

[HitObjects]
256,192,415,5,0,0:0:0:0:
256,192,514,1,0,0:0:0:0:
256,192,614,1,8,0:0:0:0:
256,192,1011,1,0,0:0:0:0:
256,192,1210,1,8,0:0:0:0:
256,192,1607,1,8,0:0:0:0:
256,192,1806,1,0,0:0:0:0:
256,192,2402,1,8,0:0:0:0:
256,192,2799,1,0,0:0:0:0:
256,192,3196,1,8,0:0:0:0:
256,192,3594,1,0,0:0:0:0:
256,192,3693,1,0,0:0:0:0:
256,192,3792,1,8,0:0:0:0:
256,192,4190,1,8,0:0:0:0:
256,192,4388,1,0,0:0:0:0:
256,192,4786,1,0,0:0:0:0:
256,192,5183,1,8,0:0:0:0:
256,192,5580,1,0,0:0:0:0:
256,192,5779,1,8,0:0:0:0:
256,192,5978,1,8,0:0:0:0:
256,192,6375,1,2,0:0:0:0:
256,192,6772,1,0,0:0:0:0:
256,192,6872,1,0,0:0:0:0:
256,192,6971,1,8,0:0:0:0:
256,192,7368,1,0,0:0:0:0:
256,192,7567,1,12,0:0:0:0:
256,192,7964,1,8,0:0:0:0:
256,192,8163,1,4,0:0:0:0:
256,192,8759,1,8,0:0:0:0:
256,192,8958,1,8,0:0:0:0:
256,192,9157,1,0,0:0:0:0:
256,192,9554,1,8,0:0:0:0:
256,192,9951,1,0,0:0:0:0:
256,192,10051,1,0,0:0:0:0:
256,192,10150,1,8,0:0:0:0:
256,192,10547,1,8,0:0:0:0:
256,192,10746,1,4,0:0:0:0:
256,192,11143,1,0,0:0:0:0:
256,192,11342,1,8,0:0:0:0:
256,192,11541,1,12,0:0:0:0:
256,192,11938,1,0,0:0:0:0:
256,192,12137,1,0,0:0:0:0:
256,192,12335,1,0,0:0:0:0:
256,192,12534,1,0,0:0:0:0:
256,192,12931,1,0,0:0:0:0:
256,192,13130,1,0,0:0:0:0:
256,192,13329,1,0,0:0:0:0:
256,192,13527,1,0,0:0:0:0:
256,192,13726,1,0,0:0:0:0:
256,192,14123,1,0,0:0:0:0:
256,192,14322,1,8,0:0:0:0:
256,192,14521,1,8,0:0:0:0:
256,192,14719,1,0,0:0:0:0:
256,192,14819,1,0,0:0:0:0:
256,192,14918,1,0,0:0:0:0:
256,192,15315,5,8,0:0:0:0:
256,192,15713,1,0,0:0:0:0:
256,192,16110,1,0,0:0:0:0:
256,192,16309,1,8,0:0:0:0:
256,192,16706,1,0,0:0:0:0:
256,192,16905,1,8,0:0:0:0:
256,192,17104,1,0,0:0:0:0:
256,192,17501,1,0,0:0:0:0:
256,192,17700,1,8,0:0:0:0:
256,192,18097,1,4,0:0:0:0:
256,192,18494,1,8,0:0:0:0:
256,192,18892,1,0,0:0:0:0:
256,192,19289,1,0,0:0:0:0:
256,192,19488,1,8,0:0:0:0:
256,192,19885,1,0,0:0:0:0:
256,192,20084,1,8,0:0:0:0:
256,192,20282,1,8,0:0:0:0:
256,192,20680,1,0,0:0:0:0:
256,192,20878,1,8,0:0:0:0:
256,192,21077,1,0,0:0:0:0:
256,192,21176,1,0,0:0:0:0:
256,192,21276,1,0,0:0:0:0:
256,192,21673,1,8,0:0:0:0:
256,192,22070,1,0,0:0:0:0:
256,192,22468,1,0,0:0:0:0:
256,192,22666,1,8,0:0:0:0:
256,192,23064,1,0,0:0:0:0:
256,192,23263,1,8,0:0:0:0:
256,192,23461,1,0,0:0:0:0:
256,192,23859,1,8,0:0:0:0:
256,192,24057,1,0,0:0:0:0:
256,192,24256,1,8,0:0:0:0:
256,192,24455,1,0,0:0:0:0:
256,192,24852,1,0,0:0:0:0:
256,192,25051,1,8,0:0:0:0:
256,192,25249,1,8,0:0:0:0:
256,192,25647,1,0,0:0:0:0:
256,192,25845,1,12,0:0:0:0:
256,192,26243,1,8,0:0:0:0:
256,192,26441,1,0,0:0:0:0:
256,192,26640,1,8,0:0:0:0:
256,192,26839,1,0,0:0:0:0:
256,192,26938,1,0,0:0:0:0:
256,192,27037,1,0,0:0:0:0:
256,192,27236,1,0,0:0:0:0:
256,192,27435,1,8,0:0:0:0:
256,192,27534,1,8,0:0:0:0:
256,192,27633,1,12,0:0:0:0:
256,192,28031,1,8,0:0:0:0:
256,192,28428,1,0,0:0:0:0:
256,192,28825,1,0,0:0:0:0:
256,192,29024,1,8,0:0:0:0:
256,192,29421,1,0,0:0:0:0:
256,192,29620,1,8,0:0:0:0:
256,192,29819,1,0,0:0:0:0:
256,192,30216,1,0,0:0:0:0:
256,192,30415,1,8,0:0:0:0:
256,192,30812,1,4,0:0:0:0:
256,192,31210,1,8,0:0:0:0:
256,192,31607,1,0,0:0:0:0:
256,192,32004,1,0,0:0:0:0:
256,192,32203,1,8,0:0:0:0:
256,192,32600,1,8,0:0:0:0:
256,192,32799,1,8,0:0:0:0:
256,192,33196,1,0,0:0:0:0:
256,192,33594,1,8,0:0:0:0:
256,192,33792,1,0,0:0:0:0:
256,192,33892,1,0,0:0:0:0:
256,192,33991,1,4,0:0:0:0:
256,192,34388,1,8,0:0:0:0:
256,192,34786,1,0,0:0:0:0:
256,192,35183,1,0,0:0:0:0:
256,192,35382,1,8,0:0:0:0:
256,192,35779,1,0,0:0:0:0:
256,192,35978,1,8,0:0:0:0:
256,192,36176,1,0,0:0:0:0:
256,192,36574,1,8,0:0:0:0:
256,192,36772,1,0,0:0:0:0:
256,192,36971,1,8,0:0:0:0:
256,192,37170,1,0,0:0:0:0:
256,192,37567,1,0,0:0:0:0:
256,192,37766,1,8,0:0:0:0:
256,192,37964,1,8,0:0:0:0:
256,192,38362,1,0,0:0:0:0:
256,192,38561,1,12,0:0:0:0:
256,192,38958,1,0,0:0:0:0:
256,192,39157,1,8,0:0:0:0:
256,192,39355,1,8,0:0:0:0:
256,192,39753,1,8,0:0:0:0:
256,192,39951,1,0,0:0:0:0:
256,192,40150,1,0,0:0:0:0:
256,192,40249,1,0,0:0:0:0:
256,192,40349,1,0,0:0:0:0:
256,192,40746,1,8,0:0:0:0:
256,192,40945,1,8,0:0:0:0:
256,192,41143,1,0,0:0:0:0:
256,192,41342,1,8,0:0:0:0:
256,192,41739,1,0,0:0:0:0:
256,192,42137,1,8,0:0:0:0:
256,192,42534,1,0,0:0:0:0:
256,192,43130,1,0,0:0:0:0:
256,192,43329,1,0,0:0:0:0:
256,192,43527,1,12,0:0:0:0:
256,192,43925,1,8,0:0:0:0:
256,192,44123,1,0,0:0:0:0:
256,192,44322,1,0,0:0:0:0:
256,192,44521,1,8,0:0:0:0:
256,192,44918,1,12,0:0:0:0:
256,192,45315,1,4,0:0:0:0:
256,192,45713,1,4,0:0:0:0:
256,192,46110,1,0,0:0:0:0:
256,192,46309,1,8,0:0:0:0:
256,192,46508,1,0,0:0:0:0:
256,192,46607,1,0,0:0:0:0:
256,192,46706,1,4,0:0:0:0:
256,192,47104,1,0,0:0:0:0:
256,192,47302,1,8,0:0:0:0:
256,192,47501,1,8,0:0:0:0:
256,192,47898,1,8,0:0:0:0:
256,192,48097,1,0,0:0:0:0:
256,192,48494,1,8,0:0:0:0:
256,192,48892,1,8,0:0:0:0:
256,192,49289,1,0,0:0:0:0:
256,192,49488,1,8,0:0:0:0:
256,192,49686,1,0,0:0:0:0:
256,192,49884,1,12,0:0:0:0:
256,192,50282,1,0,0:0:0:0:
256,192,50680,1,8,0:0:0:0:
256,192,51077,1,0,0:0:0:0:
256,192,51474,1,8,0:0:0:0:
256,192,51872,1,8,0:0:0:0:
256,192,52070,1,0,0:0:0:0:
256,192,52170,1,0,0:0:0:0:
256,192,52269,1,0,0:0:0:0:
256,192,52666,1,8,0:0:0:0:
256,192,53064,1,4,0:0:0:0:
256,192,53362,1,4,0:0:0:0:
256,192,53660,1,12,0:0:0:0:
256,192,54057,1,8,0:0:0:0:
256,192,54256,1,0,0:0:0:0:
256,192,54653,5,4,0:0:0:0:
256,192,55051,1,0,0:0:0:0:
256,192,55249,1,0,0:0:0:0:
256,192,55448,1,8,0:0:0:0:
256,192,55845,1,8,0:0:0:0:
256,192,56044,1,4,0:0:0:0:
256,192,56441,1,8,0:0:0:0:
256,192,56640,1,8,0:0:0:0:
256,192,57037,1,0,0:0:0:0:
256,192,57435,1,8,0:0:0:0:
256,192,57633,1,0,0:0:0:0:
256,192,57832,1,12,0:0:0:0:
256,192,58229,1,0,0:0:0:0:
256,192,58428,1,8,0:0:0:0:
256,192,58825,1,8,0:0:0:0:
256,192,59024,1,0,0:0:0:0:
256,192,59223,1,12,0:0:0:0:
252,192,59620,1,0,0:0:0:0:
256,192,59819,1,8,0:0:0:0:
256,192,60017,1,0,0:0:0:0:
256,192,60216,1,8,0:0:0:0:
256,192,60315,1,8,0:0:0:0:
256,192,60415,1,8,0:0:0:0:
256,192,60613,1,0,0:0:0:0:
256,192,61011,1,4,0:0:0:0:
256,192,61408,1,8,0:0:0:0:
256,192,61806,1,0,0:0:0:0:
256,192,62004,1,8,0:0:0:0:
256,192,62402,1,4,0:0:0:0:
256,192,62799,1,8,0:0:0:0:
256,192,62998,1,0,0:0:0:0:
256,192,63196,1,8,0:0:0:0:
256,192,63593,1,0,0:0:0:0:
256,192,63792,1,8,0:0:0:0:
256,192,63991,1,0,0:0:0:0:
256,192,64189,1,4,0:0:0:0:
256,192,64587,1,0,0:0:0:0:
256,192,64786,1,8,0:0:0:0:
256,192,65183,1,0,0:0:0:0:
256,192,65382,1,0,0:0:0:0:
256,192,65580,1,12,0:0:0:0:
256,192,65978,1,0,0:0:0:0:
256,192,66176,1,8,0:0:0:0:
256,192,66375,1,12,0:0:0:0:
256,192,66772,1,0,0:0:0:0:
256,192,66971,1,8,0:0:0:0:
256,192,67170,1,0,0:0:0:0:
256,192,67269,1,0,0:0:0:0:
256,192,67368,1,4,0:0:0:0:
256,192,67766,1,0,0:0:0:0:
256,192,67964,1,0,0:0:0:0:
256,192,68163,1,8,0:0:0:0:
256,192,68561,1,8,0:0:0:0:
256,192,68759,1,0,0:0:0:0:
256,192,69157,1,8,0:0:0:0:
256,192,69355,1,8,0:0:0:0:
256,192,69753,1,8,0:0:0:0:
256,192,69951,1,0,0:0:0:0:
256,192,70150,1,8,0:0:0:0:
256,192,70547,1,12,0:0:0:0:
256,192,70945,1,0,0:0:0:0:
256,192,71143,1,8,0:0:0:0:
256,192,71541,1,8,0:0:0:0:
256,192,71739,1,0,0:0:0:0:
256,192,71938,1,12,0:0:0:0:
256,192,72335,1,0,0:0:0:0:
256,192,72534,1,8,0:0:0:0:
256,192,72931,1,8,0:0:0:0:
256,192,73329,1,0,0:0:0:0:
256,192,73527,1,0,0:0:0:0:
256,192,73627,1,0,0:0:0:0:
256,192,73726,1,4,0:0:0:0:
256,192,74123,1,8,0:0:0:0:
256,192,74521,1,0,0:0:0:0:
256,192,74719,1,8,0:0:0:0:
256,192,75117,1,12,0:0:0:0:
256,192,75514,1,8,0:0:0:0:
256,192,75713,1,0,0:0:0:0:
256,192,76110,1,0,0:0:0:0:
256,192,76508,1,8,0:0:0:0:
256,192,76706,1,0,0:0:0:0:
256,192,76806,1,0,0:0:0:0:
256,192,76905,1,0,0:0:0:0:
256,192,77302,1,0,0:0:0:0:
256,192,77501,1,8,0:0:0:0:
256,192,77898,1,8,0:0:0:0:
256,192,78296,1,12,0:0:0:0:
256,192,78693,1,0,0:0:0:0:
256,192,78892,1,8,0:0:0:0:
256,196,79090,1,8,0:0:0:0:
256,196,79488,1,8,0:0:0:0:
256,196,79686,1,0,0:0:0:0:
256,196,79885,1,0,0:0:0:0:
256,192,79984,1,0,0:0:0:0:
256,192,80084,1,4,0:0:0:0:
256,196,80481,1,8,0:0:0:0:
256,192,80878,1,0,0:0:0:0:
256,196,81276,1,8,0:0:0:0:
248,196,81872,1,12,0:0:0:0:
248,200,82070,1,12,0:0:0:0:
248,192,82468,1,12,0:0:0:0:
248,192,82666,1,12,0:0:0:0:
256,192,83064,12,0,87633,0:0:0:0:
