osu file format v14

[General]
AudioFilename: Watashi no Houseibako.mp3
AudioLeadIn: 1000
PreviewTime: 53953
Countdown: 0
SampleSet: Normal
StackLeniency: 0.7
Mode: 1
LetterboxInBreaks: 0
WidescreenStoryboard: 0

[Editor]
DistanceSpacing: 1.2
BeatDivisor: 4
GridSize: 32
TimelineZoom: 1.2

[Metadata]
Title:Watashi no Housekibako
TitleUnicode:私の宝石箱
Artist:Petrarca Ann Erudanto III
ArtistUnicode:ペトラルカ・アン・エルダント
Creator:DavidEd
Version:Kantan
Source:アウトブレイク・カンパニー
Tags:Outbreak Company ed ending
BeatmapID:478725
BeatmapSetID:202313

[Difficulty]
HPDrainRate:3
CircleSize:2
OverallDifficulty:3
ApproachRate:9
SliderMultiplier:1.9599999666214
SliderTickRate:2

[Events]
//Background and Video events
0,0,"backgroundobc.png",0,95
//Break Periods
//Storyboard Layer 0 (Background)
//Storyboard Layer 1 (Fail)
//Storyboard Layer 2 (Pass)
//Storyboard Layer 3 (Foreground)
//Storyboard Sound Samples

[TimingPoints]
-975,397.350993377483,4,1,0,50,1,0
6969,-100,4,1,0,70,0,0
11539,-100,4,1,0,60,0,0
14916,-100,4,1,0,50,0,0
27631,-100,4,1,0,60,0,0
40347,-100,4,1,0,50,0,0
46704,-100,4,1,0,60,0,0
54654,-100,4,1,0,80,0,1
80084,-100,4,1,0,70,0,0
87631,-100,4,1,0,5,0,0

[HitObjects]
256,192,614,5,8,0:0:0:0:
256,192,1210,1,0,0:0:0:0:
256,192,1806,1,0,0:0:0:0:
256,192,2799,1,0,0:0:0:0:
256,192,3197,1,8,0:0:0:0:
256,192,3793,1,8,0:0:0:0:
256,192,4389,1,0,0:0:0:0:
256,192,4985,1,0,0:0:0:0:
256,192,5978,1,8,0:0:0:0:
256,192,6375,1,8,0:0:0:0:
256,192,6972,5,12,0:0:0:0:
256,192,8164,1,4,0:0:0:0:
256,192,9356,1,8,0:0:0:0:
256,192,10150,1,4,0:0:0:0:
256,192,11541,1,12,0:0:0:0:
256,192,12534,1,0,0:0:0:0:
256,192,13329,1,0,0:0:0:0:
256,192,14124,1,0,0:0:0:0:
256,192,14919,1,12,0:0:0:0:
256,192,16508,1,8,0:0:0:0:
256,192,17303,1,0,0:0:0:0:
256,192,18097,1,4,0:0:0:0:
256,192,19687,1,8,0:0:0:0:
256,192,20481,1,0,0:0:0:0:
256,192,21276,1,12,0:0:0:0:
256,192,22866,1,8,0:0:0:0:
256,192,23660,1,0,0:0:0:0:
256,192,24455,1,4,0:0:0:0:
256,192,25846,1,12,0:0:0:0:
256,192,26839,1,0,0:0:0:0:
256,192,27634,1,12,0:0:0:0:
256,192,29223,1,0,0:0:0:0:
256,192,30018,1,8,0:0:0:0:
256,192,30813,1,4,0:0:0:0:
256,192,32402,1,8,0:0:0:0:
256,192,33197,1,0,0:0:0:0:
256,192,33991,1,12,0:0:0:0:
256,192,35581,1,8,0:0:0:0:
256,192,36375,1,0,0:0:0:0:
256,192,37170,1,4,0:0:0:0:
256,192,38561,1,12,0:0:0:0:
256,192,39554,1,0,0:0:0:0:
256,192,40349,1,12,0:0:0:0:
256,192,41938,1,0,0:0:0:0:
256,192,43528,1,12,0:0:0:0:
256,192,44919,1,4,0:0:0:0:
256,192,45713,1,4,0:0:0:0:
256,192,46707,1,12,0:0:0:0:
256,192,48296,1,8,0:0:0:0:
256,192,49091,1,0,0:0:0:0:
256,192,49885,1,8,0:0:0:0:
256,192,51475,1,0,0:0:0:0:
256,192,52270,1,0,0:0:0:0:
256,192,53064,1,12,0:0:0:0:
256,192,54654,1,4,0:0:0:0:
256,192,55448,1,8,0:0:0:0:
256,192,56044,1,0,0:0:0:0:
256,192,57038,1,0,0:0:0:0:
256,192,57832,1,12,0:0:0:0:
256,192,58627,1,0,0:0:0:0:
256,192,59223,1,12,0:0:0:0:
256,192,60217,1,0,0:0:0:0:
256,192,61011,1,12,0:0:0:0:
256,192,61806,1,0,0:0:0:0:
256,192,62402,1,12,0:0:0:0:
256,192,63395,1,0,0:0:0:0:
256,192,64190,1,12,0:0:0:0:
256,192,64985,1,0,0:0:0:0:
256,192,65581,1,12,0:0:0:0:
256,192,66375,1,12,0:0:0:0:
256,192,67369,1,4,0:0:0:0:
256,192,68164,1,8,0:0:0:0:
256,192,68760,1,0,0:0:0:0:
256,192,69753,1,0,0:0:0:0:
256,192,70548,1,12,0:0:0:0:
256,192,71342,1,0,0:0:0:0:
256,192,71938,1,12,0:0:0:0:
256,192,72932,1,8,0:0:0:0:
256,192,73726,1,4,0:0:0:0:
256,192,74521,1,0,0:0:0:0:
256,192,75117,1,12,0:0:0:0:
256,192,76111,1,0,0:0:0:0:
256,192,76905,1,0,0:0:0:0:
256,192,77700,1,8,0:0:0:0:
256,192,78296,1,12,0:0:0:0:
256,192,79289,1,0,0:0:0:0:
256,192,80084,1,12,0:0:0:0:
256,192,80879,1,0,0:0:0:0:
256,192,81872,1,12,0:0:0:0:
256,192,82468,1,12,0:0:0:0:
256,192,83064,12,0,87634,0:0:0:0:
