osu file format v5

[General]
AudioFilename: Step Up Soundtrack - 04 - Petey Pablo - Show Me The Money.mp3
AudioLeadIn: 0
PreviewTime: -1
Countdown: 0
SampleSet: Normal
StackLeniency: 0.7
Mode: 0
LetterboxInBreaks: 1
EditorBookmarks: 5559,30831,39247,48274,56826,107814,126411,152067,169714

[Metadata]
Title:Show Me The Money
Artist:Petey Pablo
Creator:Dakeyrus
Version:Hard
Source:
Tags:

[Difficulty]
HPDrainRate:6
CircleSize:5
OverallDifficulty:7
SliderMultiplier:2
SliderTickRate:2

[Events]
//Background and Video events
0,0,"2006_step_up_wallpaper_001.jpg"
//Break Periods
2,65457,72774
2,91249,107796
2,117584,129515
2,160751,166438
//Storyboard Layer 0 (Background)
//Storyboard Layer 1 (Failing)
//Storyboard Layer 2 (Passing)
//Storyboard Layer 3 (Foreground)
//Storyboard Sound Samples
//Background Colour Transformations
3,100,163,162,255

[TimingPoints]
100,542.983167653779,4,1,1,100

[Colours]
Combo1 : 93,93,93
Combo2 : 140,0,3

[HitObjects]
144,168,6344,2,0,B|240:96,1,100
280,104,6887,1,0
336,104,7158,1,0
392,104,7430,1,0
392,160,7701,1,0
392,216,7973,1,0
392,272,8244,1,0
336,272,8516,6,0,B|224:272,1,100
176,272,9059,1,0
144,328,9330,1,0
112,272,9602,1,0
80,328,9873,1,0
48,272,10145,1,0
80,216,10416,1,0
16,216,10688,1,0
48,152,10959,6,0,B|48:88,1,50
96,80,11366,2,0,B|168:80,1,50
200,80,11774,1,0
264,80,12045,2,0,B|288:32,1,50
336,40,12452,2,0,B|360:96,1,50
320,136,12860,1,0
320,200,13131,5,4
320,264,13403,5,0
264,232,13674,1,0
208,264,13946,1,0
264,296,14217,1,0
208,328,14489,1,0
264,360,14760,1,0
320,328,15032,2,0,B|360:352|392:360|424:352|432:352,1,100
400,296,15575,5,0
360,248,15846,1,0
320,200,16118,1,0
280,152,16389,1,0
312,96,16660,1,0
352,48,16932,1,0
392,96,17203,2,0,B|280:96,1,100
232,96,17746,5,0
168,96,18018,2,0,B|160:72|144:64|120:64|104:72|96:96|96:104,1,100
40,96,18561,1,0
40,160,18832,5,0
104,160,19104,2,0,B|112:184|128:192|152:192|168:184|176:160|176:152,1,100
232,160,19647,1,0
288,160,19918,6,0,B|224:64,1,100
176,80,20461,2,0,B|128:176,1,100
136,232,21004,6,0,B|192:320,1,100
256,312,21547,2,0,B|304:256,1,50
288,272,21819,1,4
288,208,22090,5,0
288,144,22362,1,0
288,104,22498,1,0
288,64,22633,1,0
352,64,22905,1,0
288,64,23176,1,0
224,64,23448,1,0
184,64,23584,1,0
144,64,23719,1,0
144,128,23991,5,0
184,176,24262,1,0
224,128,24534,1,0
248,160,24669,1,0
288,160,24805,1,0
312,128,24941,1,0
352,128,25077,1,0
400,168,25348,1,0
400,232,25620,1,0
368,256,25755,1,0
336,232,25891,1,0
240,232,26434,5,0
184,264,26706,1,0
160,232,26841,1,0
176,200,26977,1,0
136,152,27249,1,0
96,104,27520,1,0
136,56,27792,1,0
168,32,27927,1,0
200,56,28063,1,0
264,56,28335,5,0
328,56,28606,1,0
392,56,28878,1,0
456,56,29149,1,0
456,120,29421,1,0
392,120,29692,1,0
328,120,29964,1,0
264,120,30235,1,0
200,120,30507,5,4
464,344,31321,5,0
400,344,31593,1,0
336,344,31864,1,0
272,344,32136,1,0
272,304,32271,1,0
272,344,32407,1,0
208,344,32678,5,0
160,304,32950,1,0
208,264,33221,1,0
160,224,33493,1,0
208,184,33764,1,0
160,144,34036,1,0
208,104,34307,1,0
184,72,34443,1,0
160,40,34579,1,0
224,40,34850,5,0
160,40,35122,1,0
96,40,35393,1,0
96,104,35665,1,0
160,104,35936,1,0
224,104,36208,1,0
224,168,36479,1,0
192,168,36615,1,0
160,168,36751,1,0
160,232,37022,5,0
160,296,37294,1,0
160,296,37430,1,0
224,296,37701,1,0
224,296,37837,1,0
224,232,38108,5,0
288,232,38380,1,0
288,232,38516,1,0
288,296,38787,1,0
288,296,38923,1,0
344,256,39194,5,4
344,192,39466,5,0
344,128,39737,1,0
400,184,40009,1,0
344,128,40280,1,0
416,128,40552,1,0
344,128,40823,1,0
400,72,41095,1,0
344,128,41366,1,0
344,56,41638,5,0
344,128,41909,1,0
288,72,42181,1,0
344,128,42452,1,0
272,128,42724,1,0
344,128,42995,1,0
288,184,43267,1,0
344,128,43538,1,0
344,200,43810,5,0
344,256,44081,1,0
280,256,44353,1,0
216,256,44624,1,0
216,192,44896,1,0
216,152,45031,1,0
216,112,45167,1,0
216,48,45439,1,0
152,48,45710,5,0
152,112,45982,1,0
88,112,46253,1,0
88,48,46525,1,0
88,112,46796,1,0
152,112,47068,1,0
152,48,47339,1,0
88,48,47611,1,0
32,80,47882,5,4
88,120,48154,5,0
144,160,48425,1,0
200,192,48696,1,0
256,224,48968,1,0
312,256,49239,1,0
368,288,49511,1,0
424,320,49782,1,0
488,352,50054,1,0
488,288,50325,5,0
424,256,50597,1,0
368,224,50868,1,0
312,192,51140,1,0
256,160,51411,1,0
200,128,51683,1,0
144,96,51954,1,0
200,64,52226,1,0
256,96,52497,5,0
312,128,52769,1,0
312,64,53040,1,0
368,96,53312,1,0
400,120,53448,1,0
432,96,53583,1,0
488,136,53855,1,0
432,176,54126,1,0
368,176,54398,6,0,B|264:176,1,100
208,176,54941,2,0,B|200:152|176:144|152:152|120:184,1,100
64,184,55484,6,0,B|64:288,1,100
128,288,56027,2,0,B|184:288,2,50
240,288,56570,5,4
304,288,56841,5,0
368,288,57113,1,0
408,240,57384,1,0
368,184,57656,1,0
304,184,57927,1,0
256,144,58199,1,0
296,96,58470,1,0
360,96,58742,1,4
424,136,59013,5,0
424,200,59285,1,0
376,248,59556,1,0
328,200,59828,1,0
280,152,60099,1,0
232,192,60371,1,0
208,216,60506,1,0
184,240,60642,1,0
224,288,60914,1,4
288,288,61185,5,0
352,288,61457,1,0
352,328,61592,1,0
352,288,61728,1,0
416,288,62000,1,0
416,224,62271,1,0
416,160,62543,1,0
456,160,62678,1,0
416,160,62814,1,0
416,96,63086,1,4
352,96,63357,5,0
288,96,63629,1,0
224,96,63900,1,0
160,96,64172,1,0
160,160,64443,1,0
160,96,64714,1,0
160,32,64986,1,0
160,96,65257,1,4
88,48,73674,6,0,B|192:48,1,100
232,48,74217,6,0,B|336:48,1,100
376,48,74760,6,0,B|456:120,1,100
448,160,75303,6,0,B|360:240,1,100
368,264,75846,6,0,B|472:264,1,100
480,304,76389,6,0,B|376:336,1,100
344,328,76932,6,0,B|296:232,1,100
280,200,77475,6,0,B|280:136,2,50
256,240,78018,6,0,B|200:336,1,100
160,328,78561,6,0,B|104:328,2,50
208,328,79104,6,0,B|160:224,1,100
184,208,79647,6,0,B|240:208,2,50
136,208,80190,6,0,B|192:112,1,100
160,88,80733,6,0,B|104:88,2,50
208,88,81275,6,0,B|272:168,1,100
264,208,81818,6,0,B|264:272,5,50
264,258,82633,5,0
328,256,82904,1,0
328,320,83176,1,0
392,320,83447,1,0
392,256,83719,1,0
392,192,83990,1,0
328,192,84262,1,0
264,192,84533,1,0
264,128,84805,5,0
328,128,85076,1,0
392,128,85348,1,0
392,64,85619,1,0
328,64,85891,1,0
264,64,86162,1,0
200,64,86434,1,0
200,128,86705,1,0
200,192,86977,5,0
200,256,87248,1,0
200,320,87520,1,0
136,320,87791,1,0
136,256,88063,1,0
136,192,88334,1,0
136,128,88606,1,0
136,88,88742,1,0
136,48,88877,1,0
200,48,89149,5,0
232,104,89420,1,0
264,48,89692,1,0
296,104,89963,1,0
264,160,90235,1,0
200,160,90507,1,0
168,104,90778,1,0
232,104,91049,1,0
200,96,108968,5,0
200,96,109104,1,0
200,96,109240,1,0
264,96,109511,5,0
264,96,109647,1,0
264,96,109783,1,0
328,96,110054,5,0
328,96,110190,1,0
328,96,110326,1,0
328,160,110597,5,0
328,160,110869,1,0
264,160,111140,5,0
264,160,111276,1,0
264,160,111412,1,0
200,160,111683,5,0
200,160,111819,1,0
200,160,111955,1,0
128,160,112226,5,0
128,200,112362,1,0
128,240,112498,1,0
200,240,112769,5,0
264,240,113041,1,0
328,240,113311,5,0
328,280,113447,1,0
328,320,113583,1,0
264,320,113854,5,0
224,320,113990,1,0
184,320,114126,1,0
128,320,114397,5,0
128,280,114533,1,0
128,240,114669,1,0
128,176,114940,5,0
128,136,115076,1,0
128,96,115212,1,0
128,32,115483,5,0
192,32,115755,1,0
256,32,116026,1,0
320,32,116298,1,0
288,88,116569,1,0
224,88,116841,1,0
160,88,117112,1,0
192,144,117384,5,4
224,40,130415,5,0
288,40,130687,1,0
224,104,130958,1,0
288,104,131230,1,0
224,168,131501,1,0
288,168,131773,1,0
256,224,132044,1,0
256,288,132316,2,0,B|256:328|256:352|192:352|160:256|168:160|200:88|256:32|304:88|328:160|416:16,1,500
480,24,134216,5,0
480,24,134488,2,0,B|480:136,1,100
480,240,135302,1,0
416,240,135574,1,0
480,240,135845,1,0
416,240,136117,1,0
480,240,136388,1,0
416,240,136660,1,0
352,240,136931,2,0,B|368:192|368:144|344:88|168:88|72:88|48:144|48:208|64:248|264:224,1,600
264,232,139103,5,0
328,168,139375,1,0
328,232,139646,1,0
264,168,139918,1,0
264,104,140189,1,0
200,40,140461,1,0
264,40,140732,1,0
200,104,141004,1,0
200,168,141275,2,0,B|200:208|200:280|200:320|80:320|80:200|400:200,1,400
464,200,142904,5,0
464,264,143176,1,0
368,264,143719,1,0
272,264,144262,1,0
272,104,145076,1,0
272,104,145347,2,0,B|272:216,1,100
256,328,148062,6,0,B|256:208,2,100
256,328,148877,6,0,B|368:328,2,100
256,328,149691,6,0,B|136:328,2,100
256,328,150506,6,0,B|256:224,5,100
216,64,152406,6,0,B|336:64,1,100
320,136,152949,6,0,B|216:136,1,100
216,208,153492,6,0,B|336:208,1,100
320,280,154035,6,0,B|208:280,1,100
384,176,154578,6,0,B|384:288,1,100
312,280,155121,6,0,B|312:168,1,100
240,184,155664,6,0,B|240:288,1,100
176,280,156207,6,0,B|176:176,1,100
112,280,156750,5,0
56,256,157022,2,0,B|56:312,2,50
112,216,157565,5,0
112,152,157836,1,0
168,128,158108,2,0,B|168:192,2,50
120,56,158651,5,0
232,56,159058,1,0
344,56,159465,1,0
344,120,159737,1,0
344,184,160008,1,0
344,224,160144,1,0
344,320,160551,1,4
256,40,167338,5,4
256,136,167746,1,4
256,240,168153,1,4
256,304,168424,1,4
280,360,168696,1,4
240,360,168832,1,4
256,256,169239,5,4
256,192,169510,1,4
