osu file format v9

[General]
AudioFilename: 35 - Stars And Slime Forever & End Titles.mp3
AudioLeadIn: 1985
PreviewTime: 22223
Countdown: 0
SampleSet: Normal
StackLeniency: 0.7
Mode: 1
LetterboxInBreaks: 0

[Editor]
Bookmarks: 158621
DistanceSpacing: 1.94
BeatDivisor: 4
GridSize: 8

[Metadata]
Title:Stars And Slime Forever & End Titles
Artist:Peter McConnell
Creator:Sushi
Version:Taiko
Source:Day Of The Tentacle
Tags:Michael Land Clint Bajakia

[Difficulty]
HPDrainRate:7
CircleSize:4
OverallDifficulty:7
ApproachRate:8
SliderMultiplier:1.4
SliderTickRate:2

[Events]
//Background and Video events
0,0,"dott1.png"
//Break Periods
//Storyboard Layer 0 (Background)
//Storyboard Layer 1 (Fail)
//Storyboard Layer 2 (Pass)
//Storyboard Layer 3 (Foreground)
//Storyboard Sound Samples
//Background Colour Transformations
3,100,163,162,255

[TimingPoints]
494,444.444444444444,4,1,0,54,1,0
1390,500,4,1,0,54,1,0
2485,571.428571428571,4,1,0,54,1,0
6520,468.75,4,1,0,54,1,0
16833,468.75,4,1,0,54,1,0
29020,468.75,4,1,0,54,1,0
42135,446.661207474131,4,1,0,54,1,0
52805,441.176470588235,4,1,0,54,1,0
56385,434.782608695652,4,1,0,54,1,0
59859,430.10752688172,4,1,0,54,1,0
63309,436.363636363636,4,1,0,54,1,0
69408,500,4,1,0,54,1,0
70300,430.632311777794,4,1,0,54,1,0
77208,437.956204379562,4,1,0,54,1,0
84187,434.782608695652,4,1,0,54,1,0
98095,436.046511627907,4,1,0,54,1,0
112036,422.535211267606,4,1,0,54,1,0
113726,476.190476190476,4,1,0,54,1,0
114678,483.870967741935,4,1,0,54,1,0
115155,483.870967741935,4,1,0,54,1,0
115631,535.714285714286,4,1,0,54,1,0
117773,600,4,1,0,54,1,0

[HitObjects]
256,192,493,1,12
256,192,938,1,8
256,192,1390,1,0
256,192,1890,1,0
256,192,2485,12,0,5627
256,192,6520,5,0
256,192,6754,1,8
256,192,6988,1,0
256,192,7223,1,8
256,192,7340,1,8
256,192,7457,1,0
256,192,7691,1,8
256,192,7926,1,0
256,192,8160,1,0
256,192,8395,1,0
256,192,8629,1,8
256,192,8863,1,0
256,192,9098,1,8
256,192,9215,1,8
256,192,9332,1,0
256,192,9566,1,8
256,192,9801,1,0
256,192,10035,1,0
256,192,10152,1,0
256,192,10270,1,8
256,192,10504,1,8
256,192,10738,1,0
256,192,10973,1,0
256,192,11207,1,0
256,192,11441,1,8
256,192,11559,1,8
256,192,11676,1,0
256,192,11910,1,0
256,192,12145,1,0
256,192,12379,1,8
256,192,12613,1,0
256,192,12848,1,8
256,192,13082,1,0
256,192,13316,1,8
256,192,13434,1,0
256,192,13551,1,8
256,192,13785,1,8
256,192,13902,1,8
256,192,14020,1,0
256,192,14254,1,0
256,192,14488,1,0
256,192,14723,1,8
256,192,14957,1,0
256,192,15191,1,0
256,192,15426,1,8
256,192,15660,1,8
256,192,15895,1,0
256,192,16129,1,0
256,192,16363,1,8
256,192,16598,1,8
256,192,16833,1,0
256,192,17067,1,8
256,192,17184,1,0
256,192,17301,1,8
256,192,17536,1,8
256,192,17653,1,0
256,192,17770,1,8
256,192,18004,1,8
256,192,18122,1,0
256,192,18239,1,8
256,192,18473,1,8
256,192,18590,1,0
256,192,18708,1,0
256,192,18942,1,8
256,192,19059,1,0
256,192,19176,1,8
256,192,19411,1,8
256,192,19528,1,0
256,192,19645,1,8
256,192,19879,1,8
256,192,19997,1,0
256,192,20114,1,8
256,192,20348,1,8
256,192,20465,1,0
256,192,20583,1,0
256,192,20817,1,8
256,192,21051,1,0
256,192,21286,1,8
256,192,21520,1,0
256,192,21754,1,0
256,192,21872,1,0
256,192,21989,1,8
256,192,22223,1,0
256,192,22340,1,0
256,192,22458,1,8
256,192,22692,1,8
256,192,22926,1,0
256,192,23161,1,0
256,192,23395,1,0
256,192,23629,1,8
256,192,23747,1,8
256,192,23864,1,0
256,192,24098,1,0
256,192,24333,1,0
256,192,24567,1,8
256,192,24801,1,0
256,192,25036,1,8
256,192,25270,1,0
256,192,25504,1,8
256,192,25622,1,0
256,192,25739,1,8
256,192,25973,1,8
256,192,26090,1,8
256,192,26208,1,0
256,192,26442,1,0
256,192,26676,1,0
256,192,26911,1,8
256,192,27145,1,0
256,192,27379,1,0
256,192,27614,1,8
256,192,27848,1,8
256,192,28083,1,0
256,192,28317,1,0
256,192,28551,1,8
256,192,28786,1,8
256,192,29020,1,0
256,192,29254,1,8
256,192,29371,1,0
256,192,29488,1,8
256,192,29723,1,8
256,192,29840,1,0
256,192,29957,1,8
256,192,30191,1,8
256,192,30309,1,0
256,192,30426,1,8
256,192,30660,1,8
256,192,30777,1,0
256,192,30895,1,0
256,192,31129,1,8
256,192,31246,1,0
256,192,31363,1,8
256,192,31598,1,8
256,192,31715,1,0
256,192,31832,1,8
256,192,32066,1,8
256,192,32184,1,0
256,192,32301,1,8
256,192,32535,1,8
256,192,32652,1,0
256,192,32770,1,0
256,192,33004,1,8
256,192,33238,1,0
256,192,33473,1,8
256,192,33707,1,0
256,192,33941,1,0
256,192,34176,1,0
256,192,34254,1,0
256,192,34332,1,0
256,192,34410,1,0
256,192,34488,1,0
256,192,34566,1,0
256,192,34645,1,8
256,192,35113,1,4
256,192,35582,1,12
256,192,36051,1,4
256,192,36520,1,12
256,192,36754,1,8
256,192,36988,1,4
256,192,37457,1,12
256,192,37691,1,8
256,192,37926,1,4
256,192,38395,1,12
256,192,38629,1,8
256,192,38863,1,4
256,192,39332,1,12
256,192,39566,1,8
256,192,39801,1,4
256,192,40270,1,12
256,192,40504,1,8
256,192,40738,1,4
256,192,40973,1,8
256,192,41207,1,12
256,192,41441,1,8
256,192,41676,1,0
256,192,41754,1,0
256,192,41832,1,0
256,192,41910,1,0
256,192,41988,1,0
256,192,42066,1,0
256,192,42135,1,0
256,192,42581,1,0
256,192,43028,1,8
256,192,43474,1,0
256,192,43921,1,0
256,192,44368,1,0
256,192,44591,1,0
256,192,44703,1,8
256,192,44814,1,8
256,192,45038,1,0
256,192,45149,1,8
256,192,45261,1,8
256,192,45373,1,8
256,192,45484,1,8
256,192,45708,1,0
256,192,46154,1,0
256,192,46601,1,0
256,192,46936,1,8
256,192,47048,1,0
256,192,47271,1,8
256,192,47494,1,0
256,192,47718,1,8
256,192,47829,1,8
256,192,47941,1,8
256,192,48164,1,0
256,192,48388,1,0
256,192,48611,1,8
256,192,48834,1,8
256,192,49281,12,8,52408
256,192,52805,5,0
256,192,52952,1,0
256,192,53099,1,0
256,192,53246,1,8
256,192,53466,1,0
256,192,53577,1,8
256,192,53687,1,0
256,192,53907,1,8
256,192,54128,1,8
256,192,54349,1,0
256,192,54422,1,0
256,192,54496,1,0
256,192,54569,1,0
256,192,54790,1,0
256,192,55010,1,8
256,192,55231,1,0
256,192,55452,1,0
256,192,55525,1,0
256,192,55599,1,0
256,192,55672,1,0
256,192,55746,1,0
256,192,55819,1,0
256,192,55893,1,0
256,192,56113,1,8
256,192,56334,1,4
256,192,56602,1,8
256,192,56819,1,0
256,192,57037,1,8
256,192,57254,1,0
256,192,57471,1,8
256,192,57689,1,0
256,192,57906,1,8
256,192,58015,1,8
256,192,58124,1,0
256,192,58341,1,8
256,192,58558,1,0
256,192,58776,1,8
256,192,58993,1,0
256,192,59211,1,0
256,192,59428,1,8
256,192,59645,1,8
256,192,59859,1,0
256,192,60074,1,8
256,192,60181,1,8
256,192,60289,1,0
256,192,60504,1,0
256,192,60719,1,0
256,192,60934,1,8
256,192,61041,1,8
256,192,61149,1,8
256,192,61364,1,0
256,192,61579,1,0
256,192,61794,1,8
256,192,62009,1,0
256,192,62224,1,8
256,192,62439,1,0
256,192,62547,1,0
256,192,62654,1,8
256,192,62762,1,8
256,192,62869,1,0
256,192,63084,1,8
256,192,63309,1,0
256,192,63527,1,8
256,192,63636,1,8
256,192,63745,1,8
256,192,63963,1,0
256,192,64181,1,0
256,192,64399,1,8
256,192,64509,1,8
256,192,64618,1,8
256,192,64836,1,0
256,192,65054,1,0
256,192,65272,1,8
256,192,65490,1,0
256,192,65709,1,8
256,192,65927,1,0
256,192,66036,1,0
256,192,66145,1,8
256,192,66254,1,8
256,192,66363,1,0
256,192,66581,1,8
256,192,66799,1,0
256,192,67018,1,0
256,192,67127,1,0
256,192,67236,1,0
256,192,67454,1,8
256,192,67672,1,0
256,192,67890,1,8
256,192,67999,1,8
256,192,68109,1,8
256,192,68327,1,0
256,192,68545,1,0
256,192,68763,1,0
256,192,68872,1,8
256,192,68981,1,0
256,192,69199,1,8
256,192,69408,1,0
256,192,69491,1,0
256,192,69574,1,0
256,192,69657,1,0
256,192,69741,1,0
256,192,69824,1,0
256,192,69907,1,0
256,192,69991,1,0
256,192,70074,1,0
256,192,70158,1,0
256,192,70241,1,0
256,192,70300,1,0
256,192,70515,1,8
256,192,70730,1,0
256,192,70945,1,8
256,192,71161,1,0
256,192,71376,1,8
256,192,71591,1,0
256,192,71807,1,8
256,192,71914,1,8
256,192,72022,1,0
256,192,72237,1,0
256,192,72453,1,8
256,192,72668,1,8
256,192,72883,1,0
256,192,73099,1,8
256,192,73314,1,0
256,192,73529,1,8
256,192,73637,1,8
256,192,73745,1,0
256,192,74175,1,0
256,192,74606,1,4
256,192,75252,1,8
256,192,75467,1,0
256,192,75682,1,0
256,192,75790,1,0
256,192,75898,1,8
256,192,76113,1,0
256,192,76328,1,0
256,192,76544,1,8
256,192,76759,1,0
256,192,76974,1,8
256,192,77208,1,0
256,192,77426,1,8
256,192,77536,1,8
256,192,77645,1,8
256,192,77864,1,0
256,192,78083,1,0
256,192,78302,1,8
256,192,78412,1,8
256,192,78521,1,8
256,192,78740,1,8
256,192,78959,1,0
256,192,79178,1,8
256,192,79288,1,8
256,192,79397,1,8
256,192,79616,1,0
256,192,79835,1,0
256,192,80054,1,8
256,192,80164,1,8
256,192,80273,1,8
256,192,80492,1,8
256,192,80711,1,0
256,192,80930,1,8
256,192,81040,1,8
256,192,81149,1,8
256,192,81368,1,0
256,192,81587,1,8
256,192,81697,1,8
256,192,81806,1,8
256,192,81916,1,8
256,192,82025,1,8
256,192,82244,1,8
256,192,82463,1,0
256,192,82682,1,0
256,192,82791,1,0
256,192,82901,1,8
256,192,83120,1,8
256,192,83339,1,0
256,192,83412,1,0
256,192,83485,1,0
256,192,83558,1,0
256,192,83631,1,0
256,192,83704,1,0
256,192,83777,1,0
256,192,83996,1,0
256,192,84187,1,0
256,200,84621,1,0
256,200,85056,1,0
256,200,85491,1,0
256,200,85817,1,0
256,200,85926,1,0
256,200,86252,1,0
256,200,86360,1,0
256,200,86687,1,0
256,200,86795,1,8
256,200,87013,1,4
256,200,87230,1,12
256,200,87556,1,0
256,200,87665,1,0
256,200,87991,1,0
256,200,88100,1,8
256,200,88426,1,0
256,200,88534,1,0
256,200,88752,1,12
256,200,88969,1,4
256,200,89295,1,0
256,200,89404,1,0
256,200,89730,1,0
256,200,89839,1,0
256,200,90165,1,0
256,200,90273,1,8
256,200,90600,1,8
256,200,90708,1,0
256,200,91034,1,0
256,200,91143,1,0
232,224,91360,1,8
232,224,91469,1,8
232,224,91578,1,8
232,224,91795,1,4
232,224,92013,1,12
256,200,92447,1,0
256,200,92882,1,0
256,200,93100,1,8
256,200,93208,1,8
256,200,93317,1,8
256,200,93534,1,4
256,200,93752,1,4
256,200,94187,1,0
256,200,94621,1,0
256,200,95056,1,8
256,200,95273,1,0
256,200,95382,1,0
256,200,95491,1,8
256,200,96360,1,0
256,200,96578,1,0
256,200,96687,1,0
256,200,96795,1,0
256,200,97013,1,8
256,200,97230,1,0
256,200,97447,1,0
256,200,97556,1,0
256,200,97665,1,0
256,200,97882,1,8
256,200,98095,2,0,B|400:192,2,140
256,200,99185,1,8
256,200,99403,1,0
256,200,99621,1,0
256,200,99839,2,0,B|400:192,2,140
256,192,101583,1,8
256,192,101801,1,4
256,192,102019,1,12
256,192,102237,1,0
256,192,102455,1,8
256,192,102673,1,0
256,192,102782,1,0
256,192,102891,1,8
256,200,103218,1,0
256,200,103327,1,0
256,200,103654,1,0
256,200,103763,1,0
256,200,104090,1,0
256,200,104199,1,8
256,200,104417,1,4
256,200,104635,1,12
256,200,104962,1,0
256,200,105071,1,0
256,200,105398,1,0
256,200,105507,1,8
256,200,105834,1,0
256,200,105943,1,0
256,200,106161,1,12
256,200,106379,1,4
256,200,106706,1,0
256,200,106815,1,8
256,200,107142,1,0
256,200,107251,1,8
256,200,107579,1,0
256,200,107688,1,8
256,200,108015,1,0
256,200,108124,1,8
256,200,108451,1,8
256,200,108560,1,8
232,224,108778,1,8
232,224,108887,1,8
232,224,108996,1,8
232,224,109214,1,4
232,224,109432,1,12
256,200,109868,1,0
256,200,110304,1,0
256,200,110522,1,8
256,200,110631,1,8
256,200,110740,1,8
256,200,110958,1,4
256,200,111176,1,4
256,200,111612,1,0
256,200,112036,1,0
256,200,112458,1,8
256,200,112669,1,0
256,200,112775,1,0
256,200,112881,1,8
256,200,113092,1,0
256,200,113197,1,0
256,200,113303,1,0
256,200,113726,1,0
256,200,114202,1,0
256,200,114678,1,0
256,200,114798,1,8
256,200,114919,1,0
256,200,115040,1,0
256,200,115155,1,0
256,200,115275,1,8
256,200,115396,1,0
256,200,115517,1,0
256,192,115631,12,0,120173
